  0
SECTION
  2
HEADER
  9
$ACADVER
  1
AC1018
  9
$ACADMAINTVER
 70
     0
  9
$DWGCODEPAGE
  3
ANSI_932
  9
$INSBASE
 10
0.0
 20
0.0
 30
0.0
  9
$EXTMIN
 10
-576.407819354754
 20
-325.5450260240045
 30
-4.200101666666666
  9
$EXTMAX
 10
263.5905006452459
 20
268.4542939759955
 30
4.200101666666666
  9
$LIMMIN
 10
0.0
 20
0.0
  9
$LIMMAX
 10
0.0
 20
0.0
  9
$ORTHOMODE
 70
     0
  9
$REGENMODE
 70
     1
  9
$FILLMODE
 70
     1
  9
$QTEXTMODE
 70
     0
  9
$MIRRTEXT
 70
     1
  9
$LTSCALE
 40
10.16
  9
$ATTMODE
 70
     1
  9
$TEXTSIZE
 40
0.2
  9
$TRACEWID
 40
1.0
  9
$TEXTSTYLE
  7
Standard
  9
$CLAYER
  8
一般
  9
$CELTYPE
  6
Continuous
  9
$CECOLOR
 62
   256
  9
$CELTSCALE
 40
1.0
  9
$DISPSILH
 70
     0
  9
$DIMSCALE
 40
1.0
  9
$DIMASZ
 40
4.4896484375
  9
$DIMEXO
 40
3.175
  9
$DIMDLI
 40
10.16
  9
$DIMRND
 40
0.0
  9
$DIMDLE
 40
1.5875
  9
$DIMEXE
 40
6.35
  9
$DIMTP
 40
0.0
  9
$DIMTM
 40
0.0
  9
$DIMTXT
 40
7.601258680555556
  9
$DIMCEN
 40
0.0
  9
$DIMTSZ
 40
0.0
  9
$DIMTOL
 70
     0
  9
$DIMLIM
 70
     0
  9
$DIMTIH
 70
     0
  9
$DIMTOH
 70
     0
  9
$DIMSE1
 70
     0
  9
$DIMSE2
 70
     0
  9
$DIMTAD
 70
     1
  9
$DIMZIN
 70
    11
  9
$DIMBLK
  1
VW_SLASH
  9
$DIMASO
 70
     1
  9
$DIMSHO
 70
     1
  9
$DIMPOST
  1
<>
  9
$DIMAPOST
  1
[]
  9
$DIMALT
 70
     0
  9
$DIMALTD
 70
     3
  9
$DIMALTF
 40
0.0010936132983377
  9
$DIMLFAC
 40
1.0
  9
$DIMTOFL
 70
     1
  9
$DIMTVP
 40
0.0
  9
$DIMTIX
 70
     1
  9
$DIMSOXD
 70
     0
  9
$DIMSAH
 70
     0
  9
$DIMBLK1
  1

  9
$DIMBLK2
  1

  9
$DIMSTYLE
  2
Arch
  9
$DIMCLRD
 70
     0
  9
$DIMCLRE
 70
     0
  9
$DIMCLRT
 70
     0
  9
$DIMTFAC
 40
1.0
  9
$DIMGAP
 40
1.5875
  9
$DIMJUST
 70
     0
  9
$DIMSD1
 70
     0
  9
$DIMSD2
 70
     0
  9
$DIMTOLJ
 70
     1
  9
$DIMTZIN
 70
    11
  9
$DIMALTZ
 70
     7
  9
$DIMALTTZ
 70
     7
  9
$DIMUPT
 70
     0
  9
$DIMDEC
 70
     1
  9
$DIMTDEC
 70
     1
  9
$DIMALTU
 70
     2
  9
$DIMALTTD
 70
     2
  9
$DIMTXSTY
  7
ＭＳ ゴシック (bold)
  9
$DIMAUNIT
 70
     0
  9
$DIMADEC
 70
     2
  9
$DIMALTRND
 40
0.0
  9
$DIMAZIN
 70
     0
  9
$DIMDSEP
 70
    46
  9
$DIMATFIT
 70
     0
  9
$DIMFRAC
 70
     2
  9
$DIMLDRBLK
  1

  9
$DIMLUNIT
 70
     2
  9
$DIMLWD
 70
    -2
  9
$DIMLWE
 70
    -2
  9
$DIMTMOVE
 70
     0
  9
$LUNITS
 70
     2
  9
$LUPREC
 70
     4
  9
$SKETCHINC
 40
0.1
  9
$FILLETRAD
 40
0.0
  9
$AUNITS
 70
     0
  9
$AUPREC
 70
     0
  9
$MENU
  1
acad
  9
$ELEVATION
 40
0.0
  9
$PELEVATION
 40
0.0
  9
$THICKNESS
 40
0.0
  9
$LIMCHECK
 70
     0
  9
$CHAMFERA
 40
0.0
  9
$CHAMFERB
 40
0.0
  9
$CHAMFERC
 40
0.0
  9
$CHAMFERD
 40
0.0
  9
$SKPOLY
 70
     0
  9
$TDCREATE
 40
2447893.375
  9
$TDUCREATE
 40
0.0
  9
$TDUPDATE
 40
2447893.375
  9
$TDUUPDATE
 40
0.0
  9
$TDINDWG
 40
0.0
  9
$TDUSRTIMER
 40
0.0
  9
$USRTIMER
 70
     1
  9
$ANGBASE
 50
0.0
  9
$ANGDIR
 70
     0
  9
$PDMODE
 70
     1
  9
$PDSIZE
 40
-2.0
  9
$PLINEWID
 40
0.0
  9
$SPLFRAME
 70
     0
  9
$SPLINETYPE
 70
     6
  9
$SPLINESEGS
 70
     8
  9
$HANDSEED
  5
14A
  9
$SURFTAB1
 70
     6
  9
$SURFTAB2
 70
     6
  9
$SURFTYPE
 70
     6
  9
$SURFU
 70
     6
  9
$SURFV
 70
     6
  9
$UCSBASE
  2

  9
$UCSNAME
  2

  9
$UCSORG
 10
0.0
 20
0.0
 30
0.0
  9
$UCSXDIR
 10
1.0
 20
0.0
 30
0.0
  9
$UCSYDIR
 10
0.0
 20
1.0
 30
0.0
  9
$UCSORTHOREF
  2

  9
$UCSORTHOVIEW
 70
     0
  9
$UCSORGTOP
 10
0.0
 20
0.0
 30
0.0
  9
$UCSORGBOTTOM
 10
0.0
 20
0.0
 30
0.0
  9
$UCSORGLEFT
 10
0.0
 20
0.0
 30
0.0
  9
$UCSORGRIGHT
 10
0.0
 20
0.0
 30
0.0
  9
$UCSORGFRONT
 10
0.0
 20
0.0
 30
0.0
  9
$UCSORGBACK
 10
0.0
 20
0.0
 30
0.0
  9
$PUCSBASE
  2

  9
$PUCSNAME
  2

  9
$PUCSORG
 10
0.0
 20
0.0
 30
0.0
  9
$PUCSXDIR
 10
1.0
 20
0.0
 30
0.0
  9
$PUCSYDIR
 10
0.0
 20
1.0
 30
0.0
  9
$PUCSORTHOREF
  2

  9
$PUCSORTHOVIEW
 70
     0
  9
$PUCSORGTOP
 10
0.0
 20
0.0
 30
0.0
  9
$PUCSORGBOTTOM
 10
0.0
 20
0.0
 30
0.0
  9
$PUCSORGLEFT
 10
0.0
 20
0.0
 30
0.0
  9
$PUCSORGRIGHT
 10
0.0
 20
0.0
 30
0.0
  9
$PUCSORGFRONT
 10
0.0
 20
0.0
 30
0.0
  9
$PUCSORGBACK
 10
0.0
 20
0.0
 30
0.0
  9
$USERI1
 70
     0
  9
$USERI2
 70
     0
  9
$USERI3
 70
     0
  9
$USERI4
 70
     0
  9
$USERI5
 70
     0
  9
$USERR1
 40
0.0
  9
$USERR2
 40
0.0
  9
$USERR3
 40
0.0
  9
$USERR4
 40
0.0
  9
$USERR5
 40
0.0
  9
$WORLDVIEW
 70
     1
  9
$SHADEDGE
 70
     3
  9
$SHADEDIF
 70
    70
  9
$TILEMODE
 70
     1
  9
$MAXACTVP
 70
    64
  9
$PINSBASE
 10
0.0
 20
0.0
 30
0.0
  9
$PLIMCHECK
 70
     0
  9
$PEXTMIN
 10
1.000000000000000E+20
 20
1.000000000000000E+20
 30
1.000000000000000E+20
  9
$PEXTMAX
 10
-1.000000000000000E+20
 20
-1.000000000000000E+20
 30
-1.000000000000000E+20
  9
$PLIMMIN
 10
0.0
 20
0.0
  9
$PLIMMAX
 10
12.0
 20
9.0
  9
$UNITMODE
 70
     0
  9
$VISRETAIN
 70
     0
  9
$PLINEGEN
 70
     1
  9
$PSLTSCALE
 70
     0
  9
$TREEDEPTH
 70
  3020
  9
$CMLSTYLE
  2
Standard
  9
$CMLJUST
 70
     0
  9
$CMLSCALE
 40
1.0
  9
$PROXYGRAPHICS
 70
     0
  9
$MEASUREMENT
 70
     1
  9
$CELWEIGHT
370
     0
  9
$ENDCAPS
280
     0
  9
$JOINSTYLE
280
     0
  9
$LWDISPLAY
290
     1
  9
$INSUNITS
 70
     4
  9
$HYPERLINKBASE
  1

  9
$STYLESHEET
  1

  9
$XEDIT
290
     1
  9
$CEPSNTYPE
380
     0
  9
$PSTYLEMODE
290
     1
  9
$FINGERPRINTGUID
  2

  9
$VERSIONGUID
  2

  9
$EXTNAMES
290
     1
  9
$PSVPSCALE
 40
0.0
  9
$OLESTARTUP
290
     0
  9
$SORTENTS
280
   127
  9
$INDEXCTL
280
     0
  9
$HIDETEXT
280
     1
  9
$XCLIPFRAME
290
     0
  9
$HALOGAP
280
     0
  9
$OBSCOLOR
 70
   257
  9
$OBSLTYPE
280
     0
  9
$INTERSECTIONDISPLAY
280
     0
  9
$INTERSECTIONCOLOR
 70
   257
  9
$DIMASSOC
280
     2
  9
$PROJECTNAME
  1

  0
ENDSEC
  0
SECTION
  2
CLASSES
  0
CLASS
  1
LWPOLYLINE
  2
AcDbPolyline
  3
AutoCAD 2000
 90
        0
 91
        1
280
     0
281
     1
  0
CLASS
  1
IMAGE
  2
AcDbRasterImage
  3
ISM
 90
      127
 91
        4
280
     0
281
     1
  0
CLASS
  1
OLE2FRAME
  2
AcDbOle2Frame
  3
AutoCAD 2000
 90
        0
 91
        1
280
     0
281
     1
  0
CLASS
  1
HATCH
  2
AcDbHatch
  3
AutoCAD 2000
 90
        0
 91
        1
280
     0
281
     1
  0
CLASS
  1
DICTIONARYVAR
  2
AcDbDictionaryVar
  3
ObjectDBX Classes
 90
        0
 91
        3
280
     0
281
     0
  0
CLASS
  1
RASTERVARIABLES
  2
AcDbRasterVariables
  3
ISM
 90
        0
 91
        3
280
     0
281
     0
  0
CLASS
  1
IMAGEDEF
  2
AcDbRasterImageDef
  3
ISM
 90
        0
 91
        3
280
     0
281
     0
  0
CLASS
  1
IMAGEDEF_REACTOR
  2
AcDbRasterImageDefReactor
  3
ISM
 90
        1
 91
        3
280
     0
281
     0
  0
CLASS
  1
IDBUFFER
  2
AcDbIdBuffer
  3
ObjectDBX Classes
 90
        0
 91
        3
280
     0
281
     0
  0
CLASS
  1
SPATIAL_FILTER
  2
AcDbSpatialFilter
  3
ObjectDBX Classes
 90
        0
 91
        3
280
     0
281
     0
  0
CLASS
  1
XRECORD
  2
AcDbXrecord
  3
AutoCAD 2000
 90
        0
 91
        1
280
     0
281
     0
  0
CLASS
  1
SORTENTSTABLE
  2
AcDbSortentsTable
  3
ObjectDBX Classes
 90
        0
 91
        3
280
     0
281
     0
  0
CLASS
  1
LAYER_INDEX
  2
AcDbLayerIndex
  3
ObjectDBX Classes
 90
        0
 91
        3
280
     0
281
     0
  0
CLASS
  1
SPATIAL_INDEX
  2
AcDbSpatialIndex
  3
AutoCAD 2000
 90
        0
 91
        3
280
     0
281
     0
  0
CLASS
  1
OBJECT_PTR
  2
CAseDLPNTableRecord
  3
ASE-LPNTableRecord
 90
        1
 91
        3
280
     0
281
     0
  0
CLASS
  1
LAYOUT
  2
AcDbLayout
  3
ObjectDBX Classes
 90
        0
 91
        1
280
     0
281
     0
  0
CLASS
  1
PLOTSETTINGS
  2
AcDbPlotSettings
  3
ObjectDBX Classes
 90
        0
 91
        3
280
     0
281
     0
  0
CLASS
  1
ACDBDICTIONARYWDFLT
  2
AcDbDictionaryWithDefault
  3
ObjectDBX Classes
 90
        0
 91
        3
280
     0
281
     0
  0
CLASS
  1
ACDBPLACEHOLDER
  2
AcDbPlaceHolder
  3
ObjectDBX Classes
 90
        0
 91
        1
280
     0
281
     0
  0
CLASS
  1
VBA_PROJECT
  2
AcDbVbaProject
  3
ObjectDBX Classes
 90
        0
 91
        1
280
     0
281
     0
  0
CLASS
  1
WIPEOUT
  2
AcDbWipeout
  3
WipeOut|AutoCAD Express Tool|expresstools@autodesk.com
 90
      127
 91
        3
280
     0
281
     1
  0
CLASS
  1
WIPEOUTVARIABLES
  2
AcDbWipeoutVariables
  3
WipeOut|AutoCAD Express Tool|expresstools@autodesk.com
 90
        0
 91
        3
280
     0
281
     0
  0
CLASS
  1
RTEXT
  2
RText
  3
RText|AutoCAD Express Tool|expresstools@autodesk.com
 90
        0
 91
        3
280
     0
281
     1
  0
CLASS
  1
ARCALIGNEDTEXT
  2
AcDbArcAlignedText
  3
ATEXT|AutoCAD Express Tool|expresstools@autodesk.com
 90
        0
 91
        3
280
     0
281
     1
  0
ENDSEC
  0
SECTION
  2
TABLES
  0
TABLE
  2
VPORT
  5
7
330
0
100
AcDbSymbolTable
 70
     1
  0
VPORT
  5
15
330
7
100
AcDbSymbolTableRecord
100
AcDbViewportTableRecord
  2
*ACTIVE
 70
     0
 10
0.0
 20
0.0
 11
1.0
 21
1.0
 12
-156.408659354754
 22
-28.54536602400447
 13
0.0
 23
0.0
 14
1.0
 24
1.0
 15
0.0
 25
0.0
 16
0.0
 26
0.0
 36
1.0
 17
0.0
 27
0.0
 37
0.0
 40
593.99932
 41
0.688564
 42
50.0
 43
0.0
 44
0.0
 50
0.0
 51
0.0
 71
     0
 72
  2000
 73
     1
 74
     1
 75
     0
 76
     0
 77
     0
 78
     0
281
     0
 65
     0
110
0.0
120
0.0
130
0.0
111
1.0
121
0.0
131
0.0
112
0.0
122
1.0
132
0.0
 79
     0
146
0.0
  0
ENDTAB
  0
TABLE
  2
LTYPE
  5
4
330
0
100
AcDbSymbolTable
 70
    11
  0
LTYPE
  5
11
330
4
100
AcDbSymbolTableRecord
100
AcDbLinetypeTableRecord
  2
ByBlock
 70
     0
  3

 72
    65
 73
     0
 40
0.0
  0
LTYPE
  5
12
330
4
100
AcDbSymbolTableRecord
100
AcDbLinetypeTableRecord
  2
ByLayer
 70
     0
  3

 72
    65
 73
     0
 40
0.0
  0
LTYPE
  5
13
330
4
100
AcDbSymbolTableRecord
100
AcDbLinetypeTableRecord
  2
Continuous
 70
     0
  3
Solid line
 72
    65
 73
     0
 40
0.0
  0
LTYPE
  5
30
330
4
100
AcDbSymbolTableRecord
100
AcDbLinetypeTableRecord
  2
STYLE_01
 70
     0
  3

 72
    65
 73
     2
 40
0.41664
 49
0.20828
 74
     0
 49
-0.20836
 74
     0
  0
LTYPE
  5
31
330
4
100
AcDbSymbolTableRecord
100
AcDbLinetypeTableRecord
  2
STYLE_02
 70
     0
  3

 72
    65
 73
     2
 40
0.6944250000000001
 49
0.48607
 74
     0
 49
-0.2083550000000001
 74
     0
  0
LTYPE
  5
32
330
4
100
AcDbSymbolTableRecord
100
AcDbLinetypeTableRecord
  2
STYLE_03
 70
     0
  3

 72
    65
 73
     2
 40
1.25
 49
1.04164
 74
     0
 49
-0.2083599999999999
 74
     0
  0
LTYPE
  5
33
330
4
100
AcDbSymbolTableRecord
100
AcDbLinetypeTableRecord
  2
STYLE_04
 70
     0
  3

 72
    65
 73
     2
 40
1.52771
 49
1.319425
 74
     0
 49
-0.208285
 74
     0
  0
LTYPE
  5
34
330
4
100
AcDbSymbolTableRecord
100
AcDbLinetypeTableRecord
  2
STYLE_05
 70
     0
  3

 72
    65
 73
     2
 40
0.20828
 49
0.069425
 74
     0
 49
-0.138855
 74
     0
  0
LTYPE
  5
35
330
4
100
AcDbSymbolTableRecord
100
AcDbLinetypeTableRecord
  2
STYLE_06
 70
     0
  3

 72
    65
 73
     4
 40
1.04164
 49
0.625
 74
     0
 49
-0.20828
 74
     0
 49
0.06943
 74
     0
 49
-0.13893
 74
     0
  0
LTYPE
  5
36
330
4
100
AcDbSymbolTableRecord
100
AcDbLinetypeTableRecord
  2
STYLE_07
 70
     0
  3

 72
    65
 73
     6
 40
1.875
 49
0.625
 74
     0
 49
-0.20828
 74
     0
 49
0.6250000000000001
 74
     0
 49
-0.2083599999999999
 74
     0
 49
0.06943
 74
     0
 49
-0.1389299999999999
 74
     0
  0
LTYPE
  5
37
330
4
100
AcDbSymbolTableRecord
100
AcDbLinetypeTableRecord
  2
STYLE_08
 70
     0
  3

 72
    65
 73
     6
 40
1.25
 49
0.625
 74
     0
 49
-0.20828
 74
     0
 49
0.06943
 74
     0
 49
-0.13893
 74
     0
 49
0.0694299999999999
 74
     0
 49
-0.13893
 74
     0
  0
LTYPE
  5
38
330
4
100
AcDbSymbolTableRecord
100
AcDbLinetypeTableRecord
  2
STYLE_09
 70
     0
  3

 72
    65
 73
     4
 40
5.0
 49
3.75
 74
     0
 49
-0.2777849999999998
 74
     0
 49
0.6944300000000003
 74
     0
 49
-0.2777849999999998
 74
     0
  0
LTYPE
  5
39
330
4
100
AcDbSymbolTableRecord
100
AcDbLinetypeTableRecord
  2
STYLE_10
 70
     0
  3

 72
    65
 73
     6
 40
5.9375
 49
3.75
 74
     0
 49
-0.2777849999999998
 74
     0
 49
0.6944300000000003
 74
     0
 49
-0.2777849999999998
 74
     0
 49
0.625
 74
     0
 49
-0.3125
 74
     0
  0
ENDTAB
  0
TABLE
  2
LAYER
  5
2
330
0
100
AcDbSymbolTable
 70
     4
  0
LAYER
  5
14
330
2
100
AcDbSymbolTableRecord
100
AcDbLayerTableRecord
  2
0
 70
     0
 62
     7
  6
Continuous
370
    -3
390
1D
  0
LAYER
  5
3A
330
2
100
AcDbSymbolTableRecord
100
AcDbLayerTableRecord
  2
一般
 70
     0
 62
     7
  6
Continuous
370
   100
390
1D
  0
LAYER
  5
3B
330
2
100
AcDbSymbolTableRecord
100
AcDbLayerTableRecord
  2
寸法
 70
     0
 62
     7
  6
Continuous
370
   100
390
1D
  0
LAYER
  5
3C
330
2
100
AcDbSymbolTableRecord
100
AcDbLayerTableRecord
  2
Defpoints
 70
     0
 62
     7
  6
Continuous
290
     0
370
    -3
390
1D
  0
ENDTAB
  0
TABLE
  2
STYLE
  5
3
330
0
100
AcDbSymbolTable
 70
     2
  0
STYLE
  5
17
330
3
100
AcDbSymbolTableRecord
100
AcDbTextStyleTableRecord
  2
Standard
 70
     0
 40
0.0
 41
1.0
 50
0.0
 71
     0
 42
0.0
  3
txt
  4
BIGFONT.SHX
  0
STYLE
  5
2F
330
3
100
AcDbSymbolTableRecord
100
AcDbTextStyleTableRecord
  2
ＭＳ ゴシック (bold)
 70
     0
 40
0.0
 41
1.0
 50
0.0
 71
     0
 42
0.0
  3

  4
ＭＳ ゴシック
1001
ACAD
1000
ＭＳ ゴシック
1071
 33554432
  0
ENDTAB
  0
TABLE
  2
VIEW
  5
5
330
0
100
AcDbSymbolTable
 70
     0
  0
ENDTAB
  0
TABLE
  2
UCS
  5
6
330
0
100
AcDbSymbolTable
 70
     0
  0
ENDTAB
  0
TABLE
  2
APPID
  5
8
330
0
100
AcDbSymbolTable
 70
     1
  0
APPID
  5
16
330
8
100
AcDbSymbolTableRecord
100
AcDbRegAppTableRecord
  2
ACAD
 70
     0
  0
ENDTAB
  0
TABLE
  2
DIMSTYLE
  5
9
330
0
100
AcDbSymbolTable
 70
     2
100
AcDbDimStyleTable
  0
DIMSTYLE
105
18
330
9
100
AcDbSymbolTableRecord
100
AcDbDimStyleTableRecord
  2
Standard
 70
     0
340
17
  0
DIMSTYLE
105
46
330
9
100
AcDbSymbolTableRecord
100
AcDbDimStyleTableRecord
  2
Arch
 70
     0
  3
<>
  4
[]
 41
4.4896484375
 42
3.175
 43
10.16
 44
6.35
 46
1.5875
 73
     0
 74
     0
 77
     1
 78
    11
140
7.601258680555556
141
0.0
143
0.0010936132983377
147
1.5875
171
     3
172
     1
174
     1
179
     2
271
     1
272
     1
276
     2
284
    11
285
     7
286
     7
289
     0
340
2F
341
42
342
3D
  0
ENDTAB
  0
TABLE
  2
BLOCK_RECORD
  5
1
330
0
100
AcDbSymbolTable
 70
    13
  0
BLOCK_RECORD
  5
A
330
1
100
AcDbSymbolTableRecord
100
AcDbBlockTableRecord
  2
*MODEL_SPACE
340
20
  0
BLOCK_RECORD
  5
B
330
1
100
AcDbSymbolTableRecord
100
AcDbBlockTableRecord
  2
*PAPER_SPACE
340
21
  0
BLOCK_RECORD
  5
3D
330
1
100
AcDbSymbolTableRecord
100
AcDbBlockTableRecord
  2
VW_SLASH
340
0
  0
BLOCK_RECORD
  5
42
330
1
100
AcDbSymbolTableRecord
100
AcDbBlockTableRecord
  2
VW_FILLEDARROW
340
0
  0
BLOCK_RECORD
  5
24
330
1
100
AcDbSymbolTableRecord
100
AcDbBlockTableRecord
  2
グループ
340
0
102
{BLKREFS
331
84
102
}
  0
BLOCK_RECORD
  5
25
330
1
100
AcDbSymbolTableRecord
100
AcDbBlockTableRecord
  2
Drawing Border - Universal
340
0
102
{BLKREFS
331
136
102
}
  0
BLOCK_RECORD
  5
26
330
1
100
AcDbSymbolTableRecord
100
AcDbBlockTableRecord
  2
グループ-1
340
0
102
{BLKREFS
331
BB
102
}
  0
BLOCK_RECORD
  5
27
330
1
100
AcDbSymbolTableRecord
100
AcDbBlockTableRecord
  2
グループ-2
340
0
102
{BLKREFS
331
BC
102
}
  0
BLOCK_RECORD
  5
28
330
1
100
AcDbSymbolTableRecord
100
AcDbBlockTableRecord
  2
グループ-3
340
0
102
{BLKREFS
331
13D
102
}
  0
BLOCK_RECORD
  5
29
330
1
100
AcDbSymbolTableRecord
100
AcDbBlockTableRecord
  2
グループ-4
340
0
102
{BLKREFS
331
13E
102
}
  0
BLOCK_RECORD
  5
2A
330
1
100
AcDbSymbolTableRecord
100
AcDbBlockTableRecord
  2
*D8
340
0
  0
BLOCK_RECORD
  5
2B
330
1
100
AcDbSymbolTableRecord
100
AcDbBlockTableRecord
  2
*D9
340
0
  0
BLOCK_RECORD
  5
2C
330
1
100
AcDbSymbolTableRecord
100
AcDbBlockTableRecord
  2
*D10
340
0
  0
BLOCK_RECORD
  5
2D
330
1
100
AcDbSymbolTableRecord
100
AcDbBlockTableRecord
  2
*D11
340
0
  0
BLOCK_RECORD
  5
2E
330
1
100
AcDbSymbolTableRecord
100
AcDbBlockTableRecord
  2
*D12
340
0
  0
ENDTAB
  0
ENDSEC
  0
SECTION
  2
BLOCKS
  0
BLOCK
  5
D
330
A
100
AcDbEntity
  8
0
390
1D
100
AcDbBlockBegin
  2
*MODEL_SPACE
 70
     0
 71
     0
 10
0.0
 20
0.0
 30
0.0
  3
*MODEL_SPACE
  1

  0
ENDBLK
  5
E
330
A
100
AcDbEntity
  8
0
390
1D
100
AcDbBlockEnd
  0
BLOCK
  5
F
330
B
100
AcDbEntity
 67
     1
  8
0
390
1D
100
AcDbBlockBegin
  2
*PAPER_SPACE
 70
     0
 71
     0
 10
0.0
 20
0.0
 30
0.0
  3
*PAPER_SPACE
  1

  0
ENDBLK
  5
10
330
B
100
AcDbEntity
 67
     1
  8
0
390
1D
100
AcDbBlockEnd
  0
BLOCK
  5
3E
330
3D
100
AcDbEntity
  8
0
  6
ByBlock
 62
     0
370
    -2
390
1D
100
AcDbBlockBegin
  2
VW_SLASH
 70
     0
 71
     0
 10
0.0
 20
0.0
 30
0.0
  3
VW_SLASH
  1

  0
LINE
  5
3F
330
3D
100
AcDbEntity
  8
0
  6
ByBlock
 62
     0
370
    -2
390
1D
100
AcDbLine
 10
0.0
 20
0.0
 30
0.0
 11
-1.0
 21
0.0
 31
0.0
  0
LINE
  5
40
330
3D
100
AcDbEntity
  8
0
  6
ByBlock
 62
     0
370
    20
390
1D
100
AcDbLine
 10
-0.2499387689946005
 20
-0.2499387689946004
 30
0.0
 11
0.2499387689946005
 21
0.2499387689946004
 31
0.0
  0
ENDBLK
  5
41
330
3D
100
AcDbEntity
  8
0
390
1D
100
AcDbBlockEnd
  0
BLOCK
  5
43
330
42
100
AcDbEntity
  8
0
  6
ByBlock
 62
     0
370
    -2
390
1D
100
AcDbBlockBegin
  2
VW_FILLEDARROW
 70
     0
 71
     0
 10
0.0
 20
0.0
 30
0.0
  3
VW_FILLEDARROW
  1

  0
SOLID
  5
44
330
42
100
AcDbEntity
  8
0
 62
     0
370
    -2
390
1D
100
AcDbTrace
 10
0.0
 20
0.0
 30
0.0
 11
-0.70693359375
 21
-0.1894222855477439
 31
0.0
 12
-0.70693359375
 22
0.1894222855477441
 32
0.0
 13
-0.70693359375
 23
0.1894222855477441
 33
0.0
  0
ENDBLK
  5
45
330
42
100
AcDbEntity
  8
0
390
1D
100
AcDbBlockEnd
  0
BLOCK
  5
47
330
24
100
AcDbEntity
  8
一般
390
1D
100
AcDbBlockBegin
  2
グループ
 70
     0
 71
     0
 10
0.0
 20
0.0
 30
0.0
  3
グループ
  1

  0
POLYLINE
  5
48
330
24
100
AcDbEntity
  8
一般
  6
Continuous
 62
     7
370
    13
390
1D
100
AcDb2dPolyline
 66
     1
 10
0.0
 20
0.0
 30
0.0
 70
     1
 75
     5
  0
VERTEX
  5
49
330
48
100
AcDbEntity
  8
一般
  6
Continuous
 62
     7
370
    13
390
1D
100
AcDbVertex
100
AcDb2dVertex
 10
-419.99916
 20
296.99966
 30
0.0
  0
VERTEX
  5
4A
330
48
100
AcDbEntity
  8
一般
  6
Continuous
 62
     7
370
    13
390
1D
100
AcDbVertex
100
AcDb2dVertex
 10
419.99916
 20
296.99966
 30
0.0
  0
VERTEX
  5
4B
330
48
100
AcDbEntity
  8
一般
  6
Continuous
 62
     7
370
    13
390
1D
100
AcDbVertex
100
AcDb2dVertex
 10
419.99916
 20
-296.99966
 30
0.0
  0
VERTEX
  5
4C
330
48
100
AcDbEntity
  8
一般
  6
Continuous
 62
     7
370
    13
390
1D
100
AcDbVertex
100
AcDb2dVertex
 10
-419.99916
 20
-296.99966
 30
0.0
  0
SEQEND
  5
4D
330
48
100
AcDbEntity
  8
一般
  6
Continuous
 62
     7
370
    13
390
1D
  0
POLYLINE
  5
4F
330
24
100
AcDbEntity
  8
一般
  6
Continuous
 62
     7
370
    18
390
1D
100
AcDb2dPolyline
 66
     1
 10
0.0
 20
0.0
 30
0.0
 70
     1
 75
     5
  0
VERTEX
  5
50
330
4F
100
AcDbEntity
  8
一般
  6
Continuous
 62
     7
370
    18
390
1D
100
AcDbVertex
100
AcDb2dVertex
 10
-379.99924
 20
256.99974
 30
0.0
  0
VERTEX
  5
51
330
4F
100
AcDbEntity
  8
一般
  6
Continuous
 62
     7
370
    18
390
1D
100
AcDbVertex
100
AcDb2dVertex
 10
379.99924
 20
256.99974
 30
0.0
  0
VERTEX
  5
52
330
4F
100
AcDbEntity
  8
一般
  6
Continuous
 62
     7
370
    18
390
1D
100
AcDbVertex
100
AcDb2dVertex
 10
379.99924
 20
-256.99974
 30
0.0
  0
VERTEX
  5
53
330
4F
100
AcDbEntity
  8
一般
  6
Continuous
 62
     7
370
    18
390
1D
100
AcDbVertex
100
AcDb2dVertex
 10
-379.99924
 20
-256.99974
 30
0.0
  0
SEQEND
  5
54
330
4F
100
AcDbEntity
  8
一般
  6
Continuous
 62
     7
370
    18
390
1D
  0
LINE
  5
56
330
24
100
AcDbEntity
  8
一般
  6
Continuous
 62
     7
370
    18
390
1D
100
AcDbLine
 10
-379.99924
 20
256.99974
 30
0.0
 11
-379.99924
 21
276.30374
 31
0.0
  0
LINE
  5
57
330
24
100
AcDbEntity
  8
一般
  6
Continuous
 62
     7
370
    18
390
1D
100
AcDbLine
 10
-253.3328266666667
 20
256.99974
 30
0.0
 11
-253.3328266666667
 21
276.30374
 31
0.0
  0
LINE
  5
58
330
24
100
AcDbEntity
  8
一般
  6
Continuous
 62
     7
370
    18
390
1D
100
AcDbLine
 10
-126.6664133333334
 20
256.99974
 30
0.0
 11
-126.6664133333334
 21
276.30374
 31
0.0
  0
LINE
  5
59
330
24
100
AcDbEntity
  8
一般
  6
Continuous
 62
     7
370
    18
390
1D
100
AcDbLine
 10
-0.0000000000000284
 20
256.99974
 30
0.0
 11
-0.0000000000000284
 21
276.30374
 31
0.0
  0
LINE
  5
5A
330
24
100
AcDbEntity
  8
一般
  6
Continuous
 62
     7
370
    18
390
1D
100
AcDbLine
 10
126.6664133333333
 20
256.99974
 30
0.0
 11
126.6664133333333
 21
276.30374
 31
0.0
  0
LINE
  5
5B
330
24
100
AcDbEntity
  8
一般
  6
Continuous
 62
     7
370
    18
390
1D
100
AcDbLine
 10
253.3328266666666
 20
256.99974
 30
0.0
 11
253.3328266666666
 21
276.30374
 31
0.0
  0
LINE
  5
5C
330
24
100
AcDbEntity
  8
一般
  6
Continuous
 62
     7
370
    18
390
1D
100
AcDbLine
 10
379.9992399999999
 20
256.99974
 30
0.0
 11
379.9992399999999
 21
276.30374
 31
0.0
  0
LINE
  5
5D
330
24
100
AcDbEntity
  8
一般
  6
Continuous
 62
     7
370
    18
390
1D
100
AcDbLine
 10
-379.99924
 20
-256.99974
 30
0.0
 11
-379.99924
 21
-276.30374
 31
0.0
  0
LINE
  5
5E
330
24
100
AcDbEntity
  8
一般
  6
Continuous
 62
     7
370
    18
390
1D
100
AcDbLine
 10
-253.3328266666667
 20
-256.99974
 30
0.0
 11
-253.3328266666667
 21
-276.30374
 31
0.0
  0
LINE
  5
5F
330
24
100
AcDbEntity
  8
一般
  6
Continuous
 62
     7
370
    18
390
1D
100
AcDbLine
 10
-126.6664133333334
 20
-256.99974
 30
0.0
 11
-126.6664133333334
 21
-276.30374
 31
0.0
  0
LINE
  5
60
330
24
100
AcDbEntity
  8
一般
  6
Continuous
 62
     7
370
    18
390
1D
100
AcDbLine
 10
-0.0000000000000284
 20
-256.99974
 30
0.0
 11
-0.0000000000000284
 21
-276.30374
 31
0.0
  0
LINE
  5
61
330
24
100
AcDbEntity
  8
一般
  6
Continuous
 62
     7
370
    18
390
1D
100
AcDbLine
 10
126.6664133333333
 20
-256.99974
 30
0.0
 11
126.6664133333333
 21
-276.30374
 31
0.0
  0
LINE
  5
62
330
24
100
AcDbEntity
  8
一般
  6
Continuous
 62
     7
370
    18
390
1D
100
AcDbLine
 10
253.3328266666666
 20
-256.99974
 30
0.0
 11
253.3328266666666
 21
-276.30374
 31
0.0
  0
LINE
  5
63
330
24
100
AcDbEntity
  8
一般
  6
Continuous
 62
     7
370
    18
390
1D
100
AcDbLine
 10
379.9992399999999
 20
-256.99974
 30
0.0
 11
379.9992399999999
 21
-276.30374
 31
0.0
  0
LINE
  5
64
330
24
100
AcDbEntity
  8
一般
  6
Continuous
 62
     7
370
    18
390
1D
100
AcDbLine
 10
-379.99924
 20
256.99974
 30
0.0
 11
-399.30324
 21
256.99974
 31
0.0
  0
LINE
  5
65
330
24
100
AcDbEntity
  8
一般
  6
Continuous
 62
     7
370
    18
390
1D
100
AcDbLine
 10
-379.99924
 20
128.49987
 30
0.0
 11
-399.30324
 21
128.49987
 31
0.0
  0
LINE
  5
66
330
24
100
AcDbEntity
  8
一般
  6
Continuous
 62
     7
370
    18
390
1D
100
AcDbLine
 10
-379.99924
 20
0.0
 30
0.0
 11
-399.30324
 21
0.0
 31
0.0
  0
LINE
  5
67
330
24
100
AcDbEntity
  8
一般
  6
Continuous
 62
     7
370
    18
390
1D
100
AcDbLine
 10
-379.99924
 20
-128.49987
 30
0.0
 11
-399.30324
 21
-128.49987
 31
0.0
  0
LINE
  5
68
330
24
100
AcDbEntity
  8
一般
  6
Continuous
 62
     7
370
    18
390
1D
100
AcDbLine
 10
-379.99924
 20
-256.99974
 30
0.0
 11
-399.30324
 21
-256.99974
 31
0.0
  0
LINE
  5
69
330
24
100
AcDbEntity
  8
一般
  6
Continuous
 62
     7
370
    18
390
1D
100
AcDbLine
 10
379.99924
 20
256.99974
 30
0.0
 11
399.30324
 21
256.99974
 31
0.0
  0
LINE
  5
6A
330
24
100
AcDbEntity
  8
一般
  6
Continuous
 62
     7
370
    18
390
1D
100
AcDbLine
 10
379.99924
 20
128.49987
 30
0.0
 11
399.30324
 21
128.49987
 31
0.0
  0
LINE
  5
6B
330
24
100
AcDbEntity
  8
一般
  6
Continuous
 62
     7
370
    18
390
1D
100
AcDbLine
 10
379.99924
 20
0.0
 30
0.0
 11
399.30324
 21
0.0
 31
0.0
  0
LINE
  5
6C
330
24
100
AcDbEntity
  8
一般
  6
Continuous
 62
     7
370
    18
390
1D
100
AcDbLine
 10
379.99924
 20
-128.49987
 30
0.0
 11
399.30324
 21
-128.49987
 31
0.0
  0
LINE
  5
6D
330
24
100
AcDbEntity
  8
一般
  6
Continuous
 62
     7
370
    18
390
1D
100
AcDbLine
 10
379.99924
 20
-256.99974
 30
0.0
 11
399.30324
 21
-256.99974
 31
0.0
  0
MTEXT
  5
6E
330
24
100
AcDbEntity
  8
一般
 62
     7
390
1D
100
AcDbMText
 10
-316.6660333333333
 20
269.69974
 30
0.0
 40
9.773046875
 41
0.0
 71
     5
 72
     1
  1
1
  7
ＭＳ ゴシック (bold)
 73
     1
 44
0.7828267384257843
  0
MTEXT
  5
6F
330
24
100
AcDbEntity
  8
一般
 62
     7
390
1D
100
AcDbMText
 10
-316.6660333333333
 20
-269.69974
 30
0.0
 40
9.773046875
 41
0.0
 71
     5
 72
     1
  1
1
  7
ＭＳ ゴシック (bold)
 73
     1
 44
0.7828267384257843
  0
MTEXT
  5
70
330
24
100
AcDbEntity
  8
一般
 62
     7
390
1D
100
AcDbMText
 10
-189.99962
 20
269.69974
 30
0.0
 40
9.773046875
 41
0.0
 71
     5
 72
     1
  1
2
  7
ＭＳ ゴシック (bold)
 73
     1
 44
0.7828267384257843
  0
MTEXT
  5
71
330
24
100
AcDbEntity
  8
一般
 62
     7
390
1D
100
AcDbMText
 10
-189.99962
 20
-269.69974
 30
0.0
 40
9.773046875
 41
0.0
 71
     5
 72
     1
  1
2
  7
ＭＳ ゴシック (bold)
 73
     1
 44
0.7828267384257843
  0
MTEXT
  5
72
330
24
100
AcDbEntity
  8
一般
 62
     7
390
1D
100
AcDbMText
 10
-63.33320666666667
 20
269.69974
 30
0.0
 40
9.773046875
 41
0.0
 71
     5
 72
     1
  1
3
  7
ＭＳ ゴシック (bold)
 73
     1
 44
0.7828267384257843
  0
MTEXT
  5
73
330
24
100
AcDbEntity
  8
一般
 62
     7
390
1D
100
AcDbMText
 10
-63.33320666666667
 20
-269.69974
 30
0.0
 40
9.773046875
 41
0.0
 71
     5
 72
     1
  1
3
  7
ＭＳ ゴシック (bold)
 73
     1
 44
0.7828267384257843
  0
MTEXT
  5
74
330
24
100
AcDbEntity
  8
一般
 62
     7
390
1D
100
AcDbMText
 10
63.33320666666665
 20
269.69974
 30
0.0
 40
9.773046875
 41
0.0
 71
     5
 72
     1
  1
4
  7
ＭＳ ゴシック (bold)
 73
     1
 44
0.7828267384257843
  0
MTEXT
  5
75
330
24
100
AcDbEntity
  8
一般
 62
     7
390
1D
100
AcDbMText
 10
63.33320666666665
 20
-269.69974
 30
0.0
 40
9.773046875
 41
0.0
 71
     5
 72
     1
  1
4
  7
ＭＳ ゴシック (bold)
 73
     1
 44
0.7828267384257843
  0
MTEXT
  5
76
330
24
100
AcDbEntity
  8
一般
 62
     7
390
1D
100
AcDbMText
 10
189.99962
 20
269.69974
 30
0.0
 40
9.773046875
 41
0.0
 71
     5
 72
     1
  1
5
  7
ＭＳ ゴシック (bold)
 73
     1
 44
0.7828267384257843
  0
MTEXT
  5
77
330
24
100
AcDbEntity
  8
一般
 62
     7
390
1D
100
AcDbMText
 10
189.99962
 20
-269.69974
 30
0.0
 40
9.773046875
 41
0.0
 71
     5
 72
     1
  1
5
  7
ＭＳ ゴシック (bold)
 73
     1
 44
0.7828267384257843
  0
MTEXT
  5
78
330
24
100
AcDbEntity
  8
一般
 62
     7
390
1D
100
AcDbMText
 10
316.6660333333333
 20
269.69974
 30
0.0
 40
9.773046875
 41
0.0
 71
     5
 72
     1
  1
6
  7
ＭＳ ゴシック (bold)
 73
     1
 44
0.7828267384257843
  0
MTEXT
  5
79
330
24
100
AcDbEntity
  8
一般
 62
     7
390
1D
100
AcDbMText
 10
316.6660333333333
 20
-269.69974
 30
0.0
 40
9.773046875
 41
0.0
 71
     5
 72
     1
  1
6
  7
ＭＳ ゴシック (bold)
 73
     1
 44
0.7828267384257843
  0
MTEXT
  5
7A
330
24
100
AcDbEntity
  8
一般
 62
     7
390
1D
100
AcDbMText
 10
-392.69924
 20
192.749805
 30
0.0
 40
9.773046875
 41
0.0
 71
     5
 72
     1
  1
A
  7
ＭＳ ゴシック (bold)
 73
     1
 44
0.7828267384257843
  0
MTEXT
  5
7B
330
24
100
AcDbEntity
  8
一般
 62
     7
390
1D
100
AcDbMText
 10
392.69924
 20
192.749805
 30
0.0
 40
9.773046875
 41
0.0
 71
     5
 72
     1
  1
A
  7
ＭＳ ゴシック (bold)
 73
     1
 44
0.7828267384257843
  0
MTEXT
  5
7C
330
24
100
AcDbEntity
  8
一般
 62
     7
390
1D
100
AcDbMText
 10
-392.69924
 20
64.24993500000002
 30
0.0
 40
9.773046875
 41
0.0
 71
     5
 72
     1
  1
B
  7
ＭＳ ゴシック (bold)
 73
     1
 44
0.7828267384257843
  0
MTEXT
  5
7D
330
24
100
AcDbEntity
  8
一般
 62
     7
390
1D
100
AcDbMText
 10
392.69924
 20
64.24993500000002
 30
0.0
 40
9.773046875
 41
0.0
 71
     5
 72
     1
  1
B
  7
ＭＳ ゴシック (bold)
 73
     1
 44
0.7828267384257843
  0
MTEXT
  5
7E
330
24
100
AcDbEntity
  8
一般
 62
     7
390
1D
100
AcDbMText
 10
-392.69924
 20
-64.249935
 30
0.0
 40
9.773046875
 41
0.0
 71
     5
 72
     1
  1
C
  7
ＭＳ ゴシック (bold)
 73
     1
 44
0.7828267384257843
  0
MTEXT
  5
7F
330
24
100
AcDbEntity
  8
一般
 62
     7
390
1D
100
AcDbMText
 10
392.69924
 20
-64.249935
 30
0.0
 40
9.773046875
 41
0.0
 71
     5
 72
     1
  1
C
  7
ＭＳ ゴシック (bold)
 73
     1
 44
0.7828267384257843
  0
MTEXT
  5
80
330
24
100
AcDbEntity
  8
一般
 62
     7
390
1D
100
AcDbMText
 10
-392.69924
 20
-192.749805
 30
0.0
 40
9.773046875
 41
0.0
 71
     5
 72
     1
  1
D
  7
ＭＳ ゴシック (bold)
 73
     1
 44
0.7828267384257843
  0
MTEXT
  5
81
330
24
100
AcDbEntity
  8
一般
 62
     7
390
1D
100
AcDbMText
 10
392.69924
 20
-192.749805
 30
0.0
 40
9.773046875
 41
0.0
 71
     5
 72
     1
  1
D
  7
ＭＳ ゴシック (bold)
 73
     1
 44
0.7828267384257843
  0
ENDBLK
  5
82
330
24
100
AcDbEntity
  8
一般
390
1D
100
AcDbBlockEnd
  0
BLOCK
  5
83
330
25
100
AcDbEntity
  8
一般
390
1D
100
AcDbBlockBegin
  2
Drawing Border - Universal
 70
     0
 71
     0
 10
0.0
 20
0.0
 30
0.0
  3
Drawing Border - Universal
  1

  0
INSERT
  5
84
330
25
100
AcDbEntity
  8
一般
 62
     7
390
1D
100
AcDbBlockReference
  2
グループ
 10
0.0
 20
0.0
 30
0.0
  0
ENDBLK
  5
85
330
25
100
AcDbEntity
  8
一般
390
1D
100
AcDbBlockEnd
  0
BLOCK
  5
86
330
26
100
AcDbEntity
  8
一般
390
1D
100
AcDbBlockBegin
  2
グループ-1
 70
     0
 71
     0
 10
0.0
 20
0.0
 30
0.0
  3
グループ-1
  1

  0
LINE
  5
87
330
26
100
AcDbEntity
  8
一般
  6
Continuous
 62
     7
370
    25
390
1D
100
AcDbLine
 10
-90.59134064524596
 20
114.5453660240045
 30
0.0
 11
-85.59134064524596
 21
114.5453660240045
 31
0.0
  0
LINE
  5
88
330
26
100
AcDbEntity
  8
一般
  6
Continuous
 62
     7
370
    25
390
1D
100
AcDbLine
 10
-90.59134064524596
 20
102.5453660240045
 30
0.0
 11
-85.59134064524596
 21
102.5453660240045
 31
0.0
  0
LINE
  5
89
330
26
100
AcDbEntity
  8
一般
  6
Continuous
 62
     7
370
    25
390
1D
100
AcDbLine
 10
-90.59134064524596
 20
102.5453660240045
 30
0.0
 11
-90.59134064524596
 21
99.54536602400447
 31
0.0
  0
LINE
  5
8A
330
26
100
AcDbEntity
  8
一般
  6
Continuous
 62
     7
370
    25
390
1D
100
AcDbLine
 10
-90.59134064524596
 20
117.5453660240045
 30
0.0
 11
-90.59134064524596
 21
114.5453660240045
 31
0.0
  0
LINE
  5
8B
330
26
100
AcDbEntity
  8
一般
  6
Continuous
 62
     7
370
    25
390
1D
100
AcDbLine
 10
-90.59134064524596
 20
117.5453660240045
 30
0.0
 11
-101.591340645246
 21
117.5453660240045
 31
0.0
  0
LINE
  5
8C
330
26
100
AcDbEntity
  8
一般
  6
Continuous
 62
     7
370
    25
390
1D
100
AcDbLine
 10
-90.59134064524596
 20
99.54536602400447
 30
0.0
 11
-101.591340645246
 21
99.54536602400447
 31
0.0
  0
ENDBLK
  5
8D
330
26
100
AcDbEntity
  8
一般
390
1D
100
AcDbBlockEnd
  0
BLOCK
  5
8E
330
27
100
AcDbEntity
  8
一般
390
1D
100
AcDbBlockBegin
  2
グループ-2
 70
     0
 71
     0
 10
0.0
 20
0.0
 30
0.0
  3
グループ-2
  1

  0
LINE
  5
8F
330
27
100
AcDbEntity
  8
一般
  6
Continuous
 62
     7
370
    25
390
1D
100
AcDbLine
 10
-90.59134064524596
 20
-45.45463397599553
 30
0.0
 11
-85.59134064524596
 21
-45.45463397599553
 31
0.0
  0
LINE
  5
90
330
27
100
AcDbEntity
  8
一般
  6
Continuous
 62
     7
370
    25
390
1D
100
AcDbLine
 10
-90.59134064524596
 20
-57.45463397599553
 30
0.0
 11
-85.59134064524596
 21
-57.45463397599553
 31
0.0
  0
LINE
  5
91
330
27
100
AcDbEntity
  8
一般
  6
Continuous
 62
     7
370
    25
390
1D
100
AcDbLine
 10
-90.59134064524596
 20
-57.45463397599553
 30
0.0
 11
-90.59134064524596
 21
-60.45463397599553
 31
0.0
  0
LINE
  5
92
330
27
100
AcDbEntity
  8
一般
  6
Continuous
 62
     7
370
    25
390
1D
100
AcDbLine
 10
-90.59134064524596
 20
-42.45463397599553
 30
0.0
 11
-90.59134064524596
 21
-45.45463397599553
 31
0.0
  0
LINE
  5
93
330
27
100
AcDbEntity
  8
一般
  6
Continuous
 62
     7
370
    25
390
1D
100
AcDbLine
 10
-90.59134064524596
 20
-42.45463397599553
 30
0.0
 11
-101.591340645246
 21
-42.45463397599553
 31
0.0
  0
LINE
  5
94
330
27
100
AcDbEntity
  8
一般
  6
Continuous
 62
     7
370
    25
390
1D
100
AcDbLine
 10
-90.59134064524596
 20
-60.45463397599553
 30
0.0
 11
-101.591340645246
 21
-60.45463397599553
 31
0.0
  0
ENDBLK
  5
95
330
27
100
AcDbEntity
  8
一般
390
1D
100
AcDbBlockEnd
  0
BLOCK
  5
96
330
28
100
AcDbEntity
  8
一般
390
1D
100
AcDbBlockBegin
  2
グループ-3
 70
     0
 71
     0
 10
0.0
 20
0.0
 30
0.0
  3
グループ-3
  1

  0
POLYLINE
  5
97
330
28
100
AcDbEntity
  8
一般
  6
Continuous
 62
     7
370
    25
390
1D
100
AcDb2dPolyline
 66
     1
 10
0.0
 20
0.0
 30
0.0
 70
     1
 75
     5
  0
VERTEX
  5
98
330
97
100
AcDbEntity
  8
一般
  6
Continuous
 62
     7
370
    25
390
1D
100
AcDbVertex
100
AcDb2dVertex
 10
-101.591340645246
 20
93.04536602400447
 30
0.0
  0
VERTEX
  5
99
330
97
100
AcDbEntity
  8
一般
  6
Continuous
 62
     7
370
    25
390
1D
100
AcDbVertex
100
AcDb2dVertex
 10
-98.79134064524598
 20
93.04536602400447
 30
0.0
  0
VERTEX
  5
9A
330
97
100
AcDbEntity
  8
一般
  6
Continuous
 62
     7
370
    25
390
1D
100
AcDbVertex
100
AcDb2dVertex
 10
-98.79134064524598
 20
88.54536602400447
 30
0.0
  0
VERTEX
  5
9B
330
97
100
AcDbEntity
  8
一般
  6
Continuous
 62
     7
370
    25
390
1D
100
AcDbVertex
100
AcDb2dVertex
 10
-101.591340645246
 20
88.54536602400447
 30
0.0
  0
SEQEND
  5
9C
330
97
100
AcDbEntity
  8
一般
  6
Continuous
 62
     7
370
    25
390
1D
  0
POLYLINE
  5
9E
330
28
100
AcDbEntity
  8
一般
  6
Continuous
 62
     7
370
    25
390
1D
100
AcDb2dPolyline
 66
     1
 10
0.0
 20
0.0
 30
0.0
 70
     1
 75
     5
  0
VERTEX
  5
9F
330
9E
100
AcDbEntity
  8
一般
  6
Continuous
 62
     7
370
    25
390
1D
100
AcDbVertex
100
AcDb2dVertex
 10
-101.591340645246
 20
-31.45463397599553
 30
0.0
  0
VERTEX
  5
A0
330
9E
100
AcDbEntity
  8
一般
  6
Continuous
 62
     7
370
    25
390
1D
100
AcDbVertex
100
AcDb2dVertex
 10
-98.79134064524598
 20
-31.45463397599553
 30
0.0
  0
VERTEX
  5
A1
330
9E
100
AcDbEntity
  8
一般
  6
Continuous
 62
     7
370
    25
390
1D
100
AcDbVertex
100
AcDb2dVertex
 10
-98.79134064524598
 20
-35.95463397599553
 30
0.0
  0
VERTEX
  5
A2
330
9E
100
AcDbEntity
  8
一般
  6
Continuous
 62
     7
370
    25
390
1D
100
AcDbVertex
100
AcDb2dVertex
 10
-101.591340645246
 20
-35.95463397599553
 30
0.0
  0
SEQEND
  5
A3
330
9E
100
AcDbEntity
  8
一般
  6
Continuous
 62
     7
370
    25
390
1D
  0
POLYLINE
  5
A5
330
28
100
AcDbEntity
  8
一般
  6
Continuous
 62
     7
370
    25
390
1D
100
AcDb2dPolyline
 66
     1
 10
0.0
 20
0.0
 30
0.0
 70
     1
 75
     5
  0
VERTEX
  5
A6
330
A5
100
AcDbEntity
  8
一般
  6
Continuous
 62
     7
370
    25
390
1D
100
AcDbVertex
100
AcDb2dVertex
 10
-101.591340645246
 20
139.5453660240045
 30
0.0
  0
VERTEX
  5
A7
330
A5
100
AcDbEntity
  8
一般
  6
Continuous
 62
     7
370
    25
390
1D
100
AcDbVertex
100
AcDb2dVertex
 10
-91.59134064524596
 20
139.5453660240045
 30
0.0
  0
VERTEX
  5
A8
330
A5
100
AcDbEntity
  8
一般
  6
Continuous
 62
     7
370
    25
390
1D
100
AcDbVertex
100
AcDb2dVertex
 10
-91.59134064524596
 20
127.5453660240045
 30
0.0
  0
VERTEX
  5
A9
330
A5
100
AcDbEntity
  8
一般
  6
Continuous
 62
     7
370
    25
390
1D
100
AcDbVertex
100
AcDb2dVertex
 10
-101.591340645246
 20
127.5453660240045
 30
0.0
  0
SEQEND
  5
AA
330
A5
100
AcDbEntity
  8
一般
  6
Continuous
 62
     7
370
    25
390
1D
  0
POLYLINE
  5
AC
330
28
100
AcDbEntity
  8
一般
  6
Continuous
 62
     7
370
    25
390
1D
100
AcDb2dPolyline
 66
     1
 10
0.0
 20
0.0
 30
0.0
 70
     1
 75
     5
  0
VERTEX
  5
AD
330
AC
100
AcDbEntity
  8
一般
  6
Continuous
 62
     7
370
    25
390
1D
100
AcDbVertex
100
AcDb2dVertex
 10
-101.591340645246
 20
-70.45463397599553
 30
0.0
  0
VERTEX
  5
AE
330
AC
100
AcDbEntity
  8
一般
  6
Continuous
 62
     7
370
    25
390
1D
100
AcDbVertex
100
AcDb2dVertex
 10
-91.59134064524596
 20
-70.45463397599553
 30
0.0
  0
VERTEX
  5
AF
330
AC
100
AcDbEntity
  8
一般
  6
Continuous
 62
     7
370
    25
390
1D
100
AcDbVertex
100
AcDb2dVertex
 10
-91.59134064524596
 20
-82.45463397599553
 30
0.0
  0
VERTEX
  5
B0
330
AC
100
AcDbEntity
  8
一般
  6
Continuous
 62
     7
370
    25
390
1D
100
AcDbVertex
100
AcDb2dVertex
 10
-101.591340645246
 20
-82.45463397599553
 30
0.0
  0
SEQEND
  5
B1
330
AC
100
AcDbEntity
  8
一般
  6
Continuous
 62
     7
370
    25
390
1D
  0
LINE
  5
B3
330
28
100
AcDbEntity
  8
一般
  6
Continuous
 62
     7
370
    25
390
1D
100
AcDbLine
 10
-101.591340645246
 20
-88.95463397599553
 30
0.0
 11
-101.591340645246
 21
146.0453660240045
 31
0.0
  0
LINE
  5
B4
330
28
100
AcDbEntity
  8
一般
  6
Continuous
 62
     7
370
    25
390
1D
100
AcDbLine
 10
-101.591340645246
 20
146.0453660240045
 30
0.0
 11
-91.59134064524596
 21
146.0453660240045
 31
0.0
  0
LINE
  5
B5
330
28
100
AcDbEntity
  8
一般
  6
Continuous
 62
     7
370
    25
390
1D
100
AcDbLine
 10
-91.59134064524596
 20
146.0453660240045
 30
0.0
 11
-91.59134064524596
 21
121.0453660240045
 31
0.0
  0
LINE
  5
B6
330
28
100
AcDbEntity
  8
一般
  6
Continuous
 62
     7
370
    25
390
1D
100
AcDbLine
 10
-91.59134064524596
 20
121.0453660240045
 30
0.0
 11
-85.59134064524596
 21
121.0453660240045
 31
0.0
  0
LINE
  5
B7
330
28
100
AcDbEntity
  8
一般
  6
Continuous
 62
     7
370
    25
390
1D
100
AcDbLine
 10
-85.59134064524596
 20
121.0453660240045
 30
0.0
 11
-85.59134064524596
 21
-63.95463397599553
 31
0.0
  0
LINE
  5
B8
330
28
100
AcDbEntity
  8
一般
  6
Continuous
 62
     7
370
    25
390
1D
100
AcDbLine
 10
-85.59134064524596
 20
-63.95463397599553
 30
0.0
 11
-91.59134064524596
 21
-63.95463397599553
 31
0.0
  0
LINE
  5
B9
330
28
100
AcDbEntity
  8
一般
  6
Continuous
 62
     7
370
    25
390
1D
100
AcDbLine
 10
-91.59134064524596
 20
-63.95463397599553
 30
0.0
 11
-91.59134064524596
 21
-88.95463397599553
 31
0.0
  0
LINE
  5
BA
330
28
100
AcDbEntity
  8
一般
  6
Continuous
 62
     7
370
    25
390
1D
100
AcDbLine
 10
-101.591340645246
 20
-88.95463397599553
 30
0.0
 11
-91.59134064524596
 21
-88.95463397599553
 31
0.0
  0
INSERT
  5
BB
330
28
100
AcDbEntity
  8
一般
 62
     7
390
1D
100
AcDbBlockReference
  2
グループ-1
 10
0.0
 20
0.0
 30
0.0
  0
INSERT
  5
BC
330
28
100
AcDbEntity
  8
一般
 62
     7
390
1D
100
AcDbBlockReference
  2
グループ-2
 10
0.0
 20
0.0
 30
0.0
  0
POLYLINE
  5
BD
330
28
100
AcDbEntity
  8
一般
  6
Continuous
 62
     7
370
    25
390
1D
100
AcDb2dPolyline
 66
     1
 10
0.0
 20
0.0
 30
0.0
 70
     1
 75
     5
  0
VERTEX
  5
BE
330
BD
100
AcDbEntity
  8
一般
  6
Continuous
 62
     7
370
    25
390
1D
100
AcDbVertex
100
AcDb2dVertex
 10
-101.591340645246
 20
78.54536602400447
 30
0.0
  0
VERTEX
  5
BF
330
BD
100
AcDbEntity
  8
一般
  6
Continuous
 62
     7
370
    25
390
1D
100
AcDbVertex
100
AcDb2dVertex
 10
-85.59134064524596
 20
78.54536602400447
 30
0.0
  0
VERTEX
  5
C0
330
BD
100
AcDbEntity
  8
一般
  6
Continuous
 62
     7
370
    25
390
1D
100
AcDbVertex
100
AcDb2dVertex
 10
-85.59134064524596
 20
-21.45463397599552
 30
0.0
  0
VERTEX
  5
C1
330
BD
100
AcDbEntity
  8
一般
  6
Continuous
 62
     7
370
    25
390
1D
100
AcDbVertex
100
AcDb2dVertex
 10
-101.591340645246
 20
-21.45463397599552
 30
0.0
  0
SEQEND
  5
C2
330
BD
100
AcDbEntity
  8
一般
  6
Continuous
 62
     7
370
    25
390
1D
  0
POLYLINE
  5
C4
330
28
100
AcDbEntity
  8
一般
  6
Continuous
 62
     7
370
    25
390
1D
100
AcDb2dPolyline
 66
     1
 10
0.0
 20
0.0
 30
0.0
 70
     1
 75
     5
  0
VERTEX
  5
C5
330
C4
100
AcDbEntity
  8
一般
  6
Continuous
 62
     7
370
    25
390
1D
100
AcDbVertex
100
AcDb2dVertex
 10
-88.39134064524595
 20
93.04536602400447
 30
0.0
  0
VERTEX
  5
C6
330
C4
100
AcDbEntity
  8
一般
  6
Continuous
 62
     7
370
    25
390
1D
100
AcDbVertex
100
AcDb2dVertex
 10
-85.59134064524596
 20
93.04536602400447
 30
0.0
  0
VERTEX
  5
C7
330
C4
100
AcDbEntity
  8
一般
  6
Continuous
 62
     7
370
    25
390
1D
100
AcDbVertex
100
AcDb2dVertex
 10
-85.59134064524596
 20
88.54536602400447
 30
0.0
  0
VERTEX
  5
C8
330
C4
100
AcDbEntity
  8
一般
  6
Continuous
 62
     7
370
    25
390
1D
100
AcDbVertex
100
AcDb2dVertex
 10
-88.39134064524595
 20
88.54536602400447
 30
0.0
  0
SEQEND
  5
C9
330
C4
100
AcDbEntity
  8
一般
  6
Continuous
 62
     7
370
    25
390
1D
  0
POLYLINE
  5
CB
330
28
100
AcDbEntity
  8
一般
  6
Continuous
 62
     7
370
    25
390
1D
100
AcDb2dPolyline
 66
     1
 10
0.0
 20
0.0
 30
0.0
 70
     1
 75
     5
  0
VERTEX
  5
CC
330
CB
100
AcDbEntity
  8
一般
  6
Continuous
 62
     7
370
    25
390
1D
100
AcDbVertex
100
AcDb2dVertex
 10
-88.39134064524595
 20
-31.45463397599553
 30
0.0
  0
VERTEX
  5
CD
330
CB
100
AcDbEntity
  8
一般
  6
Continuous
 62
     7
370
    25
390
1D
100
AcDbVertex
100
AcDb2dVertex
 10
-85.59134064524596
 20
-31.45463397599553
 30
0.0
  0
VERTEX
  5
CE
330
CB
100
AcDbEntity
  8
一般
  6
Continuous
 62
     7
370
    25
390
1D
100
AcDbVertex
100
AcDb2dVertex
 10
-85.59134064524596
 20
-35.95463397599553
 30
0.0
  0
VERTEX
  5
CF
330
CB
100
AcDbEntity
  8
一般
  6
Continuous
 62
     7
370
    25
390
1D
100
AcDbVertex
100
AcDb2dVertex
 10
-88.39134064524595
 20
-35.95463397599553
 30
0.0
  0
SEQEND
  5
D0
330
CB
100
AcDbEntity
  8
一般
  6
Continuous
 62
     7
370
    25
390
1D
  0
ENDBLK
  5
D2
330
28
100
AcDbEntity
  8
一般
390
1D
100
AcDbBlockEnd
  0
BLOCK
  5
D3
330
29
100
AcDbEntity
  8
一般
390
1D
100
AcDbBlockBegin
  2
グループ-4
 70
     0
 71
     0
 10
0.0
 20
0.0
 30
0.0
  3
グループ-4
  1

  0
CIRCLE
  5
D4
330
29
100
AcDbEntity
  8
一般
  6
Continuous
 62
     7
370
    25
390
1D
100
AcDbCircle
 10
156.408659354754
 20
28.54536602400447
 30
0.0
 40
117.5
  0
CIRCLE
  5
D5
330
29
100
AcDbEntity
  8
一般
  6
Continuous
 62
     7
370
    25
390
1D
100
AcDbCircle
 10
156.408659354754
 20
-76.45463397599553
 30
0.0
 40
6.0
  0
CIRCLE
  5
D6
330
29
100
AcDbEntity
  8
一般
  6
Continuous
 62
     7
370
    25
390
1D
100
AcDbCircle
 10
230.6548713793415
 20
-45.70084600058304
 30
0.0
 40
6.0
  0
CIRCLE
  5
D7
330
29
100
AcDbEntity
  8
一般
  6
Continuous
 62
     7
370
    25
390
1D
100
AcDbCircle
 10
261.408659354754
 20
28.54536602400447
 30
0.0
 40
6.0
  0
CIRCLE
  5
D8
330
29
100
AcDbEntity
  8
一般
  6
Continuous
 62
     7
370
    25
390
1D
100
AcDbCircle
 10
82.16244733016651
 20
-45.700846000583
 30
0.0
 40
6.0
  0
CIRCLE
  5
D9
330
29
100
AcDbEntity
  8
一般
  6
Continuous
 62
     7
370
    25
390
1D
100
AcDbCircle
 10
230.6548713793415
 20
102.7915780485919
 30
0.0
 40
6.0
  0
CIRCLE
  5
DA
330
29
100
AcDbEntity
  8
一般
  6
Continuous
 62
     7
370
    25
390
1D
100
AcDbCircle
 10
156.408659354754
 20
133.5453660240045
 30
0.0
 40
6.0
  0
CIRCLE
  5
DB
330
29
100
AcDbEntity
  8
一般
  6
Continuous
 62
     7
370
    25
390
1D
100
AcDbCircle
 10
82.16244733016654
 20
102.791578048592
 30
0.0
 40
6.0
  0
CIRCLE
  5
DC
330
29
100
AcDbEntity
  8
一般
  6
Continuous
 62
     7
370
    25
390
1D
100
AcDbCircle
 10
51.40865935475401
 20
28.54536602400448
 30
0.0
 40
6.0
  0
CIRCLE
  5
DD
330
29
100
AcDbEntity
  8
一般
  6
Continuous
 62
     7
370
    25
390
1D
100
AcDbCircle
 10
99.84011685983029
 20
85.11390851892827
 30
0.0
 40
6.0
  0
CIRCLE
  5
DE
330
29
100
AcDbEntity
  8
一般
  6
Continuous
 62
     7
370
    25
390
1D
100
AcDbCircle
 10
76.40865935475408
 20
28.54536602400447
 30
0.0
 40
6.0
  0
CIRCLE
  5
DF
330
29
100
AcDbEntity
  8
一般
  6
Continuous
 62
     7
370
    25
390
1D
100
AcDbCircle
 10
156.4086593547541
 20
108.5453660240045
 30
0.0
 40
6.0
  0
CIRCLE
  5
E0
330
29
100
AcDbEntity
  8
一般
  6
Continuous
 62
     7
370
    25
390
1D
100
AcDbCircle
 10
99.84011685983027
 20
-28.02317647091934
 30
0.0
 40
6.0
  0
CIRCLE
  5
E1
330
29
100
AcDbEntity
  8
一般
  6
Continuous
 62
     7
370
    25
390
1D
100
AcDbCircle
 10
212.9772018496779
 20
85.11390851892824
 30
0.0
 40
6.0
  0
CIRCLE
  5
E2
330
29
100
AcDbEntity
  8
一般
  6
Continuous
 62
     7
370
    25
390
1D
100
AcDbCircle
 10
236.4086593547541
 20
28.54536602400447
 30
0.0
 40
6.0
  0
CIRCLE
  5
E3
330
29
100
AcDbEntity
  8
一般
  6
Continuous
 62
     7
370
    25
390
1D
100
AcDbCircle
 10
156.4086593547541
 20
-51.45463397599553
 30
0.0
 40
6.0
  0
CIRCLE
  5
E4
330
29
100
AcDbEntity
  8
一般
  6
Continuous
 62
     7
370
    25
390
1D
100
AcDbCircle
 10
212.9772018496779
 20
-28.02317647091936
 30
0.0
 40
6.0
  0
CIRCLE
  5
E5
330
29
100
AcDbEntity
  8
一般
  6
Continuous
 62
     7
370
    25
390
1D
100
AcDbCircle
 10
156.408659354754
 20
28.54536602400447
 30
0.0
 40
92.5
  0
CIRCLE
  5
E6
330
29
100
AcDbEntity
  8
一般
  6
Continuous
 62
     7
370
    25
390
1D
100
AcDbCircle
 10
156.408659354754
 20
28.54536602400447
 30
0.0
 40
50.0
  0
CIRCLE
  5
E7
330
29
100
AcDbEntity
  8
一般
  6
STYLE_01
 62
     7
370
    25
390
1D
100
AcDbCircle
 10
99.84011685983029
 20
85.11390851892827
 30
0.0
 40
9.0
  0
CIRCLE
  5
E8
330
29
100
AcDbEntity
  8
一般
  6
STYLE_01
 62
     7
370
    25
390
1D
100
AcDbCircle
 10
156.4086593547541
 20
108.5453660240045
 30
0.0
 40
9.0
  0
CIRCLE
  5
E9
330
29
100
AcDbEntity
  8
一般
  6
STYLE_01
 62
     7
370
    25
390
1D
100
AcDbCircle
 10
76.40865935475408
 20
28.54536602400447
 30
0.0
 40
9.0
  0
CIRCLE
  5
EA
330
29
100
AcDbEntity
  8
一般
  6
STYLE_01
 62
     7
370
    25
390
1D
100
AcDbCircle
 10
99.84011685983027
 20
-28.02317647091934
 30
0.0
 40
9.0
  0
CIRCLE
  5
EB
330
29
100
AcDbEntity
  8
一般
  6
STYLE_01
 62
     7
370
    25
390
1D
100
AcDbCircle
 10
156.4086593547541
 20
-51.45463397599553
 30
0.0
 40
9.0
  0
CIRCLE
  5
EC
330
29
100
AcDbEntity
  8
一般
  6
STYLE_01
 62
     7
370
    25
390
1D
100
AcDbCircle
 10
212.9772018496779
 20
-28.02317647091937
 30
0.0
 40
9.0
  0
CIRCLE
  5
ED
330
29
100
AcDbEntity
  8
一般
  6
STYLE_01
 62
     7
370
    25
390
1D
100
AcDbCircle
 10
212.9772018496779
 20
85.11390851892824
 30
0.0
 40
9.0
  0
CIRCLE
  5
EE
330
29
100
AcDbEntity
  8
一般
  6
STYLE_01
 62
     7
370
    25
390
1D
100
AcDbCircle
 10
236.4086593547541
 20
28.54536602400447
 30
0.0
 40
9.0
  0
ENDBLK
  5
EF
330
29
100
AcDbEntity
  8
一般
390
1D
100
AcDbBlockEnd
  0
BLOCK
  5
F0
330
2A
100
AcDbEntity
  8
寸法
390
1D
100
AcDbBlockBegin
  2
*D8
 70
     1
 71
     0
 10
0.0
 20
0.0
 30
0.0
  3
*D8
  1

  0
LINE
  5
F1
330
2A
100
AcDbEntity
  8
寸法
  6
STYLE_01
 62
     0
370
    -2
390
1D
100
AcDbLine
 10
-3.175000000000011
 20
50.0
 30
0.0
 11
-326.35
 21
50.0
 31
0.0
  0
LINE
  5
F2
330
2A
100
AcDbEntity
  8
寸法
  6
STYLE_01
 62
     0
370
    -2
390
1D
100
AcDbLine
 10
-3.175000000000011
 20
-50.0
 30
0.0
 11
-326.35
 21
-50.0
 31
0.0
  0
LINE
  5
F3
330
2A
100
AcDbEntity
  8
寸法
  6
STYLE_01
 62
     0
370
    -2
390
1D
100
AcDbLine
 10
-320.0
 20
53.175
 30
0.0
 11
-320.0
 21
50.0
 31
0.0
  0
LINE
  5
F4
330
2A
100
AcDbEntity
  8
寸法
  6
STYLE_01
 62
     0
370
    -2
390
1D
100
AcDbLine
 10
-320.0
 20
-50.0
 30
0.0
 11
-320.0
 21
-53.175
 31
0.0
  0
LINE
  5
F5
330
2A
100
AcDbEntity
  8
寸法
  6
STYLE_01
 62
     0
370
    -2
390
1D
100
AcDbLine
 10
-320.0
 20
50.0
 30
0.0
 11
-320.0
 21
-50.0
 31
0.0
  0
LINE
  5
F6
330
2A
100
AcDbEntity
  8
寸法
  6
STYLE_01
 62
     0
370
    20
390
1D
100
AcDbLine
 10
-317.7549359697327
 20
47.75493596973271
 30
0.0
 11
-322.2450640302673
 21
52.24506403026729
 31
0.0
  0
LINE
  5
F7
330
2A
100
AcDbEntity
  8
寸法
  6
STYLE_01
 62
     0
370
    20
390
1D
100
AcDbLine
 10
-322.2450640302673
 20
-47.75493596973271
 30
0.0
 11
-317.7549359697327
 21
-52.24506403026729
 31
0.0
  0
WIPEOUT
  5
F8
330
2A
100
AcDbEntity
  8
寸法
  6
STYLE_01
 62
     0
370
    -2
390
1D
 92
      308
310
3401000002000000A80000000B0000002ED8822DD8D074C0E4C77AF26EED60C0000000000000000000000000000000000000000000000000000000000000F03F000000000000F03F0000000000000000000000000000000041634462576970656F757400FFFFFFFF000000000000000000000000000000000000F03F000000
310
0000000000000000000000F03F000000000000000000000000000000000000000074787400424947464F4E542E534858008400000006000000050000002ED8822DD8D074C0E4C77AF26EED60C00000000000000000DEDD5D5409DF73C0E4C77AF26EED60C00000000000000000DEDD5D5409DF73C08AA66180A2135EC00000
310
0000000000002ED8822DD8D074C08AA66180A2135EC000000000000000002ED8822DD8D074C0E4C77AF26EED60C00000000000000000
100
AcDbWipeout
 90
        0
 10
-333.0527777777778
 20
-135.4197933576644
 30
0.0
 11
15.11300005382961
 21
0.0
 31
0.0
 12
0.0
 22
15.11300005382961
 32
0.0
 13
1.0
 23
1.0
340
0
 70
     7
280
     1
281
    50
282
    50
283
     0
360
0
 71
     2
 91
        5
 14
0.1535947689138517
 24
-7.960483879793887
 14
0.1535947689138517
 24
-8.960483879793887
 14
-0.5
 24
-8.960483879793887
 14
-0.5
 24
-7.960483879793887
 14
0.1535947689138517
 24
-7.960483879793887
  0
MTEXT
  5
F9
330
2A
100
AcDbEntity
  8
寸法
 62
     0
390
1D
100
AcDbMText
 10
-332.1591475694445
 20
-7.556500026914808
 30
0.0
 40
7.601258680555556
 41
0.0
 71
     1
 72
     1
  1
100
  7
ＭＳ ゴシック (bold)
 11
0.0
 21
1.0
 31
0.0
 73
     1
 44
0.7828267384257843
  0
POINT
  5
FA
330
2A
100
AcDbEntity
  8
Defpoints
 62
     0
370
     0
390
1D
100
AcDbPoint
 10
0.0
 20
-50.0
 30
0.0
  0
POINT
  5
FB
330
2A
100
AcDbEntity
  8
Defpoints
 62
     0
370
     0
390
1D
100
AcDbPoint
 10
0.0
 20
50.0
 30
0.0
  0
POINT
  5
FC
330
2A
100
AcDbEntity
  8
Defpoints
 62
     0
370
     0
390
1D
100
AcDbPoint
 10
-320.0
 20
50.0
 30
0.0
  0
ENDBLK
  5
FD
330
2A
100
AcDbEntity
  8
寸法
390
1D
100
AcDbBlockEnd
  0
BLOCK
  5
FE
330
2B
100
AcDbEntity
  8
寸法
390
1D
100
AcDbBlockBegin
  2
*D9
 70
     1
 71
     0
 10
0.0
 20
0.0
 30
0.0
  3
*D9
  1

  0
LINE
  5
FF
330
2B
100
AcDbEntity
  8
寸法
  6
STYLE_01
 62
     0
370
    -2
390
1D
100
AcDbLine
 10
-3.174999999999926
 20
80.0
 30
0.0
 11
-356.35
 21
80.0
 31
0.0
  0
LINE
  5
100
330
2B
100
AcDbEntity
  8
寸法
  6
STYLE_01
 62
     0
370
    -2
390
1D
100
AcDbLine
 10
-3.174999999999955
 20
-80.0
 30
0.0
 11
-356.35
 21
-80.0
 31
0.0
  0
LINE
  5
101
330
2B
100
AcDbEntity
  8
寸法
  6
STYLE_01
 62
     0
370
    -2
390
1D
100
AcDbLine
 10
-350.0
 20
83.175
 30
0.0
 11
-350.0
 21
80.0
 31
0.0
  0
LINE
  5
102
330
2B
100
AcDbEntity
  8
寸法
  6
STYLE_01
 62
     0
370
    -2
390
1D
100
AcDbLine
 10
-350.0000000000001
 20
-80.0
 30
0.0
 11
-350.0000000000001
 21
-83.175
 31
0.0
  0
LINE
  5
103
330
2B
100
AcDbEntity
  8
寸法
  6
STYLE_01
 62
     0
370
    -2
390
1D
100
AcDbLine
 10
-350.0
 20
80.0
 30
0.0
 11
-350.0000000000001
 21
-80.0
 31
0.0
  0
LINE
  5
104
330
2B
100
AcDbEntity
  8
寸法
  6
STYLE_01
 62
     0
370
    20
390
1D
100
AcDbLine
 10
-347.7549359697327
 20
77.75493596973271
 30
0.0
 11
-352.2450640302673
 21
82.24506403026729
 31
0.0
  0
LINE
  5
105
330
2B
100
AcDbEntity
  8
寸法
  6
STYLE_01
 62
     0
370
    20
390
1D
100
AcDbLine
 10
-352.2450640302674
 20
-77.75493596973271
 30
0.0
 11
-347.7549359697327
 21
-82.24506403026729
 31
0.0
  0
WIPEOUT
  5
106
330
2B
100
AcDbEntity
  8
寸法
  6
STYLE_01
 62
     0
370
    -2
390
1D
 92
      308
310
3401000002000000A80000000B0000002ED8822DD8B076C0E4C77AF26EED60C0000000000000000000000000000000000000000000000000000000000000F03F000000000000F03F0000000000000000000000000000000041634462576970656F757400FFFFFFFF000000000000000000000000000000000000F03F000000
310
0000000000000000000000F03F000000000000000000000000000000000000000074787400424947464F4E542E534858008400000006000000050000002ED8822DD8B076C0E4C77AF26EED60C00000000000000000DEDD5D5409BF75C0E4C77AF26EED60C00000000000000000DEDD5D5409BF75C08AA66180A2135EC00000
310
0000000000002ED8822DD8B076C08AA66180A2135EC000000000000000002ED8822DD8B076C0E4C77AF26EED60C00000000000000000
100
AcDbWipeout
 90
        0
 10
-363.0527777777778
 20
-135.4197933576644
 30
0.0
 11
15.11300005382961
 21
0.0
 31
0.0
 12
0.0
 22
15.11300005382961
 32
0.0
 13
1.0
 23
1.0
340
0
 70
     7
280
     1
281
    50
282
    50
283
     0
360
0
 71
     2
 91
        5
 14
0.1535947689138479
 24
-7.960483879793887
 14
0.1535947689138479
 24
-8.960483879793887
 14
-0.5
 24
-8.960483879793887
 14
-0.5
 24
-7.960483879793887
 14
0.1535947689138479
 24
-7.960483879793887
  0
MTEXT
  5
107
330
2B
100
AcDbEntity
  8
寸法
 62
     0
390
1D
100
AcDbMText
 10
-362.1591475694445
 20
-7.556500026914808
 30
0.0
 40
7.601258680555556
 41
0.0
 71
     1
 72
     1
  1
160
  7
ＭＳ ゴシック (bold)
 11
0.0
 21
1.0
 31
0.0
 73
     1
 44
0.7828267384257843
  0
POINT
  5
108
330
2B
100
AcDbEntity
  8
Defpoints
 62
     0
370
     0
390
1D
100
AcDbPoint
 10
0.0000000000000568
 20
-80.0
 30
0.0
  0
POINT
  5
109
330
2B
100
AcDbEntity
  8
Defpoints
 62
     0
370
     0
390
1D
100
AcDbPoint
 10
0.0000000000000853
 20
80.0
 30
0.0
  0
POINT
  5
10A
330
2B
100
AcDbEntity
  8
Defpoints
 62
     0
370
     0
390
1D
100
AcDbPoint
 10
-350.0
 20
80.0
 30
0.0
  0
ENDBLK
  5
10B
330
2B
100
AcDbEntity
  8
寸法
390
1D
100
AcDbBlockEnd
  0
BLOCK
  5
10C
330
2C
100
AcDbEntity
  8
寸法
390
1D
100
AcDbBlockBegin
  2
*D10
 70
     1
 71
     0
 10
0.0
 20
0.0
 30
0.0
  3
*D10
  1

  0
LINE
  5
10D
330
2C
100
AcDbEntity
  8
寸法
  6
STYLE_01
 62
     0
370
    -2
390
1D
100
AcDbLine
 10
-3.175000000000011
 20
92.5
 30
0.0
 11
-388.35
 21
92.5
 31
0.0
  0
LINE
  5
10E
330
2C
100
AcDbEntity
  8
寸法
  6
STYLE_01
 62
     0
370
    -2
390
1D
100
AcDbLine
 10
-3.175000000000011
 20
-92.5
 30
0.0
 11
-388.35
 21
-92.5
 31
0.0
  0
LINE
  5
10F
330
2C
100
AcDbEntity
  8
寸法
  6
STYLE_01
 62
     0
370
    -2
390
1D
100
AcDbLine
 10
-382.0
 20
95.675
 30
0.0
 11
-382.0
 21
92.5
 31
0.0
  0
LINE
  5
110
330
2C
100
AcDbEntity
  8
寸法
  6
STYLE_01
 62
     0
370
    -2
390
1D
100
AcDbLine
 10
-382.0
 20
-92.5
 30
0.0
 11
-382.0
 21
-95.675
 31
0.0
  0
LINE
  5
111
330
2C
100
AcDbEntity
  8
寸法
  6
STYLE_01
 62
     0
370
    -2
390
1D
100
AcDbLine
 10
-382.0
 20
92.5
 30
0.0
 11
-382.0
 21
-92.5
 31
0.0
  0
LINE
  5
112
330
2C
100
AcDbEntity
  8
寸法
  6
STYLE_01
 62
     0
370
    20
390
1D
100
AcDbLine
 10
-379.7549359697327
 20
90.25493596973271
 30
0.0
 11
-384.2450640302673
 21
94.74506403026729
 31
0.0
  0
LINE
  5
113
330
2C
100
AcDbEntity
  8
寸法
  6
STYLE_01
 62
     0
370
    20
390
1D
100
AcDbLine
 10
-384.2450640302673
 20
-90.25493596973271
 30
0.0
 11
-379.7549359697327
 21
-94.74506403026729
 31
0.0
  0
WIPEOUT
  5
114
330
2C
100
AcDbEntity
  8
寸法
  6
STYLE_01
 62
     0
370
    -2
390
1D
 92
      308
310
3401000002000000A80000000B0000002ED8822DD8B078C0E4C77AF26EED60C0000000000000000000000000000000000000000000000000000000000000F03F000000000000F03F0000000000000000000000000000000041634462576970656F757400FFFFFFFF000000000000000000000000000000000000F03F000000
310
0000000000000000000000F03F000000000000000000000000000000000000000074787400424947464F4E542E534858008400000006000000050000002ED8822DD8B078C0E4C77AF26EED60C00000000000000000DEDD5D5409BF77C0E4C77AF26EED60C00000000000000000DEDD5D5409BF77C08AA66180A2135EC00000
310
0000000000002ED8822DD8B078C08AA66180A2135EC000000000000000002ED8822DD8B078C0E4C77AF26EED60C00000000000000000
100
AcDbWipeout
 90
        0
 10
-395.0527777777778
 20
-135.4197933576644
 30
0.0
 11
15.11300005382961
 21
0.0
 31
0.0
 12
0.0
 22
15.11300005382961
 32
0.0
 13
1.0
 23
1.0
340
0
 70
     7
280
     1
281
    50
282
    50
283
     0
360
0
 71
     2
 91
        5
 14
0.1535947689138517
 24
-7.960483879793887
 14
0.1535947689138517
 24
-8.960483879793887
 14
-0.5
 24
-8.960483879793887
 14
-0.5
 24
-7.960483879793887
 14
0.1535947689138517
 24
-7.960483879793887
  0
MTEXT
  5
115
330
2C
100
AcDbEntity
  8
寸法
 62
     0
390
1D
100
AcDbMText
 10
-394.1591475694445
 20
-7.556500026914808
 30
0.0
 40
7.601258680555556
 41
0.0
 71
     1
 72
     1
  1
185
  7
ＭＳ ゴシック (bold)
 11
0.0
 21
1.0
 31
0.0
 73
     1
 44
0.7828267384257843
  0
POINT
  5
116
330
2C
100
AcDbEntity
  8
Defpoints
 62
     0
370
     0
390
1D
100
AcDbPoint
 10
0.0
 20
-92.5
 30
0.0
  0
POINT
  5
117
330
2C
100
AcDbEntity
  8
Defpoints
 62
     0
370
     0
390
1D
100
AcDbPoint
 10
0.0
 20
92.5
 30
0.0
  0
POINT
  5
118
330
2C
100
AcDbEntity
  8
Defpoints
 62
     0
370
     0
390
1D
100
AcDbPoint
 10
-382.0
 20
92.5
 30
0.0
  0
ENDBLK
  5
119
330
2C
100
AcDbEntity
  8
寸法
390
1D
100
AcDbBlockEnd
  0
BLOCK
  5
11A
330
2D
100
AcDbEntity
  8
寸法
390
1D
100
AcDbBlockBegin
  2
*D11
 70
     1
 71
     0
 10
0.0
 20
0.0
 30
0.0
  3
*D11
  1

  0
LINE
  5
11B
330
2D
100
AcDbEntity
  8
寸法
  6
STYLE_01
 62
     0
370
    -2
390
1D
100
AcDbLine
 10
-3.175000000000011
 20
105.0
 30
0.0
 11
-424.35
 21
105.0
 31
0.0
  0
LINE
  5
11C
330
2D
100
AcDbEntity
  8
寸法
  6
STYLE_01
 62
     0
370
    -2
390
1D
100
AcDbLine
 10
-3.17500000000004
 20
-105.0
 30
0.0
 11
-424.35
 21
-105.0
 31
0.0
  0
LINE
  5
11D
330
2D
100
AcDbEntity
  8
寸法
  6
STYLE_01
 62
     0
370
    -2
390
1D
100
AcDbLine
 10
-418.0
 20
108.175
 30
0.0
 11
-418.0
 21
105.0
 31
0.0
  0
LINE
  5
11E
330
2D
100
AcDbEntity
  8
寸法
  6
STYLE_01
 62
     0
370
    -2
390
1D
100
AcDbLine
 10
-418.0
 20
-105.0
 30
0.0
 11
-418.0
 21
-108.175
 31
0.0
  0
LINE
  5
11F
330
2D
100
AcDbEntity
  8
寸法
  6
STYLE_01
 62
     0
370
    -2
390
1D
100
AcDbLine
 10
-418.0
 20
105.0
 30
0.0
 11
-418.0
 21
-105.0
 31
0.0
  0
LINE
  5
120
330
2D
100
AcDbEntity
  8
寸法
  6
STYLE_01
 62
     0
370
    20
390
1D
100
AcDbLine
 10
-415.7549359697327
 20
102.7549359697327
 30
0.0
 11
-420.2450640302673
 21
107.2450640302673
 31
0.0
  0
LINE
  5
121
330
2D
100
AcDbEntity
  8
寸法
  6
STYLE_01
 62
     0
370
    20
390
1D
100
AcDbLine
 10
-420.2450640302673
 20
-102.7549359697327
 30
0.0
 11
-415.7549359697327
 21
-107.2450640302673
 31
0.0
  0
WIPEOUT
  5
122
330
2D
100
AcDbEntity
  8
寸法
  6
STYLE_01
 62
     0
370
    -2
390
1D
 92
      308
310
3401000002000000A80000000B0000002ED8822DD8F07AC0E4C77AF26EED60C0000000000000000000000000000000000000000000000000000000000000F03F000000000000F03F0000000000000000000000000000000041634462576970656F757400FFFFFFFF000000000000000000000000000000000000F03F000000
310
0000000000000000000000F03F000000000000000000000000000000000000000074787400424947464F4E542E534858008400000006000000050000002ED8822DD8F07AC0E4C77AF26EED60C00000000000000000DEDD5D5409FF79C0E4C77AF26EED60C00000000000000000DEDD5D5409FF79C08AA66180A2135EC00000
310
0000000000002ED8822DD8F07AC08AA66180A2135EC000000000000000002ED8822DD8F07AC0E4C77AF26EED60C00000000000000000
100
AcDbWipeout
 90
        0
 10
-431.0527777777778
 20
-135.4197933576644
 30
0.0
 11
15.11300005382961
 21
0.0
 31
0.0
 12
0.0
 22
15.11300005382961
 32
0.0
 13
1.0
 23
1.0
340
0
 70
     7
280
     1
281
    50
282
    50
283
     0
360
0
 71
     2
 91
        5
 14
0.1535947689138517
 24
-7.960483879793887
 14
0.1535947689138517
 24
-8.960483879793887
 14
-0.5
 24
-8.960483879793887
 14
-0.5
 24
-7.960483879793887
 14
0.1535947689138517
 24
-7.960483879793887
  0
MTEXT
  5
123
330
2D
100
AcDbEntity
  8
寸法
 62
     0
390
1D
100
AcDbMText
 10
-430.1591475694445
 20
-7.556500026914808
 30
0.0
 40
7.601258680555556
 41
0.0
 71
     1
 72
     1
  1
210
  7
ＭＳ ゴシック (bold)
 11
0.0
 21
1.0
 31
0.0
 73
     1
 44
0.7828267384257843
  0
POINT
  5
124
330
2D
100
AcDbEntity
  8
Defpoints
 62
     0
370
     0
390
1D
100
AcDbPoint
 10
-0.0000000000000284
 20
-105.0
 30
0.0
  0
POINT
  5
125
330
2D
100
AcDbEntity
  8
Defpoints
 62
     0
370
     0
390
1D
100
AcDbPoint
 10
0.0
 20
105.0
 30
0.0
  0
POINT
  5
126
330
2D
100
AcDbEntity
  8
Defpoints
 62
     0
370
     0
390
1D
100
AcDbPoint
 10
-418.0
 20
105.0
 30
0.0
  0
ENDBLK
  5
127
330
2D
100
AcDbEntity
  8
寸法
390
1D
100
AcDbBlockEnd
  0
BLOCK
  5
128
330
2E
100
AcDbEntity
  8
寸法
390
1D
100
AcDbBlockBegin
  2
*D12
 70
     1
 71
     0
 10
0.0
 20
0.0
 30
0.0
  3
*D12
  1

  0
LINE
  5
129
330
2E
100
AcDbEntity
  8
寸法
  6
STYLE_01
 62
     0
370
    -2
390
1D
100
AcDbLine
 10
-3.175000000000011
 20
117.5
 30
0.0
 11
-461.35
 21
117.5
 31
0.0
  0
LINE
  5
12A
330
2E
100
AcDbEntity
  8
寸法
  6
STYLE_01
 62
     0
370
    -2
390
1D
100
AcDbLine
 10
-3.175000000000011
 20
-117.5
 30
0.0
 11
-461.35
 21
-117.5
 31
0.0
  0
LINE
  5
12B
330
2E
100
AcDbEntity
  8
寸法
  6
STYLE_01
 62
     0
370
    -2
390
1D
100
AcDbLine
 10
-455.0
 20
120.675
 30
0.0
 11
-455.0
 21
117.5
 31
0.0
  0
LINE
  5
12C
330
2E
100
AcDbEntity
  8
寸法
  6
STYLE_01
 62
     0
370
    -2
390
1D
100
AcDbLine
 10
-455.0
 20
-117.5
 30
0.0
 11
-455.0
 21
-120.675
 31
0.0
  0
LINE
  5
12D
330
2E
100
AcDbEntity
  8
寸法
  6
STYLE_01
 62
     0
370
    -2
390
1D
100
AcDbLine
 10
-455.0
 20
117.5
 30
0.0
 11
-455.0
 21
-117.5
 31
0.0
  0
LINE
  5
12E
330
2E
100
AcDbEntity
  8
寸法
  6
STYLE_01
 62
     0
370
    20
390
1D
100
AcDbLine
 10
-452.7549359697327
 20
115.2549359697327
 30
0.0
 11
-457.2450640302673
 21
119.7450640302673
 31
0.0
  0
LINE
  5
12F
330
2E
100
AcDbEntity
  8
寸法
  6
STYLE_01
 62
     0
370
    20
390
1D
100
AcDbLine
 10
-457.2450640302673
 20
-115.2549359697327
 30
0.0
 11
-452.7549359697327
 21
-119.7450640302673
 31
0.0
  0
WIPEOUT
  5
130
330
2E
100
AcDbEntity
  8
寸法
  6
STYLE_01
 62
     0
370
    -2
390
1D
 92
      308
310
3401000002000000A80000000B0000002ED8822DD8407DC0E3C77AF26EED60C0000000000000000000000000000000000000000000000000000000000000F03F000000000000F03F0000000000000000000000000000000041634462576970656F757400FFFFFFFF000000000000000000000000000000000000F03F000000
310
0000000000000000000000F03F000000000000000000000000000000000000000074787400424947464F4E542E534858008400000006000000050000002ED8822DD8407DC0E3C77AF26EED60C00000000000000000DEDD5D54094F7CC0E3C77AF26EED60C00000000000000000DEDD5D54094F7CC087A66180A2135EC00000
310
0000000000002ED8822DD8407DC087A66180A2135EC000000000000000002ED8822DD8407DC0E3C77AF26EED60C00000000000000000
100
AcDbWipeout
 90
        0
 10
-468.0527777777778
 20
-135.4197933576644
 30
0.0
 11
15.11300005382962
 21
0.0
 31
0.0
 12
0.0
 22
15.11300005382962
 32
0.0
 13
1.0
 23
1.0
340
0
 70
     7
280
     1
281
    50
282
    50
283
     0
360
0
 71
     2
 91
        5
 14
0.1535947689138514
 24
-7.960483879793882
 14
0.1535947689138514
 24
-8.960483879793882
 14
-0.5
 24
-8.960483879793882
 14
-0.5
 24
-7.960483879793882
 14
0.1535947689138514
 24
-7.960483879793882
  0
MTEXT
  5
131
330
2E
100
AcDbEntity
  8
寸法
 62
     0
390
1D
100
AcDbMText
 10
-467.1591475694445
 20
-7.556500026914801
 30
0.0
 40
7.601258680555556
 41
0.0
 71
     1
 72
     1
  1
235
  7
ＭＳ ゴシック (bold)
 11
0.0
 21
1.0
 31
0.0
 73
     1
 44
0.7828267384257843
  0
POINT
  5
132
330
2E
100
AcDbEntity
  8
Defpoints
 62
     0
370
     0
390
1D
100
AcDbPoint
 10
0.0
 20
-117.5
 30
0.0
  0
POINT
  5
133
330
2E
100
AcDbEntity
  8
Defpoints
 62
     0
370
     0
390
1D
100
AcDbPoint
 10
0.0
 20
117.5
 30
0.0
  0
POINT
  5
134
330
2E
100
AcDbEntity
  8
Defpoints
 62
     0
370
     0
390
1D
100
AcDbPoint
 10
-455.0
 20
117.5
 30
0.0
  0
ENDBLK
  5
135
330
2E
100
AcDbEntity
  8
寸法
390
1D
100
AcDbBlockEnd
  0
ENDSEC
  0
SECTION
  2
ENTITIES
  0
INSERT
  5
136
330
A
100
AcDbEntity
  8
一般
 62
     7
390
1D
100
AcDbBlockReference
  2
Drawing Border - Universal
 10
-156.408659354754
 20
-28.54536602400447
 30
0.0
  0
WIPEOUT
  5
137
330
A
100
AcDbEntity
  8
一般
  6
Continuous
 62
     7
370
    25
390
1D
 92
      308
310
3401000002000000A80000000B000000B542A11ED7027BC01234C0797CDE74C0000000000000000000000000000000000000000000000000000000000000F03F000000000000F03F0000000000000000000000000000000041634462576970656F757400FFFFFFFF000000000000000000000000000000000000F03F000000
310
0000000000000000000000F03F000000000000000000000000000000000000000074787400424947464F4E542E53485800840000000600000005000000B542A11ED7027BC01234C0797CDE74C00000000000000000B442A11ED79271C01234C0797CDE74C00000000000000000B442A11ED79271C0236880F3F8DC66C00000
310
000000000000B542A11ED7027BC0236880F3F8DC66C00000000000000000B542A11ED7027BC01234C0797CDE74C00000000000000000
100
AcDbWipeout
 90
        0
 10
-432.1775194453469
 20
-333.9053895481057
 30
0.0
 11
151.0
 21
0.0
 31
0.0
 12
0.0
 22
151.0
 32
0.0
 13
1.0
 23
1.0
340
0
 70
     7
280
     1
281
    50
282
    50
283
     0
360
0
 71
     2
 91
        5
 14
-0.5
 24
-0.3467767770248315
 14
0.5000000000000002
 24
-0.3467767770248315
 14
0.5000000000000002
 24
-0.7205810448688341
 14
-0.5
 24
-0.7205810448688341
 14
-0.5
 24
-0.3467767770248315
  0
MTEXT
  5
138
330
A
100
AcDbEntity
  8
一般
 62
     7
390
1D
100
AcDbMText
 10
-432.1775194453469
 20
-150.8742663562451
 30
0.0
 40
10.85894097222222
 41
151.0
 71
     1
 72
     1
  1
VG150F\P8-φ12\P8-φ18(深=11)\POリング:V120
  7
ＭＳ ゴシック (bold)
 73
     1
 44
0.7828267384257843
  0
WIPEOUT
  5
139
330
A
100
AcDbEntity
  8
一般
  6
Continuous
 62
     7
370
    25
390
1D
 92
      308
310
3401000002000000A80000000B000000B41F396247117EC03C9A114ADC8F4940000000000000000000000000000000000000000000000000000000000000F03F000000000000F03F0000000000000000000000000000000041634462576970656F757400FFFFFFFF000000000000000000000000000000000000F03F000000
310
0000000000000000000000F03F000000000000000000000000000000000000000074787400424947464F4E542E53485800840000000600000005000000B41F396247117EC03C9A114ADC8F4940000000000000000000BAA99AB09C56403C9A114ADC8F4940000000000000000000BAA99AB09C5640BEE01289377583400000
310
000000000000B41F396247117EC0BEE01289377583400000000000000000B41F396247117EC03C9A114ADC8F49400000000000000000
100
AcDbWipeout
 90
        0
 10
-481.0799276572609
 20
51.12391019687172
 30
0.0
 11
571.5282067192923
 21
0.0
 31
0.0
 12
0.0
 22
571.5282067192923
 32
0.0
 13
1.0
 23
1.0
340
0
 70
     7
280
     1
281
    50
282
    50
283
     0
360
0
 71
     2
 91
        5
 14
-0.5
 24
0.2762782451898301
 14
0.5
 24
0.2762782451898301
 14
0.5
 24
0.2417120499901966
 14
-0.5
 24
0.2417120499901966
 14
-0.5
 24
0.2762782451898301
  0
MTEXT
  5
13A
330
A
100
AcDbEntity
  8
一般
 62
     7
390
1D
100
AcDbMText
 10
-481.0799276572609
 20
196.9554986665102
 30
0.0
 40
15.20251736111111
 41
0.0
 71
     1
 72
     1
  1
B. VG150F-VG100F 変換フランジ　(内径：100mm, 厚さ：16mm）
  7
ＭＳ ゴシック (bold)
 73
     1
 44
0.7828267384257843
  0
WIPEOUT
  5
13B
330
A
100
AcDbEntity
  8
一般
  6
Continuous
 62
     7
370
    25
390
1D
 92
      308
310
3401000002000000A80000000B0000008331204D4E9A6CC0B560B1212E2C74C0000000000000000000000000000000000000000000000000000000000000F03F000000000000F03F0000000000000000000000000000000041634462576970656F757400FFFFFFFF000000000000000000000000000000000000F03F000000
310
0000000000000000000000F03F000000000000000000000000000000000000000074787400424947464F4E542E534858008400000006000000050000008331204D4E9A6CC0B560B1212E2C74C00000000000000000988F54BB4C615BC0B560B1212E2C74C00000000000000000988F54BB4C615BC0B3D7EC53B46E69C00000
310
0000000000008331204D4E9A6CC0B3D7EC53B46E69C000000000000000008331204D4E9A6CC0B560B1212E2C74C00000000000000000
100
AcDbWipeout
 90
        0
 10
-228.8220582608011
 20
-322.7612626007861
 30
0.0
 11
119.3017499258983
 21
0.0
 31
0.0
 12
0.0
 22
119.3017499258983
 32
0.0
 13
1.0
 23
1.0
340
0
 70
     7
280
     1
281
    50
282
    50
283
     0
360
0
 71
     2
 91
        5
 14
-0.5
 24
-0.5717637705244818
 14
0.5
 24
-0.5717637705244818
 14
0.5
 24
-0.9266062884223984
 14
-0.5
 24
-0.9266062884223984
 14
-0.5
 24
-0.5717637705244818
  0
MTEXT
  5
13C
330
A
100
AcDbEntity
  8
一般
 62
     7
390
1D
100
AcDbMText
 10
-228.8220582608011
 20
-153.8412505200365
 30
0.0
 40
10.85894097222222
 41
119.3017499258983
 71
     1
 72
     1
  1
VG100F\P8-φ12\POリング:V120
  7
ＭＳ ゴシック (bold)
 73
     1
 44
0.7828267384257843
  0
INSERT
  5
13D
330
A
100
AcDbEntity
  8
一般
 62
     7
390
1D
100
AcDbBlockReference
  2
グループ-3
 10
-156.408659354754
 20
-28.54536602400447
 30
0.0
  0
INSERT
  5
13E
330
A
100
AcDbEntity
  8
一般
 62
     7
390
1D
100
AcDbBlockReference
  2
グループ-4
 10
-156.408659354754
 20
-28.54536602400447
 30
0.0
  0
DIMENSION
  5
13F
330
A
100
AcDbEntity
  8
寸法
  6
STYLE_01
 62
     7
370
    18
390
1D
100
AcDbDimension
  2
*D8
 10
-320.0
 20
50.0
 30
0.0
 11
-320.0
 21
0.0
 31
0.0
 70
    32
 71
     5
 42
-1.0
  3
Arch
100
AcDbAlignedDimension
 13
0.0
 23
-50.0
 33
0.0
 14
0.0
 24
50.0
 34
0.0
 50
90.0
100
AcDbRotatedDimension
1001
ACAD
1000
DSTYLE
1002
{
1070
   279
1070
     2
1070
   340
1005
2F
1070
   147
1040
3.175
1002
}
  0
DIMENSION
  5
140
330
A
100
AcDbEntity
  8
寸法
  6
STYLE_01
 62
     7
370
    18
390
1D
100
AcDbDimension
  2
*D9
 10
-350.0
 20
80.0
 30
0.0
 11
-350.0
 21
0.0
 31
0.0
 70
    32
 71
     5
 42
-1.0
  3
Arch
100
AcDbAlignedDimension
 13
0.0000000000000568
 23
-80.0
 33
0.0
 14
0.0000000000000853
 24
80.0
 34
0.0
 50
90.0
100
AcDbRotatedDimension
1001
ACAD
1000
DSTYLE
1002
{
1070
   279
1070
     2
1070
   340
1005
2F
1070
   147
1040
3.175
1002
}
  0
DIMENSION
  5
141
330
A
100
AcDbEntity
  8
寸法
  6
STYLE_01
 62
     7
370
    18
390
1D
100
AcDbDimension
  2
*D10
 10
-382.0
 20
92.5
 30
0.0
 11
-382.0
 21
0.0
 31
0.0
 70
    32
 71
     5
 42
-1.0
  3
Arch
100
AcDbAlignedDimension
 13
0.0
 23
-92.5
 33
0.0
 14
0.0
 24
92.5
 34
0.0
 50
90.0
100
AcDbRotatedDimension
1001
ACAD
1000
DSTYLE
1002
{
1070
   279
1070
     2
1070
   340
1005
2F
1070
   147
1040
3.175
1002
}
  0
DIMENSION
  5
142
330
A
100
AcDbEntity
  8
寸法
  6
STYLE_01
 62
     7
370
    18
390
1D
100
AcDbDimension
  2
*D11
 10
-418.0
 20
105.0
 30
0.0
 11
-418.0
 21
0.0
 31
0.0
 70
    32
 71
     5
 42
-1.0
  3
Arch
100
AcDbAlignedDimension
 13
-0.0000000000000284
 23
-105.0
 33
0.0
 14
0.0
 24
105.0
 34
0.0
 50
90.0
100
AcDbRotatedDimension
1001
ACAD
1000
DSTYLE
1002
{
1070
   279
1070
     2
1070
   340
1005
2F
1070
   147
1040
3.175
1002
}
  0
DIMENSION
  5
143
330
A
100
AcDbEntity
  8
寸法
  6
STYLE_01
 62
     7
370
    18
390
1D
100
AcDbDimension
  2
*D12
 10
-455.0
 20
117.5
 30
0.0
 11
-455.0
 21
0.0
 31
0.0
 70
    32
 71
     5
 42
-1.0
  3
Arch
100
AcDbAlignedDimension
 13
0.0
 23
-117.5
 33
0.0
 14
0.0
 24
117.5
 34
0.0
 50
90.0
100
AcDbRotatedDimension
1001
ACAD
1000
DSTYLE
1002
{
1070
   279
1070
     2
1070
   340
1005
2F
1070
   147
1040
3.175
1002
}
  0
MTEXT
  5
144
330
A
100
AcDbEntity
  8
一般
 62
     7
390
1D
100
AcDbMText
 10
121.0
 20
-134.0
 30
0.0
 40
7.601258680555556
 41
0.0
 71
     5
 72
     1
  1
8-φ12
  7
ＭＳ ゴシック (bold)
 73
     1
 44
0.7828267384257843
  0
LINE
  5
145
330
A
100
AcDbEntity
  8
一般
  6
STYLE_06
 62
     7
370
    18
390
1D
100
AcDbLine
 10
74.24621202458749
 20
-80.2462120245875
 30
0.0
 11
102.3942246362058
 21
-129.0
 31
0.0
  0
MTEXT
  5
146
330
A
100
AcDbEntity
  8
一般
 62
     7
390
1D
100
AcDbMText
 10
142.0
 20
120.0
 30
0.0
 40
7.601258680555556
 41
0.0
 71
     5
 72
     1
  1
8-φ12\P（裏）8-φ18ザグリ（深=11）
  7
ＭＳ ゴシック (bold)
 73
     1
 44
0.7828267384257843
  0
LINE
  5
147
330
A
100
AcDbEntity
  8
一般
  6
STYLE_06
 62
     7
370
    18
390
1D
100
AcDbLine
 10
9.000000000000085
 20
80.0
 30
0.0
 11
71.15734621550348
 21
115.8865605696337
 31
0.0
  0
CIRCLE
  5
148
330
A
100
AcDbEntity
  8
一般
  6
Continuous
 62
     7
370
    18
390
1D
100
AcDbCircle
 10
0.0
 20
0.0
 30
0.0
 40
59.99999999999999
  0
CIRCLE
  5
149
330
A
100
AcDbEntity
  8
一般
  6
Continuous
 62
     7
370
    18
390
1D
100
AcDbCircle
 10
0.0
 20
0.0
 30
0.0
 40
64.49999999999999
  0
ENDSEC
  0
SECTION
  2
OBJECTS
  0
DICTIONARY
  5
19
330
0
100
AcDbDictionary
281
     1
  3
ACAD_GROUP
350
1A
  3
ACAD_LAYOUT
350
1E
  3
ACAD_MLINESTYLE
350
1B
  3
ACAD_PLOTSETTINGS
350
22
  3
ACAD_PLOTSTYLENAME
350
1F
  3
ACAD_WIPEOUT_VARS
350
23
  0
DICTIONARY
  5
1A
102
{ACAD_REACTORS
330
19
102
}
330
19
100
AcDbDictionary
281
     1
  0
DICTIONARY
  5
1E
102
{ACAD_REACTORS
330
19
102
}
330
19
100
AcDbDictionary
281
     1
  3
Layout1
350
21
  3
Model
350
20
  0
DICTIONARY
  5
1B
102
{ACAD_REACTORS
330
19
102
}
330
19
100
AcDbDictionary
281
     1
  3
Standard
350
1C
  0
DICTIONARY
  5
22
102
{ACAD_REACTORS
330
19
102
}
330
19
100
AcDbDictionary
281
     1
  0
ACDBDICTIONARYWDFLT
  5
1F
102
{ACAD_REACTORS
330
19
102
}
330
19
100
AcDbDictionary
281
     1
  3
Normal
350
1D
100
AcDbDictionaryWithDefault
340
1D
  0
WIPEOUTVARIABLES
  5
23
330
19
100
AcDbWipeoutVariables
 70
     0
  0
LAYOUT
  5
21
102
{ACAD_REACTORS
330
1E
102
}
330
1E
100
AcDbPlotSettings
  1

  2

  4

  6

 40
0.0
 41
0.0
 42
0.0
 43
0.0
 44
0.0
 45
0.0
 46
0.0
 47
0.0
 48
0.0
 49
0.0
140
0.0
141
0.0
142
1.0
143
1.0
 70
     0
 72
     0
 73
     0
 74
     0
  7

 75
     0
 76
     0
 77
     2
 78
   300
147
1.0
148
0.0
149
0.0
100
AcDbLayout
  1
Layout1
 70
     0
 71
     0
 10
0.0
 20
0.0
 11
0.0
 21
0.0
 12
0.0
 22
0.0
 32
0.0
 14
0.0
 24
0.0
 34
0.0
 15
0.0
 25
0.0
 35
0.0
146
0.0
 13
0.0
 23
0.0
 33
0.0
 16
0.0
 26
0.0
 36
0.0
 17
0.0
 27
0.0
 37
0.0
 76
     0
330
B
  0
LAYOUT
  5
20
102
{ACAD_REACTORS
330
1E
102
}
330
1E
100
AcDbPlotSettings
  1

  2

  4

  6

 40
0.0
 41
0.0
 42
0.0
 43
0.0
 44
0.0
 45
0.0
 46
0.0
 47
0.0
 48
0.0
 49
0.0
140
0.0
141
0.0
142
1.0
143
1.0
 70
  1024
 72
     0
 73
     0
 74
     0
  7

 75
     0
 76
     0
 77
     2
 78
   300
147
1.0
148
0.0
149
0.0
100
AcDbLayout
  1
Model
 70
     0
 71
     0
 10
0.0
 20
0.0
 11
0.0
 21
0.0
 12
0.0
 22
0.0
 32
0.0
 14
0.0
 24
0.0
 34
0.0
 15
0.0
 25
0.0
 35
0.0
146
0.0
 13
0.0
 23
0.0
 33
0.0
 16
0.0
 26
0.0
 36
0.0
 17
0.0
 27
0.0
 37
0.0
 76
     0
330
A
  0
MLINESTYLE
  5
1C
102
{ACAD_REACTORS
330
1B
102
}
330
1B
100
AcDbMlineStyle
  2
Standard
 70
     0
  3

 62
     0
 51
90.0
 52
90.0
 71
     2
 49
0.5
 62
   256
  6
BYLAYER
 49
-0.5
 62
   256
  6
BYLAYER
  0
ACDBPLACEHOLDER
  5
1D
102
{ACAD_REACTORS
330
1F
102
}
330
1F
  0
ENDSEC
  0
EOF
