  0
SECTION
  2
HEADER
  9
$ACADVER
  1
AC1018
  9
$ACADMAINTVER
 70
     0
  9
$DWGCODEPAGE
  3
ANSI_932
  9
$INSBASE
 10
0.0
 20
0.0
 30
0.0
  9
$EXTMIN
 10
-889.9987399999999
 20
-459.49949
 30
-6.300152499999999
  9
$EXTMAX
 10
369.9987399999999
 20
431.4994899999998
 30
6.300152499999999
  9
$LIMMIN
 10
0.0
 20
0.0
  9
$LIMMAX
 10
0.0
 20
0.0
  9
$ORTHOMODE
 70
     0
  9
$REGENMODE
 70
     1
  9
$FILLMODE
 70
     1
  9
$QTEXTMODE
 70
     0
  9
$MIRRTEXT
 70
     1
  9
$LTSCALE
 40
15.24
  9
$ATTMODE
 70
     1
  9
$TEXTSIZE
 40
0.2
  9
$TRACEWID
 40
1.0
  9
$TEXTSTYLE
  7
Standard
  9
$CLAYER
  8
一般
  9
$CELTYPE
  6
Continuous
  9
$CECOLOR
 62
   256
  9
$CELTSCALE
 40
1.0
  9
$DISPSILH
 70
     0
  9
$DIMSCALE
 40
1.0
  9
$DIMASZ
 40
6.734472656249999
  9
$DIMEXO
 40
4.762499999999999
  9
$DIMDLI
 40
10.16
  9
$DIMRND
 40
0.0
  9
$DIMDLE
 40
1.5875
  9
$DIMEXE
 40
9.524999999999999
  9
$DIMTP
 40
0.0
  9
$DIMTM
 40
0.0
  9
$DIMTXT
 40
12.073681640625
  9
$DIMCEN
 40
0.0
  9
$DIMTSZ
 40
0.0
  9
$DIMTOL
 70
     0
  9
$DIMLIM
 70
     0
  9
$DIMTIH
 70
     0
  9
$DIMTOH
 70
     0
  9
$DIMSE1
 70
     0
  9
$DIMSE2
 70
     0
  9
$DIMTAD
 70
     1
  9
$DIMZIN
 70
    11
  9
$DIMBLK
  1
VW_SLASH
  9
$DIMASO
 70
     1
  9
$DIMSHO
 70
     1
  9
$DIMPOST
  1
<>
  9
$DIMAPOST
  1
[]
  9
$DIMALT
 70
     0
  9
$DIMALTD
 70
     3
  9
$DIMALTF
 40
0.0010936132983377
  9
$DIMLFAC
 40
1.0
  9
$DIMTOFL
 70
     1
  9
$DIMTVP
 40
0.0
  9
$DIMTIX
 70
     1
  9
$DIMSOXD
 70
     0
  9
$DIMSAH
 70
     0
  9
$DIMBLK1
  1

  9
$DIMBLK2
  1

  9
$DIMSTYLE
  2
Arch
  9
$DIMCLRD
 70
     0
  9
$DIMCLRE
 70
     0
  9
$DIMCLRT
 70
     0
  9
$DIMTFAC
 40
1.0
  9
$DIMGAP
 40
1.5875
  9
$DIMJUST
 70
     0
  9
$DIMSD1
 70
     0
  9
$DIMSD2
 70
     0
  9
$DIMTOLJ
 70
     1
  9
$DIMTZIN
 70
    11
  9
$DIMALTZ
 70
     7
  9
$DIMALTTZ
 70
     7
  9
$DIMUPT
 70
     0
  9
$DIMDEC
 70
     1
  9
$DIMTDEC
 70
     1
  9
$DIMALTU
 70
     2
  9
$DIMALTTD
 70
     2
  9
$DIMTXSTY
  7
Calibri (bold)
  9
$DIMAUNIT
 70
     0
  9
$DIMADEC
 70
     2
  9
$DIMALTRND
 40
0.0
  9
$DIMAZIN
 70
     0
  9
$DIMDSEP
 70
    46
  9
$DIMATFIT
 70
     0
  9
$DIMFRAC
 70
     2
  9
$DIMLDRBLK
  1

  9
$DIMLUNIT
 70
     2
  9
$DIMLWD
 70
    -2
  9
$DIMLWE
 70
    -2
  9
$DIMTMOVE
 70
     0
  9
$LUNITS
 70
     2
  9
$LUPREC
 70
     4
  9
$SKETCHINC
 40
0.1
  9
$FILLETRAD
 40
0.0
  9
$AUNITS
 70
     0
  9
$AUPREC
 70
     0
  9
$MENU
  1
acad
  9
$ELEVATION
 40
0.0
  9
$PELEVATION
 40
0.0
  9
$THICKNESS
 40
0.0
  9
$LIMCHECK
 70
     0
  9
$CHAMFERA
 40
0.0
  9
$CHAMFERB
 40
0.0
  9
$CHAMFERC
 40
0.0
  9
$CHAMFERD
 40
0.0
  9
$SKPOLY
 70
     0
  9
$TDCREATE
 40
2447893.375
  9
$TDUCREATE
 40
0.0
  9
$TDUPDATE
 40
2447893.375
  9
$TDUUPDATE
 40
0.0
  9
$TDINDWG
 40
0.0
  9
$TDUSRTIMER
 40
0.0
  9
$USRTIMER
 70
     1
  9
$ANGBASE
 50
0.0
  9
$ANGDIR
 70
     0
  9
$PDMODE
 70
     1
  9
$PDSIZE
 40
-2.0
  9
$PLINEWID
 40
0.0
  9
$SPLFRAME
 70
     0
  9
$SPLINETYPE
 70
     6
  9
$SPLINESEGS
 70
     8
  9
$HANDSEED
  5
13E
  9
$SURFTAB1
 70
     6
  9
$SURFTAB2
 70
     6
  9
$SURFTYPE
 70
     6
  9
$SURFU
 70
     6
  9
$SURFV
 70
     6
  9
$UCSBASE
  2

  9
$UCSNAME
  2

  9
$UCSORG
 10
0.0
 20
0.0
 30
0.0
  9
$UCSXDIR
 10
1.0
 20
0.0
 30
0.0
  9
$UCSYDIR
 10
0.0
 20
1.0
 30
0.0
  9
$UCSORTHOREF
  2

  9
$UCSORTHOVIEW
 70
     0
  9
$UCSORGTOP
 10
0.0
 20
0.0
 30
0.0
  9
$UCSORGBOTTOM
 10
0.0
 20
0.0
 30
0.0
  9
$UCSORGLEFT
 10
0.0
 20
0.0
 30
0.0
  9
$UCSORGRIGHT
 10
0.0
 20
0.0
 30
0.0
  9
$UCSORGFRONT
 10
0.0
 20
0.0
 30
0.0
  9
$UCSORGBACK
 10
0.0
 20
0.0
 30
0.0
  9
$PUCSBASE
  2

  9
$PUCSNAME
  2

  9
$PUCSORG
 10
0.0
 20
0.0
 30
0.0
  9
$PUCSXDIR
 10
1.0
 20
0.0
 30
0.0
  9
$PUCSYDIR
 10
0.0
 20
1.0
 30
0.0
  9
$PUCSORTHOREF
  2

  9
$PUCSORTHOVIEW
 70
     0
  9
$PUCSORGTOP
 10
0.0
 20
0.0
 30
0.0
  9
$PUCSORGBOTTOM
 10
0.0
 20
0.0
 30
0.0
  9
$PUCSORGLEFT
 10
0.0
 20
0.0
 30
0.0
  9
$PUCSORGRIGHT
 10
0.0
 20
0.0
 30
0.0
  9
$PUCSORGFRONT
 10
0.0
 20
0.0
 30
0.0
  9
$PUCSORGBACK
 10
0.0
 20
0.0
 30
0.0
  9
$USERI1
 70
     0
  9
$USERI2
 70
     0
  9
$USERI3
 70
     0
  9
$USERI4
 70
     0
  9
$USERI5
 70
     0
  9
$USERR1
 40
0.0
  9
$USERR2
 40
0.0
  9
$USERR3
 40
0.0
  9
$USERR4
 40
0.0
  9
$USERR5
 40
0.0
  9
$WORLDVIEW
 70
     1
  9
$SHADEDGE
 70
     3
  9
$SHADEDIF
 70
    70
  9
$TILEMODE
 70
     1
  9
$MAXACTVP
 70
    64
  9
$PINSBASE
 10
0.0
 20
0.0
 30
0.0
  9
$PLIMCHECK
 70
     0
  9
$PEXTMIN
 10
1.000000000000000E+20
 20
1.000000000000000E+20
 30
1.000000000000000E+20
  9
$PEXTMAX
 10
-1.000000000000000E+20
 20
-1.000000000000000E+20
 30
-1.000000000000000E+20
  9
$PLIMMIN
 10
0.0
 20
0.0
  9
$PLIMMAX
 10
12.0
 20
9.0
  9
$UNITMODE
 70
     0
  9
$VISRETAIN
 70
     0
  9
$PLINEGEN
 70
     1
  9
$PSLTSCALE
 70
     0
  9
$TREEDEPTH
 70
  3020
  9
$CMLSTYLE
  2
Standard
  9
$CMLJUST
 70
     0
  9
$CMLSCALE
 40
1.0
  9
$PROXYGRAPHICS
 70
     0
  9
$MEASUREMENT
 70
     1
  9
$CELWEIGHT
370
     0
  9
$ENDCAPS
280
     0
  9
$JOINSTYLE
280
     0
  9
$LWDISPLAY
290
     1
  9
$INSUNITS
 70
     4
  9
$HYPERLINKBASE
  1

  9
$STYLESHEET
  1

  9
$XEDIT
290
     1
  9
$CEPSNTYPE
380
     0
  9
$PSTYLEMODE
290
     1
  9
$FINGERPRINTGUID
  2

  9
$VERSIONGUID
  2

  9
$EXTNAMES
290
     1
  9
$PSVPSCALE
 40
0.0
  9
$OLESTARTUP
290
     0
  9
$SORTENTS
280
   127
  9
$INDEXCTL
280
     0
  9
$HIDETEXT
280
     1
  9
$XCLIPFRAME
290
     0
  9
$HALOGAP
280
     0
  9
$OBSCOLOR
 70
   257
  9
$OBSLTYPE
280
     0
  9
$INTERSECTIONDISPLAY
280
     0
  9
$INTERSECTIONCOLOR
 70
   257
  9
$DIMASSOC
280
     2
  9
$PROJECTNAME
  1

  0
ENDSEC
  0
SECTION
  2
CLASSES
  0
CLASS
  1
LWPOLYLINE
  2
AcDbPolyline
  3
AutoCAD 2000
 90
        0
 91
        1
280
     0
281
     1
  0
CLASS
  1
IMAGE
  2
AcDbRasterImage
  3
ISM
 90
      127
 91
        4
280
     0
281
     1
  0
CLASS
  1
OLE2FRAME
  2
AcDbOle2Frame
  3
AutoCAD 2000
 90
        0
 91
        1
280
     0
281
     1
  0
CLASS
  1
HATCH
  2
AcDbHatch
  3
AutoCAD 2000
 90
        0
 91
        1
280
     0
281
     1
  0
CLASS
  1
DICTIONARYVAR
  2
AcDbDictionaryVar
  3
ObjectDBX Classes
 90
        0
 91
        3
280
     0
281
     0
  0
CLASS
  1
RASTERVARIABLES
  2
AcDbRasterVariables
  3
ISM
 90
        0
 91
        3
280
     0
281
     0
  0
CLASS
  1
IMAGEDEF
  2
AcDbRasterImageDef
  3
ISM
 90
        0
 91
        3
280
     0
281
     0
  0
CLASS
  1
IMAGEDEF_REACTOR
  2
AcDbRasterImageDefReactor
  3
ISM
 90
        1
 91
        3
280
     0
281
     0
  0
CLASS
  1
IDBUFFER
  2
AcDbIdBuffer
  3
ObjectDBX Classes
 90
        0
 91
        3
280
     0
281
     0
  0
CLASS
  1
SPATIAL_FILTER
  2
AcDbSpatialFilter
  3
ObjectDBX Classes
 90
        0
 91
        3
280
     0
281
     0
  0
CLASS
  1
XRECORD
  2
AcDbXrecord
  3
AutoCAD 2000
 90
        0
 91
        1
280
     0
281
     0
  0
CLASS
  1
SORTENTSTABLE
  2
AcDbSortentsTable
  3
ObjectDBX Classes
 90
        0
 91
        3
280
     0
281
     0
  0
CLASS
  1
LAYER_INDEX
  2
AcDbLayerIndex
  3
ObjectDBX Classes
 90
        0
 91
        3
280
     0
281
     0
  0
CLASS
  1
SPATIAL_INDEX
  2
AcDbSpatialIndex
  3
AutoCAD 2000
 90
        0
 91
        3
280
     0
281
     0
  0
CLASS
  1
OBJECT_PTR
  2
CAseDLPNTableRecord
  3
ASE-LPNTableRecord
 90
        1
 91
        3
280
     0
281
     0
  0
CLASS
  1
LAYOUT
  2
AcDbLayout
  3
ObjectDBX Classes
 90
        0
 91
        1
280
     0
281
     0
  0
CLASS
  1
PLOTSETTINGS
  2
AcDbPlotSettings
  3
ObjectDBX Classes
 90
        0
 91
        3
280
     0
281
     0
  0
CLASS
  1
ACDBDICTIONARYWDFLT
  2
AcDbDictionaryWithDefault
  3
ObjectDBX Classes
 90
        0
 91
        3
280
     0
281
     0
  0
CLASS
  1
ACDBPLACEHOLDER
  2
AcDbPlaceHolder
  3
ObjectDBX Classes
 90
        0
 91
        1
280
     0
281
     0
  0
CLASS
  1
VBA_PROJECT
  2
AcDbVbaProject
  3
ObjectDBX Classes
 90
        0
 91
        1
280
     0
281
     0
  0
CLASS
  1
WIPEOUT
  2
AcDbWipeout
  3
WipeOut|AutoCAD Express Tool|expresstools@autodesk.com
 90
      127
 91
        3
280
     0
281
     1
  0
CLASS
  1
WIPEOUTVARIABLES
  2
AcDbWipeoutVariables
  3
WipeOut|AutoCAD Express Tool|expresstools@autodesk.com
 90
        0
 91
        3
280
     0
281
     0
  0
CLASS
  1
RTEXT
  2
RText
  3
RText|AutoCAD Express Tool|expresstools@autodesk.com
 90
        0
 91
        3
280
     0
281
     1
  0
CLASS
  1
ARCALIGNEDTEXT
  2
AcDbArcAlignedText
  3
ATEXT|AutoCAD Express Tool|expresstools@autodesk.com
 90
        0
 91
        3
280
     0
281
     1
  0
ENDSEC
  0
SECTION
  2
TABLES
  0
TABLE
  2
VPORT
  5
7
330
0
100
AcDbSymbolTable
 70
     1
  0
VPORT
  5
15
330
7
100
AcDbSymbolTableRecord
100
AcDbViewportTableRecord
  2
*ACTIVE
 70
     0
 10
0.0
 20
0.0
 11
1.0
 21
1.0
 12
-260.0
 22
-14.00000000000011
 13
0.0
 23
0.0
 14
1.0
 24
1.0
 15
0.0
 25
0.0
 16
0.0
 26
0.0
 36
1.0
 17
0.0
 27
0.0
 37
0.0
 40
890.9989799999998
 41
0.688564
 42
50.0
 43
0.0
 44
0.0
 50
0.0
 51
0.0
 71
     0
 72
  2000
 73
     1
 74
     1
 75
     0
 76
     0
 77
     0
 78
     0
281
     0
 65
     0
110
0.0
120
0.0
130
0.0
111
1.0
121
0.0
131
0.0
112
0.0
122
1.0
132
0.0
 79
     0
146
0.0
  0
ENDTAB
  0
TABLE
  2
LTYPE
  5
4
330
0
100
AcDbSymbolTable
 70
    11
  0
LTYPE
  5
11
330
4
100
AcDbSymbolTableRecord
100
AcDbLinetypeTableRecord
  2
ByBlock
 70
     0
  3

 72
    65
 73
     0
 40
0.0
  0
LTYPE
  5
12
330
4
100
AcDbSymbolTableRecord
100
AcDbLinetypeTableRecord
  2
ByLayer
 70
     0
  3

 72
    65
 73
     0
 40
0.0
  0
LTYPE
  5
13
330
4
100
AcDbSymbolTableRecord
100
AcDbLinetypeTableRecord
  2
Continuous
 70
     0
  3
Solid line
 72
    65
 73
     0
 40
0.0
  0
LTYPE
  5
35
330
4
100
AcDbSymbolTableRecord
100
AcDbLinetypeTableRecord
  2
STYLE_01
 70
     0
  3

 72
    65
 73
     2
 40
0.41664
 49
0.20828
 74
     0
 49
-0.20836
 74
     0
  0
LTYPE
  5
36
330
4
100
AcDbSymbolTableRecord
100
AcDbLinetypeTableRecord
  2
STYLE_02
 70
     0
  3

 72
    65
 73
     2
 40
0.6944250000000001
 49
0.48607
 74
     0
 49
-0.2083550000000001
 74
     0
  0
LTYPE
  5
37
330
4
100
AcDbSymbolTableRecord
100
AcDbLinetypeTableRecord
  2
STYLE_03
 70
     0
  3

 72
    65
 73
     2
 40
1.25
 49
1.04164
 74
     0
 49
-0.2083599999999999
 74
     0
  0
LTYPE
  5
38
330
4
100
AcDbSymbolTableRecord
100
AcDbLinetypeTableRecord
  2
STYLE_04
 70
     0
  3

 72
    65
 73
     2
 40
1.52771
 49
1.319425
 74
     0
 49
-0.208285
 74
     0
  0
LTYPE
  5
39
330
4
100
AcDbSymbolTableRecord
100
AcDbLinetypeTableRecord
  2
STYLE_05
 70
     0
  3

 72
    65
 73
     2
 40
0.20828
 49
0.069425
 74
     0
 49
-0.138855
 74
     0
  0
LTYPE
  5
3A
330
4
100
AcDbSymbolTableRecord
100
AcDbLinetypeTableRecord
  2
STYLE_06
 70
     0
  3

 72
    65
 73
     4
 40
1.04164
 49
0.625
 74
     0
 49
-0.20828
 74
     0
 49
0.06943
 74
     0
 49
-0.13893
 74
     0
  0
LTYPE
  5
3B
330
4
100
AcDbSymbolTableRecord
100
AcDbLinetypeTableRecord
  2
STYLE_07
 70
     0
  3

 72
    65
 73
     6
 40
1.875
 49
0.625
 74
     0
 49
-0.20828
 74
     0
 49
0.6250000000000001
 74
     0
 49
-0.2083599999999999
 74
     0
 49
0.06943
 74
     0
 49
-0.1389299999999999
 74
     0
  0
LTYPE
  5
3C
330
4
100
AcDbSymbolTableRecord
100
AcDbLinetypeTableRecord
  2
STYLE_08
 70
     0
  3

 72
    65
 73
     6
 40
1.25
 49
0.625
 74
     0
 49
-0.20828
 74
     0
 49
0.06943
 74
     0
 49
-0.13893
 74
     0
 49
0.0694299999999999
 74
     0
 49
-0.13893
 74
     0
  0
LTYPE
  5
3D
330
4
100
AcDbSymbolTableRecord
100
AcDbLinetypeTableRecord
  2
STYLE_09
 70
     0
  3

 72
    65
 73
     4
 40
5.0
 49
3.75
 74
     0
 49
-0.2777849999999998
 74
     0
 49
0.6944300000000003
 74
     0
 49
-0.2777849999999998
 74
     0
  0
LTYPE
  5
3E
330
4
100
AcDbSymbolTableRecord
100
AcDbLinetypeTableRecord
  2
STYLE_10
 70
     0
  3

 72
    65
 73
     6
 40
5.9375
 49
3.75
 74
     0
 49
-0.2777849999999998
 74
     0
 49
0.6944300000000003
 74
     0
 49
-0.2777849999999998
 74
     0
 49
0.625
 74
     0
 49
-0.3125
 74
     0
  0
ENDTAB
  0
TABLE
  2
LAYER
  5
2
330
0
100
AcDbSymbolTable
 70
     4
  0
LAYER
  5
14
330
2
100
AcDbSymbolTableRecord
100
AcDbLayerTableRecord
  2
0
 70
     0
 62
     7
  6
Continuous
370
    -3
390
1D
  0
LAYER
  5
3F
330
2
100
AcDbSymbolTableRecord
100
AcDbLayerTableRecord
  2
一般
 70
     0
 62
     7
  6
Continuous
370
   100
390
1D
  0
LAYER
  5
40
330
2
100
AcDbSymbolTableRecord
100
AcDbLayerTableRecord
  2
寸法
 70
     0
 62
     7
  6
Continuous
370
   100
390
1D
  0
LAYER
  5
41
330
2
100
AcDbSymbolTableRecord
100
AcDbLayerTableRecord
  2
Defpoints
 70
     0
 62
     7
  6
Continuous
290
     0
370
    -3
390
1D
  0
ENDTAB
  0
TABLE
  2
STYLE
  5
3
330
0
100
AcDbSymbolTable
 70
     2
  0
STYLE
  5
17
330
3
100
AcDbSymbolTableRecord
100
AcDbTextStyleTableRecord
  2
Standard
 70
     0
 40
0.0
 41
1.0
 50
0.0
 71
     0
 42
0.0
  3
txt
  4
BIGFONT.SHX
  0
STYLE
  5
34
330
3
100
AcDbSymbolTableRecord
100
AcDbTextStyleTableRecord
  2
Calibri (bold)
 70
     0
 40
0.0
 41
1.0
 50
0.0
 71
     0
 42
0.0
  3

  4
Calibri
1001
ACAD
1000
Calibri
1071
 33554432
  0
ENDTAB
  0
TABLE
  2
VIEW
  5
5
330
0
100
AcDbSymbolTable
 70
     0
  0
ENDTAB
  0
TABLE
  2
UCS
  5
6
330
0
100
AcDbSymbolTable
 70
     0
  0
ENDTAB
  0
TABLE
  2
APPID
  5
8
330
0
100
AcDbSymbolTable
 70
     1
  0
APPID
  5
16
330
8
100
AcDbSymbolTableRecord
100
AcDbRegAppTableRecord
  2
ACAD
 70
     0
  0
ENDTAB
  0
TABLE
  2
DIMSTYLE
  5
9
330
0
100
AcDbSymbolTable
 70
     2
100
AcDbDimStyleTable
  0
DIMSTYLE
105
18
330
9
100
AcDbSymbolTableRecord
100
AcDbDimStyleTableRecord
  2
Standard
 70
     0
340
17
  0
DIMSTYLE
105
4B
330
9
100
AcDbSymbolTableRecord
100
AcDbDimStyleTableRecord
  2
Arch
 70
     0
  3
<>
  4
[]
 41
6.734472656249999
 42
4.762499999999999
 43
10.16
 44
9.524999999999999
 46
1.5875
 73
     0
 74
     0
 77
     1
 78
    11
140
12.073681640625
141
0.0
143
0.0010936132983377
147
1.5875
171
     3
172
     1
174
     1
179
     2
271
     1
272
     1
276
     2
284
    11
285
     7
286
     7
289
     0
340
34
341
47
342
42
  0
ENDTAB
  0
TABLE
  2
BLOCK_RECORD
  5
1
330
0
100
AcDbSymbolTable
 70
    18
  0
BLOCK_RECORD
  5
A
330
1
100
AcDbSymbolTableRecord
100
AcDbBlockTableRecord
  2
*MODEL_SPACE
340
20
  0
BLOCK_RECORD
  5
B
330
1
100
AcDbSymbolTableRecord
100
AcDbBlockTableRecord
  2
*PAPER_SPACE
340
21
  0
BLOCK_RECORD
  5
42
330
1
100
AcDbSymbolTableRecord
100
AcDbBlockTableRecord
  2
VW_SLASH
340
0
  0
BLOCK_RECORD
  5
47
330
1
100
AcDbSymbolTableRecord
100
AcDbBlockTableRecord
  2
VW_FILLEDARROW
340
0
  0
BLOCK_RECORD
  5
24
330
1
100
AcDbSymbolTableRecord
100
AcDbBlockTableRecord
  2
グループ
340
0
102
{BLKREFS
331
89
102
}
  0
BLOCK_RECORD
  5
25
330
1
100
AcDbSymbolTableRecord
100
AcDbBlockTableRecord
  2
Drawing Border - Universal
340
0
102
{BLKREFS
331
108
102
}
  0
BLOCK_RECORD
  5
26
330
1
100
AcDbSymbolTableRecord
100
AcDbBlockTableRecord
  2
グループ-1
340
0
102
{BLKREFS
331
9B
102
}
  0
BLOCK_RECORD
  5
27
330
1
100
AcDbSymbolTableRecord
100
AcDbBlockTableRecord
  2
グループ-2
340
0
102
{BLKREFS
331
9C
102
}
  0
BLOCK_RECORD
  5
28
330
1
100
AcDbSymbolTableRecord
100
AcDbBlockTableRecord
  2
グループ-3
340
0
102
{BLKREFS
331
110
102
}
  0
BLOCK_RECORD
  5
29
330
1
100
AcDbSymbolTableRecord
100
AcDbBlockTableRecord
  2
グループ-4
340
0
102
{BLKREFS
331
11D
102
}
  0
BLOCK_RECORD
  5
2A
330
1
100
AcDbSymbolTableRecord
100
AcDbBlockTableRecord
  2
グループ-5
340
0
102
{BLKREFS
331
11F
102
}
  0
BLOCK_RECORD
  5
2B
330
1
100
AcDbSymbolTableRecord
100
AcDbBlockTableRecord
  2
グループ-6
340
0
102
{BLKREFS
331
121
102
}
  0
BLOCK_RECORD
  5
2C
330
1
100
AcDbSymbolTableRecord
100
AcDbBlockTableRecord
  2
グループ-7
340
0
102
{BLKREFS
331
123
102
}
  0
BLOCK_RECORD
  5
2D
330
1
100
AcDbSymbolTableRecord
100
AcDbBlockTableRecord
  2
グループ-8
340
0
102
{BLKREFS
331
125
102
}
  0
BLOCK_RECORD
  5
2E
330
1
100
AcDbSymbolTableRecord
100
AcDbBlockTableRecord
  2
グループ-9
340
0
102
{BLKREFS
331
127
102
}
  0
BLOCK_RECORD
  5
2F
330
1
100
AcDbSymbolTableRecord
100
AcDbBlockTableRecord
  2
グループ-10
340
0
102
{BLKREFS
331
129
102
}
  0
BLOCK_RECORD
  5
30
330
1
100
AcDbSymbolTableRecord
100
AcDbBlockTableRecord
  2
グループ-11
340
0
102
{BLKREFS
331
12B
102
}
  0
BLOCK_RECORD
  5
31
330
1
100
AcDbSymbolTableRecord
100
AcDbBlockTableRecord
  2
*D15
340
0
  0
BLOCK_RECORD
  5
32
330
1
100
AcDbSymbolTableRecord
100
AcDbBlockTableRecord
  2
*D16
340
0
  0
BLOCK_RECORD
  5
33
330
1
100
AcDbSymbolTableRecord
100
AcDbBlockTableRecord
  2
*D17
340
0
  0
ENDTAB
  0
ENDSEC
  0
SECTION
  2
BLOCKS
  0
BLOCK
  5
D
330
A
100
AcDbEntity
  8
0
390
1D
100
AcDbBlockBegin
  2
*MODEL_SPACE
 70
     0
 71
     0
 10
0.0
 20
0.0
 30
0.0
  3
*MODEL_SPACE
  1

  0
ENDBLK
  5
E
330
A
100
AcDbEntity
  8
0
390
1D
100
AcDbBlockEnd
  0
BLOCK
  5
F
330
B
100
AcDbEntity
 67
     1
  8
0
390
1D
100
AcDbBlockBegin
  2
*PAPER_SPACE
 70
     0
 71
     0
 10
0.0
 20
0.0
 30
0.0
  3
*PAPER_SPACE
  1

  0
ENDBLK
  5
10
330
B
100
AcDbEntity
 67
     1
  8
0
390
1D
100
AcDbBlockEnd
  0
BLOCK
  5
43
330
42
100
AcDbEntity
  8
0
  6
ByBlock
 62
     0
370
    -2
390
1D
100
AcDbBlockBegin
  2
VW_SLASH
 70
     0
 71
     0
 10
0.0
 20
0.0
 30
0.0
  3
VW_SLASH
  1

  0
LINE
  5
44
330
42
100
AcDbEntity
  8
0
  6
ByBlock
 62
     0
370
    -2
390
1D
100
AcDbLine
 10
0.0
 20
0.0
 30
0.0
 11
-1.0
 21
0.0
 31
0.0
  0
LINE
  5
45
330
42
100
AcDbEntity
  8
0
  6
ByBlock
 62
     0
370
    20
390
1D
100
AcDbLine
 10
-0.1666258459964003
 20
-0.1666258459964003
 30
0.0
 11
0.1666258459964003
 21
0.1666258459964003
 31
0.0
  0
ENDBLK
  5
46
330
42
100
AcDbEntity
  8
0
390
1D
100
AcDbBlockEnd
  0
BLOCK
  5
48
330
47
100
AcDbEntity
  8
0
  6
ByBlock
 62
     0
370
    -2
390
1D
100
AcDbBlockBegin
  2
VW_FILLEDARROW
 70
     0
 71
     0
 10
0.0
 20
0.0
 30
0.0
  3
VW_FILLEDARROW
  1

  0
SOLID
  5
49
330
47
100
AcDbEntity
  8
0
 62
     0
370
    -2
390
1D
100
AcDbTrace
 10
0.0
 20
0.0
 30
0.0
 11
-0.4712890624999999
 21
-0.1262815236984959
 31
0.0
 12
-0.4712890624999999
 22
0.126281523698496
 32
0.0
 13
-0.4712890624999999
 23
0.126281523698496
 33
0.0
  0
ENDBLK
  5
4A
330
47
100
AcDbEntity
  8
0
390
1D
100
AcDbBlockEnd
  0
BLOCK
  5
4C
330
24
100
AcDbEntity
  8
一般
390
1D
100
AcDbBlockBegin
  2
グループ
 70
     0
 71
     0
 10
0.0
 20
0.0
 30
0.0
  3
グループ
  1

  0
POLYLINE
  5
4D
330
24
100
AcDbEntity
  8
一般
  6
Continuous
 62
     7
370
    13
390
1D
100
AcDb2dPolyline
 66
     1
 10
0.0
 20
0.0
 30
0.0
 70
     1
 75
     5
  0
VERTEX
  5
4E
330
4D
100
AcDbEntity
  8
一般
  6
Continuous
 62
     7
370
    13
390
1D
100
AcDbVertex
100
AcDb2dVertex
 10
-629.9987399999999
 20
445.4994899999999
 30
0.0
  0
VERTEX
  5
4F
330
4D
100
AcDbEntity
  8
一般
  6
Continuous
 62
     7
370
    13
390
1D
100
AcDbVertex
100
AcDb2dVertex
 10
629.9987399999999
 20
445.4994899999999
 30
0.0
  0
VERTEX
  5
50
330
4D
100
AcDbEntity
  8
一般
  6
Continuous
 62
     7
370
    13
390
1D
100
AcDbVertex
100
AcDb2dVertex
 10
629.9987399999999
 20
-445.4994899999999
 30
0.0
  0
VERTEX
  5
51
330
4D
100
AcDbEntity
  8
一般
  6
Continuous
 62
     7
370
    13
390
1D
100
AcDbVertex
100
AcDb2dVertex
 10
-629.9987399999999
 20
-445.4994899999999
 30
0.0
  0
SEQEND
  5
52
330
4D
100
AcDbEntity
  8
一般
  6
Continuous
 62
     7
370
    13
390
1D
  0
POLYLINE
  5
54
330
24
100
AcDbEntity
  8
一般
  6
Continuous
 62
     7
370
    70
390
1D
100
AcDb2dPolyline
 66
     1
 10
0.0
 20
0.0
 30
0.0
 70
     1
 75
     5
  0
VERTEX
  5
55
330
54
100
AcDbEntity
  8
一般
  6
Continuous
 62
     7
370
    70
390
1D
100
AcDbVertex
100
AcDb2dVertex
 10
-569.9988599999999
 20
385.49961
 30
0.0
  0
VERTEX
  5
56
330
54
100
AcDbEntity
  8
一般
  6
Continuous
 62
     7
370
    70
390
1D
100
AcDbVertex
100
AcDb2dVertex
 10
569.9988599999999
 20
385.49961
 30
0.0
  0
VERTEX
  5
57
330
54
100
AcDbEntity
  8
一般
  6
Continuous
 62
     7
370
    70
390
1D
100
AcDbVertex
100
AcDb2dVertex
 10
569.9988599999999
 20
-385.49961
 30
0.0
  0
VERTEX
  5
58
330
54
100
AcDbEntity
  8
一般
  6
Continuous
 62
     7
370
    70
390
1D
100
AcDbVertex
100
AcDb2dVertex
 10
-569.9988599999999
 20
-385.49961
 30
0.0
  0
SEQEND
  5
59
330
54
100
AcDbEntity
  8
一般
  6
Continuous
 62
     7
370
    70
390
1D
  0
LINE
  5
5B
330
24
100
AcDbEntity
  8
一般
  6
Continuous
 62
     7
370
    70
390
1D
100
AcDbLine
 10
-569.9988599999999
 20
385.49961
 30
0.0
 11
-569.9988599999999
 21
414.45561
 31
0.0
  0
LINE
  5
5C
330
24
100
AcDbEntity
  8
一般
  6
Continuous
 62
     7
370
    70
390
1D
100
AcDbLine
 10
-379.99924
 20
385.49961
 30
0.0
 11
-379.99924
 21
414.45561
 31
0.0
  0
LINE
  5
5D
330
24
100
AcDbEntity
  8
一般
  6
Continuous
 62
     7
370
    70
390
1D
100
AcDbLine
 10
-189.99962
 20
385.49961
 30
0.0
 11
-189.99962
 21
414.45561
 31
0.0
  0
LINE
  5
5E
330
24
100
AcDbEntity
  8
一般
  6
Continuous
 62
     7
370
    70
390
1D
100
AcDbLine
 10
-0.0000000000001137
 20
385.49961
 30
0.0
 11
-0.0000000000001137
 21
414.45561
 31
0.0
  0
LINE
  5
5F
330
24
100
AcDbEntity
  8
一般
  6
Continuous
 62
     7
370
    70
390
1D
100
AcDbLine
 10
189.9996199999998
 20
385.49961
 30
0.0
 11
189.9996199999998
 21
414.45561
 31
0.0
  0
LINE
  5
60
330
24
100
AcDbEntity
  8
一般
  6
Continuous
 62
     7
370
    70
390
1D
100
AcDbLine
 10
379.9992399999998
 20
385.49961
 30
0.0
 11
379.9992399999998
 21
414.45561
 31
0.0
  0
LINE
  5
61
330
24
100
AcDbEntity
  8
一般
  6
Continuous
 62
     7
370
    70
390
1D
100
AcDbLine
 10
569.9988599999997
 20
385.49961
 30
0.0
 11
569.9988599999997
 21
414.45561
 31
0.0
  0
LINE
  5
62
330
24
100
AcDbEntity
  8
一般
  6
Continuous
 62
     7
370
    70
390
1D
100
AcDbLine
 10
-569.9988599999999
 20
-385.49961
 30
0.0
 11
-569.9988599999999
 21
-414.45561
 31
0.0
  0
LINE
  5
63
330
24
100
AcDbEntity
  8
一般
  6
Continuous
 62
     7
370
    70
390
1D
100
AcDbLine
 10
-379.99924
 20
-385.49961
 30
0.0
 11
-379.99924
 21
-414.45561
 31
0.0
  0
LINE
  5
64
330
24
100
AcDbEntity
  8
一般
  6
Continuous
 62
     7
370
    70
390
1D
100
AcDbLine
 10
-189.99962
 20
-385.49961
 30
0.0
 11
-189.99962
 21
-414.45561
 31
0.0
  0
LINE
  5
65
330
24
100
AcDbEntity
  8
一般
  6
Continuous
 62
     7
370
    70
390
1D
100
AcDbLine
 10
-0.0000000000001137
 20
-385.49961
 30
0.0
 11
-0.0000000000001137
 21
-414.45561
 31
0.0
  0
LINE
  5
66
330
24
100
AcDbEntity
  8
一般
  6
Continuous
 62
     7
370
    70
390
1D
100
AcDbLine
 10
189.9996199999998
 20
-385.49961
 30
0.0
 11
189.9996199999998
 21
-414.45561
 31
0.0
  0
LINE
  5
67
330
24
100
AcDbEntity
  8
一般
  6
Continuous
 62
     7
370
    70
390
1D
100
AcDbLine
 10
379.9992399999998
 20
-385.49961
 30
0.0
 11
379.9992399999998
 21
-414.45561
 31
0.0
  0
LINE
  5
68
330
24
100
AcDbEntity
  8
一般
  6
Continuous
 62
     7
370
    70
390
1D
100
AcDbLine
 10
569.9988599999997
 20
-385.49961
 30
0.0
 11
569.9988599999997
 21
-414.45561
 31
0.0
  0
LINE
  5
69
330
24
100
AcDbEntity
  8
一般
  6
Continuous
 62
     7
370
    70
390
1D
100
AcDbLine
 10
-569.9988599999999
 20
385.49961
 30
0.0
 11
-598.9548599999999
 21
385.49961
 31
0.0
  0
LINE
  5
6A
330
24
100
AcDbEntity
  8
一般
  6
Continuous
 62
     7
370
    70
390
1D
100
AcDbLine
 10
-569.9988599999999
 20
192.749805
 30
0.0
 11
-598.9548599999999
 21
192.749805
 31
0.0
  0
LINE
  5
6B
330
24
100
AcDbEntity
  8
一般
  6
Continuous
 62
     7
370
    70
390
1D
100
AcDbLine
 10
-569.9988599999999
 20
0.0
 30
0.0
 11
-598.9548599999999
 21
0.0
 31
0.0
  0
LINE
  5
6C
330
24
100
AcDbEntity
  8
一般
  6
Continuous
 62
     7
370
    70
390
1D
100
AcDbLine
 10
-569.9988599999999
 20
-192.749805
 30
0.0
 11
-598.9548599999999
 21
-192.749805
 31
0.0
  0
LINE
  5
6D
330
24
100
AcDbEntity
  8
一般
  6
Continuous
 62
     7
370
    70
390
1D
100
AcDbLine
 10
-569.9988599999999
 20
-385.49961
 30
0.0
 11
-598.9548599999999
 21
-385.49961
 31
0.0
  0
LINE
  5
6E
330
24
100
AcDbEntity
  8
一般
  6
Continuous
 62
     7
370
    70
390
1D
100
AcDbLine
 10
569.9988599999999
 20
385.49961
 30
0.0
 11
598.9548599999999
 21
385.49961
 31
0.0
  0
LINE
  5
6F
330
24
100
AcDbEntity
  8
一般
  6
Continuous
 62
     7
370
    70
390
1D
100
AcDbLine
 10
569.9988599999999
 20
192.749805
 30
0.0
 11
598.9548599999999
 21
192.749805
 31
0.0
  0
LINE
  5
70
330
24
100
AcDbEntity
  8
一般
  6
Continuous
 62
     7
370
    70
390
1D
100
AcDbLine
 10
569.9988599999999
 20
0.0
 30
0.0
 11
598.9548599999999
 21
0.0
 31
0.0
  0
LINE
  5
71
330
24
100
AcDbEntity
  8
一般
  6
Continuous
 62
     7
370
    70
390
1D
100
AcDbLine
 10
569.9988599999999
 20
-192.749805
 30
0.0
 11
598.9548599999999
 21
-192.749805
 31
0.0
  0
LINE
  5
72
330
24
100
AcDbEntity
  8
一般
  6
Continuous
 62
     7
370
    70
390
1D
100
AcDbLine
 10
569.9988599999999
 20
-385.49961
 30
0.0
 11
598.9548599999999
 21
-385.49961
 31
0.0
  0
MTEXT
  5
73
330
24
100
AcDbEntity
  8
一般
 62
     7
390
1D
100
AcDbMText
 10
-474.99905
 20
404.54961
 30
0.0
 40
12.073681640625
 41
0.0
 71
     5
 72
     1
  1
1
  7
Calibri (bold)
 73
     1
 44
1.159596784673362
  0
MTEXT
  5
74
330
24
100
AcDbEntity
  8
一般
 62
     7
390
1D
100
AcDbMText
 10
-474.99905
 20
-404.5496099999999
 30
0.0
 40
12.073681640625
 41
0.0
 71
     5
 72
     1
  1
1
  7
Calibri (bold)
 73
     1
 44
1.159596784673362
  0
MTEXT
  5
75
330
24
100
AcDbEntity
  8
一般
 62
     7
390
1D
100
AcDbMText
 10
-284.99943
 20
404.54961
 30
0.0
 40
12.073681640625
 41
0.0
 71
     5
 72
     1
  1
2
  7
Calibri (bold)
 73
     1
 44
1.159596784673362
  0
MTEXT
  5
76
330
24
100
AcDbEntity
  8
一般
 62
     7
390
1D
100
AcDbMText
 10
-284.99943
 20
-404.5496099999999
 30
0.0
 40
12.073681640625
 41
0.0
 71
     5
 72
     1
  1
2
  7
Calibri (bold)
 73
     1
 44
1.159596784673362
  0
MTEXT
  5
77
330
24
100
AcDbEntity
  8
一般
 62
     7
390
1D
100
AcDbMText
 10
-94.99981000000008
 20
404.54961
 30
0.0
 40
12.073681640625
 41
0.0
 71
     5
 72
     1
  1
3
  7
Calibri (bold)
 73
     1
 44
1.159596784673362
  0
MTEXT
  5
78
330
24
100
AcDbEntity
  8
一般
 62
     7
390
1D
100
AcDbMText
 10
-94.99981000000008
 20
-404.5496099999999
 30
0.0
 40
12.073681640625
 41
0.0
 71
     5
 72
     1
  1
3
  7
Calibri (bold)
 73
     1
 44
1.159596784673362
  0
MTEXT
  5
79
330
24
100
AcDbEntity
  8
一般
 62
     7
390
1D
100
AcDbMText
 10
94.99980999999985
 20
404.54961
 30
0.0
 40
12.073681640625
 41
0.0
 71
     5
 72
     1
  1
4
  7
Calibri (bold)
 73
     1
 44
1.159596784673362
  0
MTEXT
  5
7A
330
24
100
AcDbEntity
  8
一般
 62
     7
390
1D
100
AcDbMText
 10
94.99980999999985
 20
-404.5496099999999
 30
0.0
 40
12.073681640625
 41
0.0
 71
     5
 72
     1
  1
4
  7
Calibri (bold)
 73
     1
 44
1.159596784673362
  0
MTEXT
  5
7B
330
24
100
AcDbEntity
  8
一般
 62
     7
390
1D
100
AcDbMText
 10
284.9994299999998
 20
404.54961
 30
0.0
 40
12.073681640625
 41
0.0
 71
     5
 72
     1
  1
5
  7
Calibri (bold)
 73
     1
 44
1.159596784673362
  0
MTEXT
  5
7C
330
24
100
AcDbEntity
  8
一般
 62
     7
390
1D
100
AcDbMText
 10
284.9994299999998
 20
-404.5496099999999
 30
0.0
 40
12.073681640625
 41
0.0
 71
     5
 72
     1
  1
5
  7
Calibri (bold)
 73
     1
 44
1.159596784673362
  0
MTEXT
  5
7D
330
24
100
AcDbEntity
  8
一般
 62
     7
390
1D
100
AcDbMText
 10
474.9990499999997
 20
404.54961
 30
0.0
 40
12.073681640625
 41
0.0
 71
     5
 72
     1
  1
6
  7
Calibri (bold)
 73
     1
 44
1.159596784673362
  0
MTEXT
  5
7E
330
24
100
AcDbEntity
  8
一般
 62
     7
390
1D
100
AcDbMText
 10
474.9990499999997
 20
-404.5496099999999
 30
0.0
 40
12.073681640625
 41
0.0
 71
     5
 72
     1
  1
6
  7
Calibri (bold)
 73
     1
 44
1.159596784673362
  0
MTEXT
  5
7F
330
24
100
AcDbEntity
  8
一般
 62
     7
390
1D
100
AcDbMText
 10
-589.0488599999999
 20
289.1247075
 30
0.0
 40
12.073681640625
 41
0.0
 71
     5
 72
     1
  1
A
  7
Calibri (bold)
 73
     1
 44
1.159596784673362
  0
MTEXT
  5
80
330
24
100
AcDbEntity
  8
一般
 62
     7
390
1D
100
AcDbMText
 10
589.0488599999998
 20
289.1247075
 30
0.0
 40
12.073681640625
 41
0.0
 71
     5
 72
     1
  1
A
  7
Calibri (bold)
 73
     1
 44
1.159596784673362
  0
MTEXT
  5
81
330
24
100
AcDbEntity
  8
一般
 62
     7
390
1D
100
AcDbMText
 10
-589.0488599999999
 20
96.37490250000002
 30
0.0
 40
12.073681640625
 41
0.0
 71
     5
 72
     1
  1
B
  7
Calibri (bold)
 73
     1
 44
1.159596784673362
  0
MTEXT
  5
82
330
24
100
AcDbEntity
  8
一般
 62
     7
390
1D
100
AcDbMText
 10
589.0488599999998
 20
96.37490250000002
 30
0.0
 40
12.073681640625
 41
0.0
 71
     5
 72
     1
  1
B
  7
Calibri (bold)
 73
     1
 44
1.159596784673362
  0
MTEXT
  5
83
330
24
100
AcDbEntity
  8
一般
 62
     7
390
1D
100
AcDbMText
 10
-589.0488599999999
 20
-96.37490249999996
 30
0.0
 40
12.073681640625
 41
0.0
 71
     5
 72
     1
  1
C
  7
Calibri (bold)
 73
     1
 44
1.159596784673362
  0
MTEXT
  5
84
330
24
100
AcDbEntity
  8
一般
 62
     7
390
1D
100
AcDbMText
 10
589.0488599999998
 20
-96.37490249999996
 30
0.0
 40
12.073681640625
 41
0.0
 71
     5
 72
     1
  1
C
  7
Calibri (bold)
 73
     1
 44
1.159596784673362
  0
MTEXT
  5
85
330
24
100
AcDbEntity
  8
一般
 62
     7
390
1D
100
AcDbMText
 10
-589.0488599999999
 20
-289.1247074999999
 30
0.0
 40
12.073681640625
 41
0.0
 71
     5
 72
     1
  1
D
  7
Calibri (bold)
 73
     1
 44
1.159596784673362
  0
MTEXT
  5
86
330
24
100
AcDbEntity
  8
一般
 62
     7
390
1D
100
AcDbMText
 10
589.0488599999998
 20
-289.1247074999999
 30
0.0
 40
12.073681640625
 41
0.0
 71
     5
 72
     1
  1
D
  7
Calibri (bold)
 73
     1
 44
1.159596784673362
  0
ENDBLK
  5
87
330
24
100
AcDbEntity
  8
一般
390
1D
100
AcDbBlockEnd
  0
BLOCK
  5
88
330
25
100
AcDbEntity
  8
一般
390
1D
100
AcDbBlockBegin
  2
Drawing Border - Universal
 70
     0
 71
     0
 10
0.0
 20
0.0
 30
0.0
  3
Drawing Border - Universal
  1

  0
INSERT
  5
89
330
25
100
AcDbEntity
  8
一般
 62
     7
390
1D
100
AcDbBlockReference
  2
グループ
 10
0.0
 20
0.0
 30
0.0
  0
ENDBLK
  5
8A
330
25
100
AcDbEntity
  8
一般
390
1D
100
AcDbBlockEnd
  0
BLOCK
  5
8B
330
26
100
AcDbEntity
  8
一般
390
1D
100
AcDbBlockBegin
  2
グループ-1
 70
     0
 71
     0
 10
0.0
 20
0.0
 30
0.0
  3
グループ-1
  1

  0
LINE
  5
8C
330
26
100
AcDbEntity
  8
一般
  6
Continuous
 62
     7
370
    18
390
1D
100
AcDbLine
 10
2.0
 20
125.0000000000002
 30
0.0
 11
18.0
 21
125.0000000000002
 31
0.0
  0
LINE
  5
8D
330
26
100
AcDbEntity
  8
一般
  6
Continuous
 62
     7
370
    18
390
1D
100
AcDbLine
 10
2.0
 20
113.0000000000002
 30
0.0
 11
18.0
 21
113.0000000000002
 31
0.0
  0
ENDBLK
  5
8E
330
26
100
AcDbEntity
  8
一般
390
1D
100
AcDbBlockEnd
  0
BLOCK
  5
8F
330
27
100
AcDbEntity
  8
一般
390
1D
100
AcDbBlockBegin
  2
グループ-2
 70
     0
 71
     0
 10
0.0
 20
0.0
 30
0.0
  3
グループ-2
  1

  0
LINE
  5
90
330
27
100
AcDbEntity
  8
一般
  6
Continuous
 62
     7
370
    18
390
1D
100
AcDbLine
 10
2.0
 20
-84.99999999999977
 30
0.0
 11
18.0
 21
-84.99999999999977
 31
0.0
  0
LINE
  5
91
330
27
100
AcDbEntity
  8
一般
  6
Continuous
 62
     7
370
    18
390
1D
100
AcDbLine
 10
2.0
 20
-96.99999999999977
 30
0.0
 11
18.0
 21
-96.99999999999977
 31
0.0
  0
ENDBLK
  5
92
330
27
100
AcDbEntity
  8
一般
390
1D
100
AcDbBlockEnd
  0
BLOCK
  5
93
330
28
100
AcDbEntity
  8
一般
390
1D
100
AcDbBlockBegin
  2
グループ-3
 70
     0
 71
     0
 10
0.0
 20
0.0
 30
0.0
  3
グループ-3
  1

  0
POLYLINE
  5
94
330
28
100
AcDbEntity
  8
一般
  6
Continuous
 62
     7
370
    18
390
1D
100
AcDb2dPolyline
 66
     1
 10
0.0
 20
0.0
 30
0.0
 70
     1
 75
     5
  0
VERTEX
  5
95
330
94
100
AcDbEntity
  8
一般
  6
Continuous
 62
     7
370
    18
390
1D
100
AcDbVertex
100
AcDb2dVertex
 10
2.0
 20
131.5000000000001
 30
0.0
  0
VERTEX
  5
96
330
94
100
AcDbEntity
  8
一般
  6
Continuous
 62
     7
370
    18
390
1D
100
AcDbVertex
100
AcDb2dVertex
 10
18.0
 20
131.5000000000001
 30
0.0
  0
VERTEX
  5
97
330
94
100
AcDbEntity
  8
一般
  6
Continuous
 62
     7
370
    18
390
1D
100
AcDbVertex
100
AcDb2dVertex
 10
18.0
 20
-103.4999999999999
 30
0.0
  0
VERTEX
  5
98
330
94
100
AcDbEntity
  8
一般
  6
Continuous
 62
     7
370
    18
390
1D
100
AcDbVertex
100
AcDb2dVertex
 10
2.0
 20
-103.4999999999999
 30
0.0
  0
SEQEND
  5
99
330
94
100
AcDbEntity
  8
一般
  6
Continuous
 62
     7
370
    18
390
1D
  0
INSERT
  5
9B
330
28
100
AcDbEntity
  8
一般
 62
     7
390
1D
100
AcDbBlockReference
  2
グループ-1
 10
0.0
 20
0.0
 30
0.0
  0
INSERT
  5
9C
330
28
100
AcDbEntity
  8
一般
 62
     7
390
1D
100
AcDbBlockReference
  2
グループ-2
 10
0.0
 20
0.0
 30
0.0
  0
LINE
  5
9D
330
28
100
AcDbEntity
  8
一般
  6
Continuous
 62
     7
370
    18
390
1D
100
AcDbLine
 10
2.0
 20
64.00000000000023
 30
0.0
 11
18.0
 21
64.00000000000023
 31
0.0
  0
LINE
  5
9E
330
28
100
AcDbEntity
  8
一般
  6
Continuous
 62
     7
370
    18
390
1D
100
AcDbLine
 10
2.0
 20
-35.99999999999977
 30
0.0
 11
18.0
 21
-35.99999999999977
 31
0.0
  0
WIPEOUT
  5
9F
330
28
100
AcDbEntity
  8
一般
  6
Continuous
 62
     7
370
    18
390
1D
 92
      308
310
3401000002000000A80000000B0000000066666666662E401000000000F05940000000000000000000000000000000000000000000000000000000000000F03F000000000000F03F0000000000000000000000000000000041634462576970656F757400FFFFFFFF000000000000000000000000000000000000F03F000000
310
0000000000000000000000F03F000000000000000000000000000000000000000074787400424947464F4E542E534858008400000006000000050000000066666666662E401000000000F0594000000000000000000033333333B333401000000000F0594000000000000000000033333333B333401000000000105B400000
310
0000000000000066666666662E401000000000105B4000000000000000000066666666662E401000000000F059400000000000000000
100
AcDbWipeout
 90
        0
 10
15.19999999999982
 20
103.7500000000002
 30
0.0
 11
4.5
 21
0.0
 31
0.0
 12
0.0
 22
4.5
 32
0.0
 13
1.0
 23
1.0
340
0
 70
     7
280
     1
281
    50
282
    50
283
     0
360
0
 71
     2
 91
        5
 14
-0.5
 24
-0.5
 14
0.1222222222222626
 24
-0.5
 14
0.1222222222222626
 24
0.5
 14
-0.5
 24
0.5
 14
-0.5
 24
-0.5
  0
POLYLINE
  5
A0
330
28
100
AcDbEntity
  8
一般
  6
Continuous
 62
     7
370
    18
390
1D
100
AcDb2dPolyline
 66
     1
 10
0.0
 20
0.0
 30
0.0
 70
     1
 75
     5
  0
VERTEX
  5
A1
330
A0
100
AcDbEntity
  8
一般
  6
Continuous
 62
     7
370
    18
390
1D
100
AcDbVertex
100
AcDb2dVertex
 10
15.19999999999982
 20
108.2500000000002
 30
0.0
  0
VERTEX
  5
A2
330
A0
100
AcDbEntity
  8
一般
  6
Continuous
 62
     7
370
    18
390
1D
100
AcDbVertex
100
AcDb2dVertex
 10
18.0
 20
108.2500000000002
 30
0.0
  0
VERTEX
  5
A3
330
A0
100
AcDbEntity
  8
一般
  6
Continuous
 62
     7
370
    18
390
1D
100
AcDbVertex
100
AcDb2dVertex
 10
18.0
 20
103.7500000000002
 30
0.0
  0
VERTEX
  5
A4
330
A0
100
AcDbEntity
  8
一般
  6
Continuous
 62
     7
370
    18
390
1D
100
AcDbVertex
100
AcDb2dVertex
 10
15.19999999999982
 20
103.7500000000002
 30
0.0
  0
SEQEND
  5
A5
330
A0
100
AcDbEntity
  8
一般
  6
Continuous
 62
     7
370
    18
390
1D
  0
WIPEOUT
  5
A7
330
28
100
AcDbEntity
  8
一般
  6
Continuous
 62
     7
370
    18
390
1D
 92
      308
310
3401000002000000A80000000B0000000066666666662E40F0FFFFFFFF0F54C0000000000000000000000000000000000000000000000000000000000000F03F000000000000F03F0000000000000000000000000000000041634462576970656F757400FFFFFFFF000000000000000000000000000000000000F03F000000
310
0000000000000000000000F03F000000000000000000000000000000000000000074787400424947464F4E542E534858008400000006000000050000000066666666662E40F0FFFFFFFF0F54C000000000000000000033333333B33340F0FFFFFFFF0F54C000000000000000000033333333B33340F0FFFFFFFFEF52C00000
310
0000000000000066666666662E40F0FFFFFFFFEF52C000000000000000000066666666662E40F0FFFFFFFF0F54C00000000000000000
100
AcDbWipeout
 90
        0
 10
15.19999999999982
 20
-80.24999999999977
 30
0.0
 11
4.5
 21
0.0
 31
0.0
 12
0.0
 22
4.5
 32
0.0
 13
1.0
 23
1.0
340
0
 70
     7
280
     1
281
    50
282
    50
283
     0
360
0
 71
     2
 91
        5
 14
-0.5
 24
-0.5
 14
0.1222222222222626
 24
-0.5
 14
0.1222222222222626
 24
0.5
 14
-0.5
 24
0.5
 14
-0.5
 24
-0.5
  0
POLYLINE
  5
A8
330
28
100
AcDbEntity
  8
一般
  6
Continuous
 62
     7
370
    18
390
1D
100
AcDb2dPolyline
 66
     1
 10
0.0
 20
0.0
 30
0.0
 70
     1
 75
     5
  0
VERTEX
  5
A9
330
A8
100
AcDbEntity
  8
一般
  6
Continuous
 62
     7
370
    18
390
1D
100
AcDbVertex
100
AcDb2dVertex
 10
15.19999999999982
 20
-75.74999999999977
 30
0.0
  0
VERTEX
  5
AA
330
A8
100
AcDbEntity
  8
一般
  6
Continuous
 62
     7
370
    18
390
1D
100
AcDbVertex
100
AcDb2dVertex
 10
18.0
 20
-75.74999999999977
 30
0.0
  0
VERTEX
  5
AB
330
A8
100
AcDbEntity
  8
一般
  6
Continuous
 62
     7
370
    18
390
1D
100
AcDbVertex
100
AcDb2dVertex
 10
18.0
 20
-80.24999999999977
 30
0.0
  0
VERTEX
  5
AC
330
A8
100
AcDbEntity
  8
一般
  6
Continuous
 62
     7
370
    18
390
1D
100
AcDbVertex
100
AcDb2dVertex
 10
15.19999999999982
 20
-80.24999999999977
 30
0.0
  0
SEQEND
  5
AD
330
A8
100
AcDbEntity
  8
一般
  6
Continuous
 62
     7
370
    18
390
1D
  0
POLYLINE
  5
AF
330
28
100
AcDbEntity
  8
一般
  6
Continuous
 62
     7
370
    25
390
1D
100
AcDb2dPolyline
 66
     1
 10
0.0
 20
0.0
 30
0.0
 70
     1
 75
     5
  0
VERTEX
  5
B0
330
AF
100
AcDbEntity
  8
一般
  6
Continuous
 62
     7
370
    25
390
1D
100
AcDbVertex
100
AcDb2dVertex
 10
2.0
 20
99.00000000000023
 30
0.0
  0
VERTEX
  5
B1
330
AF
100
AcDbEntity
  8
一般
  6
Continuous
 62
     7
370
    25
390
1D
100
AcDbVertex
100
AcDb2dVertex
 10
12.0
 20
99.00000000000023
 30
0.0
  0
VERTEX
  5
B2
330
AF
100
AcDbEntity
  8
一般
  6
Continuous
 62
     7
370
    25
390
1D
100
AcDbVertex
100
AcDb2dVertex
 10
12.0
 20
89.00000000000023
 30
0.0
  0
VERTEX
  5
B3
330
AF
100
AcDbEntity
  8
一般
  6
Continuous
 62
     7
370
    25
390
1D
100
AcDbVertex
100
AcDb2dVertex
 10
2.0
 20
89.00000000000023
 30
0.0
  0
SEQEND
  5
B4
330
AF
100
AcDbEntity
  8
一般
  6
Continuous
 62
     7
370
    25
390
1D
  0
POLYLINE
  5
B6
330
28
100
AcDbEntity
  8
一般
  6
Continuous
 62
     7
370
    25
390
1D
100
AcDb2dPolyline
 66
     1
 10
0.0
 20
0.0
 30
0.0
 70
     1
 75
     5
  0
VERTEX
  5
B7
330
B6
100
AcDbEntity
  8
一般
  6
Continuous
 62
     7
370
    25
390
1D
100
AcDbVertex
100
AcDb2dVertex
 10
2.0
 20
-60.99999999999977
 30
0.0
  0
VERTEX
  5
B8
330
B6
100
AcDbEntity
  8
一般
  6
Continuous
 62
     7
370
    25
390
1D
100
AcDbVertex
100
AcDb2dVertex
 10
12.0
 20
-60.99999999999977
 30
0.0
  0
VERTEX
  5
B9
330
B6
100
AcDbEntity
  8
一般
  6
Continuous
 62
     7
370
    25
390
1D
100
AcDbVertex
100
AcDb2dVertex
 10
12.0
 20
-70.99999999999977
 30
0.0
  0
VERTEX
  5
BA
330
B6
100
AcDbEntity
  8
一般
  6
Continuous
 62
     7
370
    25
390
1D
100
AcDbVertex
100
AcDb2dVertex
 10
2.0
 20
-70.99999999999977
 30
0.0
  0
SEQEND
  5
BB
330
B6
100
AcDbEntity
  8
一般
  6
Continuous
 62
     7
370
    25
390
1D
  0
ENDBLK
  5
BD
330
28
100
AcDbEntity
  8
一般
390
1D
100
AcDbBlockEnd
  0
BLOCK
  5
BE
330
29
100
AcDbEntity
  8
寸法
390
1D
100
AcDbBlockBegin
  2
グループ-4
 70
     0
 71
     0
 10
0.0
 20
0.0
 30
0.0
  3
グループ-4
  1

  0
LINE
  5
BF
330
29
100
AcDbEntity
  8
一般
  6
Continuous
 62
     7
370
    18
390
1D
100
AcDbLine
 10
-303.3037345857257
 20
63.83335040412203
 30
0.0
 11
-289.8333504041219
 21
77.30373458572578
 31
0.0
  0
LINE
  5
C0
330
29
100
AcDbEntity
  8
一般
  6
Continuous
 62
     7
370
    18
390
1D
100
AcDbLine
 10
-289.8333504041219
 20
63.83335040412206
 30
0.0
 11
-303.3037345857257
 21
77.30373458572579
 31
0.0
  0
ENDBLK
  5
C1
330
29
100
AcDbEntity
  8
寸法
390
1D
100
AcDbBlockEnd
  0
BLOCK
  5
C2
330
2A
100
AcDbEntity
  8
寸法
390
1D
100
AcDbBlockBegin
  2
グループ-5
 70
     0
 71
     0
 10
0.0
 20
0.0
 30
0.0
  3
グループ-5
  1

  0
LINE
  5
C3
330
2A
100
AcDbEntity
  8
一般
  6
Continuous
 62
     7
370
    18
390
1D
100
AcDbLine
 10
-320.0
 20
4.475000000000108
 30
0.0
 11
-320.0
 21
23.52500000000012
 31
0.0
  0
LINE
  5
C4
330
2A
100
AcDbEntity
  8
一般
  6
Continuous
 62
     7
370
    18
390
1D
100
AcDbLine
 10
-310.475
 20
14.00000000000011
 30
0.0
 11
-329.525
 21
14.00000000000011
 31
0.0
  0
ENDBLK
  5
C5
330
2A
100
AcDbEntity
  8
寸法
390
1D
100
AcDbBlockEnd
  0
BLOCK
  5
C6
330
2B
100
AcDbEntity
  8
寸法
390
1D
100
AcDbBlockBegin
  2
グループ-6
 70
     0
 71
     0
 10
0.0
 20
0.0
 30
0.0
  3
グループ-6
  1

  0
LINE
  5
C7
330
2B
100
AcDbEntity
  8
一般
  6
Continuous
 62
     7
370
    18
390
1D
100
AcDbLine
 10
-289.8333504041219
 20
-49.30373458572558
 30
0.0
 11
-303.3037345857257
 21
-35.8333504041218
 31
0.0
  0
LINE
  5
C8
330
2B
100
AcDbEntity
  8
一般
  6
Continuous
 62
     7
370
    18
390
1D
100
AcDbLine
 10
-289.833350404122
 20
-35.8333504041218
 30
0.0
 11
-303.3037345857257
 21
-49.30373458572555
 31
0.0
  0
ENDBLK
  5
C9
330
2B
100
AcDbEntity
  8
寸法
390
1D
100
AcDbBlockEnd
  0
BLOCK
  5
CA
330
2C
100
AcDbEntity
  8
寸法
390
1D
100
AcDbBlockBegin
  2
グループ-7
 70
     0
 71
     0
 10
0.0
 20
0.0
 30
0.0
  3
グループ-7
  1

  0
LINE
  5
CB
330
2C
100
AcDbEntity
  8
一般
  6
Continuous
 62
     7
370
    18
390
1D
100
AcDbLine
 10
-230.475
 20
-65.99999999999989
 30
0.0
 11
-249.525
 21
-65.99999999999989
 31
0.0
  0
LINE
  5
CC
330
2C
100
AcDbEntity
  8
一般
  6
Continuous
 62
     7
370
    18
390
1D
100
AcDbLine
 10
-240.0
 20
-56.47499999999988
 30
0.0
 11
-240.0
 21
-75.52499999999989
 31
0.0
  0
ENDBLK
  5
CD
330
2C
100
AcDbEntity
  8
寸法
390
1D
100
AcDbBlockEnd
  0
BLOCK
  5
CE
330
2D
100
AcDbEntity
  8
寸法
390
1D
100
AcDbBlockBegin
  2
グループ-8
 70
     0
 71
     0
 10
0.0
 20
0.0
 30
0.0
  3
グループ-8
  1

  0
LINE
  5
CF
330
2D
100
AcDbEntity
  8
一般
  6
Continuous
 62
     7
370
    18
390
1D
100
AcDbLine
 10
-176.6962654142743
 20
-35.8333504041218
 30
0.0
 11
-190.166649595878
 21
-49.30373458572555
 31
0.0
  0
LINE
  5
D0
330
2D
100
AcDbEntity
  8
一般
  6
Continuous
 62
     7
370
    18
390
1D
100
AcDbLine
 10
-190.166649595878
 20
-35.83335040412182
 30
0.0
 11
-176.6962654142743
 21
-49.30373458572556
 31
0.0
  0
ENDBLK
  5
D1
330
2D
100
AcDbEntity
  8
寸法
390
1D
100
AcDbBlockEnd
  0
BLOCK
  5
D2
330
2E
100
AcDbEntity
  8
寸法
390
1D
100
AcDbBlockBegin
  2
グループ-9
 70
     0
 71
     0
 10
0.0
 20
0.0
 30
0.0
  3
グループ-9
  1

  0
LINE
  5
D3
330
2E
100
AcDbEntity
  8
一般
  6
Continuous
 62
     7
370
    18
390
1D
100
AcDbLine
 10
-160.0
 20
23.52500000000011
 30
0.0
 11
-160.0
 21
4.475000000000094
 31
0.0
  0
LINE
  5
D4
330
2E
100
AcDbEntity
  8
一般
  6
Continuous
 62
     7
370
    18
390
1D
100
AcDbLine
 10
-169.525
 20
14.0000000000001
 30
0.0
 11
-150.475
 21
14.0000000000001
 31
0.0
  0
ENDBLK
  5
D5
330
2E
100
AcDbEntity
  8
寸法
390
1D
100
AcDbBlockEnd
  0
BLOCK
  5
D6
330
2F
100
AcDbEntity
  8
寸法
390
1D
100
AcDbBlockBegin
  2
グループ-10
 70
     0
 71
     0
 10
0.0
 20
0.0
 30
0.0
  3
グループ-10
  1

  0
LINE
  5
D7
330
2F
100
AcDbEntity
  8
一般
  6
Continuous
 62
     7
370
    18
390
1D
100
AcDbLine
 10
-190.1666495958781
 20
77.30373458572579
 30
0.0
 11
-176.6962654142743
 21
63.83335040412207
 31
0.0
  0
LINE
  5
D8
330
2F
100
AcDbEntity
  8
一般
  6
Continuous
 62
     7
370
    18
390
1D
100
AcDbLine
 10
-190.1666495958781
 20
63.83335040412204
 30
0.0
 11
-176.6962654142743
 21
77.30373458572579
 31
0.0
  0
ENDBLK
  5
D9
330
2F
100
AcDbEntity
  8
寸法
390
1D
100
AcDbBlockEnd
  0
BLOCK
  5
DA
330
30
100
AcDbEntity
  8
寸法
390
1D
100
AcDbBlockBegin
  2
グループ-11
 70
     0
 71
     0
 10
0.0
 20
0.0
 30
0.0
  3
グループ-11
  1

  0
LINE
  5
DB
330
30
100
AcDbEntity
  8
一般
  6
Continuous
 62
     7
370
    18
390
1D
100
AcDbLine
 10
-249.525
 20
94.00000000000011
 30
0.0
 11
-230.475
 21
94.00000000000011
 31
0.0
  0
LINE
  5
DC
330
30
100
AcDbEntity
  8
一般
  6
Continuous
 62
     7
370
    18
390
1D
100
AcDbLine
 10
-240.0
 20
84.47500000000011
 30
0.0
 11
-240.0
 21
103.5250000000001
 31
0.0
  0
ENDBLK
  5
DD
330
30
100
AcDbEntity
  8
寸法
390
1D
100
AcDbBlockEnd
  0
BLOCK
  5
DE
330
31
100
AcDbEntity
  8
寸法
390
1D
100
AcDbBlockBegin
  2
*D15
 70
     1
 71
     0
 10
0.0
 20
0.0
 30
0.0
  3
*D15
  1

  0
LINE
  5
DF
330
31
100
AcDbEntity
  8
寸法
  6
STYLE_01
 62
     0
370
    -2
390
1D
100
AcDbLine
 10
-4.762499999999989
 20
117.5
 30
0.0
 11
-787.525
 21
117.5
 31
0.0
  0
LINE
  5
E0
330
31
100
AcDbEntity
  8
寸法
  6
STYLE_01
 62
     0
370
    -2
390
1D
100
AcDbLine
 10
-4.762499999999989
 20
-117.5
 30
0.0
 11
-787.525
 21
-117.5
 31
0.0
  0
LINE
  5
E1
330
31
100
AcDbEntity
  8
寸法
  6
STYLE_01
 62
     0
370
    -2
390
1D
100
AcDbLine
 10
-778.0
 20
122.2625
 30
0.0
 11
-778.0
 21
117.5
 31
0.0
  0
LINE
  5
E2
330
31
100
AcDbEntity
  8
寸法
  6
STYLE_01
 62
     0
370
    -2
390
1D
100
AcDbLine
 10
-778.0
 20
-117.5
 30
0.0
 11
-778.0
 21
-122.2625
 31
0.0
  0
LINE
  5
E3
330
31
100
AcDbEntity
  8
寸法
  6
STYLE_01
 62
     0
370
    -2
390
1D
100
AcDbLine
 10
-778.0
 20
117.5
 30
0.0
 11
-778.0
 21
-117.5
 31
0.0
  0
LINE
  5
E4
330
31
100
AcDbEntity
  8
寸法
  6
STYLE_01
 62
     0
370
    20
390
1D
100
AcDbLine
 10
-774.6324039545991
 20
114.1324039545991
 30
0.0
 11
-781.3675960454009
 21
120.867596045401
 31
0.0
  0
LINE
  5
E5
330
31
100
AcDbEntity
  8
寸法
  6
STYLE_01
 62
     0
370
    20
390
1D
100
AcDbLine
 10
-781.3675960454009
 20
-114.1324039545991
 30
0.0
 11
-774.6324039545991
 21
-120.867596045401
 31
0.0
  0
WIPEOUT
  5
E6
330
31
100
AcDbEntity
  8
寸法
  6
STYLE_01
 62
     0
370
    -2
390
1D
 92
      308
310
3401000002000000A80000000B0000004A0C022B073089C03133B3082C4970C0000000000000000000000000000000000000000000000000000000000000F03F000000000000F03F0000000000000000000000000000000041634462576970656F757400FFFFFFFF000000000000000000000000000000000000F03F000000
310
0000000000000000000000F03F000000000000000000000000000000000000000074787400424947464F4E542E534858008400000006000000050000004A0C022B073089C03133B3082C4970C0000000000000000017D94E22DB4688C03133B3082C4970C0000000000000000017D94E22DB4688C0969999EEA7ED6CC00000
310
0000000000004A0C022B073089C0969999EEA7ED6CC000000000000000004A0C022B073089C03133B3082C4970C00000000000000000
100
AcDbWipeout
 90
        0
 10
-806.0035
 20
-260.5732504844664
 30
0.0
 11
29.1465009689331
 21
0.0
 31
0.0
 12
0.0
 22
29.1465009689331
 32
0.0
 13
1.0
 23
1.0
340
0
 70
     7
280
     1
281
    50
282
    50
283
     0
360
0
 71
     2
 91
        5
 14
0.2973855944071052
 24
-7.940121174826725
 14
0.2973855944071052
 24
-8.940121174826725
 14
-0.5
 24
-8.940121174826725
 14
-0.5
 24
-7.940121174826725
 14
0.2973855944071052
 24
-7.940121174826725
  0
MTEXT
  5
E7
330
31
100
AcDbEntity
  8
寸法
 62
     0
390
1D
100
AcDbMText
 10
-799.979681640625
 20
-14.57325048446655
 30
0.0
 40
12.073681640625
 41
0.0
 71
     1
 72
     1
  1
235
  7
Calibri (bold)
 11
0.0
 21
1.0
 31
0.0
 73
     1
 44
1.159596784673362
  0
POINT
  5
E8
330
31
100
AcDbEntity
  8
Defpoints
 62
     0
370
     0
390
1D
100
AcDbPoint
 10
0.0
 20
-117.5
 30
0.0
  0
POINT
  5
E9
330
31
100
AcDbEntity
  8
Defpoints
 62
     0
370
     0
390
1D
100
AcDbPoint
 10
0.0
 20
117.5
 30
0.0
  0
POINT
  5
EA
330
31
100
AcDbEntity
  8
Defpoints
 62
     0
370
     0
390
1D
100
AcDbPoint
 10
-778.0
 20
117.5
 30
0.0
  0
ENDBLK
  5
EB
330
31
100
AcDbEntity
  8
寸法
390
1D
100
AcDbBlockEnd
  0
BLOCK
  5
EC
330
32
100
AcDbEntity
  8
寸法
390
1D
100
AcDbBlockBegin
  2
*D16
 70
     1
 71
     0
 10
0.0
 20
0.0
 30
0.0
  3
*D16
  1

  0
LINE
  5
ED
330
32
100
AcDbEntity
  8
寸法
  6
STYLE_01
 62
     0
370
    -2
390
1D
100
AcDbLine
 10
-4.762499999999989
 20
50.00000000000001
 30
0.0
 11
-741.525
 21
50.00000000000001
 31
0.0
  0
LINE
  5
EE
330
32
100
AcDbEntity
  8
寸法
  6
STYLE_01
 62
     0
370
    -2
390
1D
100
AcDbLine
 10
-4.762499999999989
 20
-50.00000000000001
 30
0.0
 11
-741.525
 21
-50.00000000000001
 31
0.0
  0
LINE
  5
EF
330
32
100
AcDbEntity
  8
寸法
  6
STYLE_01
 62
     0
370
    -2
390
1D
100
AcDbLine
 10
-732.0
 20
54.76250000000002
 30
0.0
 11
-732.0
 21
50.00000000000001
 31
0.0
  0
LINE
  5
F0
330
32
100
AcDbEntity
  8
寸法
  6
STYLE_01
 62
     0
370
    -2
390
1D
100
AcDbLine
 10
-732.0
 20
-50.00000000000001
 30
0.0
 11
-732.0
 21
-54.76250000000002
 31
0.0
  0
LINE
  5
F1
330
32
100
AcDbEntity
  8
寸法
  6
STYLE_01
 62
     0
370
    -2
390
1D
100
AcDbLine
 10
-732.0
 20
50.00000000000001
 30
0.0
 11
-732.0
 21
-50.00000000000001
 31
0.0
  0
LINE
  5
F2
330
32
100
AcDbEntity
  8
寸法
  6
STYLE_01
 62
     0
370
    20
390
1D
100
AcDbLine
 10
-728.6324039545991
 20
46.63240395459908
 30
0.0
 11
-735.3675960454009
 21
53.36759604540094
 31
0.0
  0
LINE
  5
F3
330
32
100
AcDbEntity
  8
寸法
  6
STYLE_01
 62
     0
370
    20
390
1D
100
AcDbLine
 10
-735.3675960454009
 20
-46.63240395459908
 30
0.0
 11
-728.6324039545991
 21
-53.36759604540094
 31
0.0
  0
WIPEOUT
  5
F4
330
32
100
AcDbEntity
  8
寸法
  6
STYLE_01
 62
     0
370
    -2
390
1D
 92
      308
310
3401000002000000A80000000B0000004A0C022B07C087C03133B3082C4970C0000000000000000000000000000000000000000000000000000000000000F03F000000000000F03F0000000000000000000000000000000041634462576970656F757400FFFFFFFF000000000000000000000000000000000000F03F000000
310
0000000000000000000000F03F000000000000000000000000000000000000000074787400424947464F4E542E534858008400000006000000050000004A0C022B07C087C03133B3082C4970C0000000000000000017D94E22DBD686C03133B3082C4970C0000000000000000017D94E22DBD686C0969999EEA7ED6CC00000
310
0000000000004A0C022B07C087C0969999EEA7ED6CC000000000000000004A0C022B07C087C03133B3082C4970C00000000000000000
100
AcDbWipeout
 90
        0
 10
-760.0035
 20
-260.5732504844664
 30
0.0
 11
29.1465009689331
 21
0.0
 31
0.0
 12
0.0
 22
29.1465009689331
 32
0.0
 13
1.0
 23
1.0
340
0
 70
     7
280
     1
281
    50
282
    50
283
     0
360
0
 71
     2
 91
        5
 14
0.2973855944071052
 24
-7.940121174826725
 14
0.2973855944071052
 24
-8.940121174826725
 14
-0.5
 24
-8.940121174826725
 14
-0.5
 24
-7.940121174826725
 14
0.2973855944071052
 24
-7.940121174826725
  0
MTEXT
  5
F5
330
32
100
AcDbEntity
  8
寸法
 62
     0
390
1D
100
AcDbMText
 10
-753.9796816406249
 20
-14.57325048446655
 30
0.0
 40
12.073681640625
 41
0.0
 71
     1
 72
     1
  1
100
  7
Calibri (bold)
 11
0.0
 21
1.0
 31
0.0
 73
     1
 44
1.159596784673362
  0
POINT
  5
F6
330
32
100
AcDbEntity
  8
Defpoints
 62
     0
370
     0
390
1D
100
AcDbPoint
 10
0.0
 20
-50.00000000000001
 30
0.0
  0
POINT
  5
F7
330
32
100
AcDbEntity
  8
Defpoints
 62
     0
370
     0
390
1D
100
AcDbPoint
 10
0.0
 20
50.00000000000001
 30
0.0
  0
POINT
  5
F8
330
32
100
AcDbEntity
  8
Defpoints
 62
     0
370
     0
390
1D
100
AcDbPoint
 10
-732.0
 20
50.00000000000001
 30
0.0
  0
ENDBLK
  5
F9
330
32
100
AcDbEntity
  8
寸法
390
1D
100
AcDbBlockEnd
  0
BLOCK
  5
FA
330
33
100
AcDbEntity
  8
寸法
390
1D
100
AcDbBlockBegin
  2
*D17
 70
     1
 71
     0
 10
0.0
 20
0.0
 30
0.0
  3
*D17
  1

  0
LINE
  5
FB
330
33
100
AcDbEntity
  8
寸法
  6
STYLE_01
 62
     0
370
    -2
390
1D
100
AcDbLine
 10
-258.0
 20
-122.2625
 30
0.0
 11
-258.0
 21
-225.525
 31
0.0
  0
LINE
  5
FC
330
33
100
AcDbEntity
  8
寸法
  6
STYLE_01
 62
     0
370
    -2
390
1D
100
AcDbLine
 10
-242.0
 20
-122.2625
 30
0.0
 11
-242.0
 21
-225.525
 31
0.0
  0
LINE
  5
FD
330
33
100
AcDbEntity
  8
寸法
  6
STYLE_01
 62
     0
370
    -2
390
1D
100
AcDbLine
 10
-262.7625
 20
-216.0
 30
0.0
 11
-258.0
 21
-216.0
 31
0.0
  0
LINE
  5
FE
330
33
100
AcDbEntity
  8
寸法
  6
STYLE_01
 62
     0
370
    -2
390
1D
100
AcDbLine
 10
-242.0
 20
-216.0
 30
0.0
 11
-237.2375
 21
-216.0
 31
0.0
  0
LINE
  5
FF
330
33
100
AcDbEntity
  8
寸法
  6
STYLE_01
 62
     0
370
    -2
390
1D
100
AcDbLine
 10
-258.0
 20
-216.0
 30
0.0
 11
-242.0
 21
-216.0
 31
0.0
  0
LINE
  5
100
330
33
100
AcDbEntity
  8
寸法
  6
STYLE_01
 62
     0
370
    20
390
1D
100
AcDbLine
 10
-254.6324039545991
 20
-212.6324039545991
 30
0.0
 11
-261.3675960454009
 21
-219.3675960454009
 31
0.0
  0
LINE
  5
101
330
33
100
AcDbEntity
  8
寸法
  6
STYLE_01
 62
     0
370
    20
390
1D
100
AcDbLine
 10
-245.3675960454009
 20
-219.3675960454009
 30
0.0
 11
-238.6324039545991
 21
-212.6324039545991
 31
0.0
  0
WIPEOUT
  5
102
330
33
100
AcDbEntity
  8
寸法
  6
STYLE_01
 62
     0
370
    -2
390
1D
 92
      308
310
3401000002000000A80000000B000000777777B0723B70C0CBCCCCCCCC937CC0000000000000000000000000000000000000000000000000000000000000F03F000000000000F03F0000000000000000000000000000000041634462576970656F757400FFFFFFFF000000000000000000000000000000000000F03F000000
310
0000000000000000000000F03F000000000000000000000000000000000000000074787400424947464F4E542E53485800840000000600000005000000777777B0723B70C0CBCCCCCCCC937CC000000000000000002E244D1B2F8F6DC0CBCCCCCCCC937CC000000000000000002E244D1B2F8F6DC06BE7FBA9F11F7BC00000
310
000000000000777777B0723B70C06BE7FBA9F11F7BC00000000000000000777777B0723B70C0CBCCCCCCCC937CC00000000000000000
100
AcDbWipeout
 90
        0
 10
-259.7155003229777
 20
-457.2374999999999
 30
0.0
 11
23.24099999999999
 21
0.0
 31
0.0
 12
0.0
 22
23.24099999999999
 32
0.0
 13
1.0
 23
1.0
340
0
 70
     7
280
     1
281
    50
282
    50
283
     0
360
0
 71
     2
 91
        5
 14
-0.5
 24
-10.08474248096037
 14
0.3360656015642782
 24
-10.08474248096037
 14
0.3360656015642782
 24
-11.08474248096037
 14
-0.5
 24
-11.08474248096037
 14
-0.5
 24
-10.08474248096037
  0
MTEXT
  5
103
330
33
100
AcDbEntity
  8
寸法
 62
     0
390
1D
100
AcDbMText
 10
-259.7155003229777
 20
-194.020318359375
 30
0.0
 40
12.073681640625
 41
0.0
 71
     1
 72
     1
  1
16
  7
Calibri (bold)
 73
     1
 44
1.159596784673362
  0
POINT
  5
104
330
33
100
AcDbEntity
  8
Defpoints
 62
     0
370
     0
390
1D
100
AcDbPoint
 10
-242.0
 20
-117.5
 30
0.0
  0
POINT
  5
105
330
33
100
AcDbEntity
  8
Defpoints
 62
     0
370
     0
390
1D
100
AcDbPoint
 10
-258.0
 20
-117.5
 30
0.0
  0
POINT
  5
106
330
33
100
AcDbEntity
  8
Defpoints
 62
     0
370
     0
390
1D
100
AcDbPoint
 10
-258.0
 20
-216.0
 30
0.0
  0
ENDBLK
  5
107
330
33
100
AcDbEntity
  8
寸法
390
1D
100
AcDbBlockEnd
  0
ENDSEC
  0
SECTION
  2
ENTITIES
  0
INSERT
  5
108
330
A
100
AcDbEntity
  8
一般
 62
     7
390
1D
100
AcDbBlockReference
  2
Drawing Border - Universal
 10
-260.0
 20
-14.00000000000011
 30
0.0
  0
WIPEOUT
  5
109
330
A
100
AcDbEntity
  8
一般
  6
Continuous
 62
     7
370
    18
390
1D
 92
      308
310
3401000002000000A80000000B00000000000000003888C010D578E926E14740000000000000000000000000000000000000000000000000000000000000F03F000000000000F03F0000000000000000000000000000000041634462576970656F757400FFFFFFFF000000000000000000000000000000000000F03F000000
310
0000000000000000000000F03F000000000000000000000000000000000000000074787400424947464F4E542E5348580084000000060000000500000000000000003888C010D578E926E1474000000000000000004444442687E880C010D578E926E1474000000000000000004444442687E880C01992A690169B71400000
310
00000000000000000000003888C01992A690169B7140000000000000000000000000003888C010D578E926E147400000000000000000
100
AcDbWipeout
 90
        0
 10
-775.0
 20
47.75900000000013
 30
0.0
 11
233.9340090433756
 21
0.0
 31
0.0
 12
0.0
 22
233.9340090433756
 32
0.0
 13
1.0
 23
1.0
340
0
 70
     7
280
     1
281
    50
282
    50
283
     0
360
0
 71
     2
 91
        5
 14
-0.5
 24
-0.5515786097368467
 14
0.5000000000000002
 24
-0.5515786097368467
 14
0.5000000000000002
 24
-0.6509271400982048
 14
-0.5
 24
-0.6509271400982048
 14
-0.5
 24
-0.5515786097368467
  0
MTEXT
  5
10A
330
A
100
AcDbEntity
  8
一般
 62
     7
390
1D
100
AcDbMText
 10
-775.0
 20
310.976181640625
 30
0.0
 40
12.073681640625
 41
0.0
 71
     1
 72
     1
  1
E. VF100-VG150 変換フランジ
  7
Calibri (bold)
 73
     1
 44
1.159596784673362
  0
MTEXT
  5
10B
330
A
100
AcDbEntity
  8
一般
 62
     7
390
1D
100
AcDbMText
 10
-266.0
 20
232.9760881556565
 30
0.0
 40
12.073681640625
 41
0.0
 71
     5
 72
     1
  1
8 - φ12  PCD210
  7
Calibri (bold)
 73
     1
 44
1.159596784673362
  0
MTEXT
  5
10C
330
A
100
AcDbEntity
  8
一般
 62
     7
390
1D
100
AcDbMText
 10
-544.3093954981055
 20
-279.5307436087194
 30
0.0
 40
12.073681640625
 41
0.0
 71
     5
 72
     1
  1
8 - M10 深さ10mm PCD160 （振分け）
  7
Calibri (bold)
 73
     1
 44
1.159596784673362
  0
MTEXT
  5
10D
330
A
100
AcDbEntity
  8
一般
 62
     7
390
1D
100
AcDbMText
 10
-135.0
 20
-245.0
 30
0.0
 40
12.073681640625
 41
0.0
 71
     5
 72
     1
  1
Oリング溝  :  V175
  7
Calibri (bold)
 73
     1
 44
1.159596784673362
  0
MTEXT
  5
10E
330
A
100
AcDbEntity
  8
一般
 62
     7
390
1D
100
AcDbMText
 10
-698.0
 20
158.3795
 30
0.0
 40
12.073681640625
 41
0.0
 71
     5
 72
     1
  1
（　表　）
  7
Calibri (bold)
 73
     1
 44
1.159596784673362
  0
MTEXT
  5
10F
330
A
100
AcDbEntity
  8
一般
 62
     7
390
1D
100
AcDbMText
 10
-184.3617358117386
 20
158.3795
 30
0.0
 40
12.073681640625
 41
0.0
 71
     5
 72
     1
  1
（　裏　）
  7
Calibri (bold)
 73
     1
 44
1.159596784673362
  0
INSERT
  5
110
330
A
100
AcDbEntity
  8
一般
 62
     7
390
1D
100
AcDbBlockReference
  2
グループ-3
 10
-260.0
 20
-14.00000000000011
 30
0.0
  0
CIRCLE
  5
111
330
A
100
AcDbEntity
  8
一般
  6
Continuous
 62
     7
370
    18
390
1D
100
AcDbCircle
 10
-500.0
 20
0.0
 30
0.0
 40
117.5
  0
CIRCLE
  5
112
330
A
100
AcDbEntity
  8
一般
  6
Continuous
 62
     7
370
    18
390
1D
100
AcDbCircle
 10
0.0
 20
0.0
 30
0.0
 40
117.5
  0
CIRCLE
  5
113
330
A
100
AcDbEntity
  8
一般
  6
Continuous
 62
     7
370
    18
390
1D
100
AcDbCircle
 10
-500.0
 20
0.0
 30
0.0
 40
50.0
  0
CIRCLE
  5
114
330
A
100
AcDbEntity
  8
一般
  6
Continuous
 62
     7
370
    18
390
1D
100
AcDbCircle
 10
-574.2462120245875
 20
74.24621202458749
 30
0.0
 40
5.999999999999988
  0
CIRCLE
  5
115
330
A
100
AcDbEntity
  8
一般
  6
Continuous
 62
     7
370
    18
390
1D
100
AcDbCircle
 10
-605.0
 20
0.0
 30
0.0
 40
5.999999999999997
  0
CIRCLE
  5
116
330
A
100
AcDbEntity
  8
一般
  6
Continuous
 62
     7
370
    18
390
1D
100
AcDbCircle
 10
-574.2462120245875
 20
-74.24621202458746
 30
0.0
 40
5.999999999999978
  0
CIRCLE
  5
117
330
A
100
AcDbEntity
  8
一般
  6
Continuous
 62
     7
370
    18
390
1D
100
AcDbCircle
 10
-500.0
 20
-105.0
 30
0.0
 40
5.999999999999997
  0
CIRCLE
  5
118
330
A
100
AcDbEntity
  8
一般
  6
Continuous
 62
     7
370
    18
390
1D
100
AcDbCircle
 10
-425.7537879754125
 20
-74.24621202458752
 30
0.0
 40
6.000000000000007
  0
CIRCLE
  5
119
330
A
100
AcDbEntity
  8
一般
  6
Continuous
 62
     7
370
    18
390
1D
100
AcDbCircle
 10
-395.0
 20
-0.0000000000000142
 30
0.0
 40
5.999999999999997
  0
CIRCLE
  5
11A
330
A
100
AcDbEntity
  8
一般
  6
Continuous
 62
     7
370
    18
390
1D
100
AcDbCircle
 10
-425.7537879754125
 20
74.24621202458748
 30
0.0
 40
6.000000000000018
  0
CIRCLE
  5
11B
330
A
100
AcDbEntity
  8
一般
  6
Continuous
 62
     7
370
    18
390
1D
100
AcDbCircle
 10
-500.0
 20
105.0
 30
0.0
 40
5.999999999999997
  0
CIRCLE
  5
11C
330
A
100
AcDbEntity
  8
一般
  6
Continuous
 62
     7
370
    18
390
1D
100
AcDbCircle
 10
-556.5685424949238
 20
56.5685424949238
 30
0.0
 40
4.999999999999986
  0
INSERT
  5
11D
330
A
100
AcDbEntity
  8
寸法
 62
     7
390
1D
100
AcDbBlockReference
  2
グループ-4
 10
-260.0
 20
-14.00000000000011
 30
0.0
  0
CIRCLE
  5
11E
330
A
100
AcDbEntity
  8
一般
  6
Continuous
 62
     7
370
    18
390
1D
100
AcDbCircle
 10
-580.0
 20
0.0
 30
0.0
 40
4.999999999999984
  0
INSERT
  5
11F
330
A
100
AcDbEntity
  8
寸法
 62
     7
390
1D
100
AcDbBlockReference
  2
グループ-5
 10
-260.0
 20
-14.00000000000011
 30
0.0
  0
CIRCLE
  5
120
330
A
100
AcDbEntity
  8
一般
  6
Continuous
 62
     7
370
    18
390
1D
100
AcDbCircle
 10
-556.5685424949238
 20
-56.5685424949238
 30
0.0
 40
4.999999999999984
  0
INSERT
  5
121
330
A
100
AcDbEntity
  8
寸法
 62
     7
390
1D
100
AcDbBlockReference
  2
グループ-6
 10
-260.0
 20
-14.00000000000011
 30
0.0
  0
CIRCLE
  5
122
330
A
100
AcDbEntity
  8
一般
  6
Continuous
 62
     7
370
    18
390
1D
100
AcDbCircle
 10
-500.0
 20
-80.0
 30
0.0
 40
4.999999999999997
  0
INSERT
  5
123
330
A
100
AcDbEntity
  8
寸法
 62
     7
390
1D
100
AcDbBlockReference
  2
グループ-7
 10
-260.0
 20
-14.00000000000011
 30
0.0
  0
CIRCLE
  5
124
330
A
100
AcDbEntity
  8
一般
  6
Continuous
 62
     7
370
    18
390
1D
100
AcDbCircle
 10
-443.4314575050762
 20
-56.5685424949238
 30
0.0
 40
4.999999999999986
  0
INSERT
  5
125
330
A
100
AcDbEntity
  8
寸法
 62
     7
390
1D
100
AcDbBlockReference
  2
グループ-8
 10
-260.0
 20
-14.00000000000011
 30
0.0
  0
CIRCLE
  5
126
330
A
100
AcDbEntity
  8
一般
  6
Continuous
 62
     7
370
    18
390
1D
100
AcDbCircle
 10
-420.0
 20
-0.0000000000000142
 30
0.0
 40
4.999999999999984
  0
INSERT
  5
127
330
A
100
AcDbEntity
  8
寸法
 62
     7
390
1D
100
AcDbBlockReference
  2
グループ-9
 10
-260.0
 20
-14.00000000000011
 30
0.0
  0
CIRCLE
  5
128
330
A
100
AcDbEntity
  8
一般
  6
Continuous
 62
     7
370
    18
390
1D
100
AcDbCircle
 10
-443.4314575050762
 20
56.56854249492379
 30
0.0
 40
4.999999999999964
  0
INSERT
  5
129
330
A
100
AcDbEntity
  8
寸法
 62
     7
390
1D
100
AcDbBlockReference
  2
グループ-10
 10
-260.0
 20
-14.00000000000011
 30
0.0
  0
CIRCLE
  5
12A
330
A
100
AcDbEntity
  8
一般
  6
Continuous
 62
     7
370
    18
390
1D
100
AcDbCircle
 10
-500.0
 20
80.0
 30
0.0
 40
4.999999999999997
  0
INSERT
  5
12B
330
A
100
AcDbEntity
  8
寸法
 62
     7
390
1D
100
AcDbBlockReference
  2
グループ-11
 10
-260.0
 20
-14.00000000000011
 30
0.0
  0
CIRCLE
  5
12C
330
A
100
AcDbEntity
  8
一般
  6
Continuous
 62
     7
370
    18
390
1D
100
AcDbCircle
 10
-74.24621202458746
 20
74.24621202458749
 30
0.0
 40
5.999999999999988
  0
CIRCLE
  5
12D
330
A
100
AcDbEntity
  8
一般
  6
Continuous
 62
     7
370
    18
390
1D
100
AcDbCircle
 10
-105.0
 20
0.0
 30
0.0
 40
5.999999999999997
  0
CIRCLE
  5
12E
330
A
100
AcDbEntity
  8
一般
  6
Continuous
 62
     7
370
    18
390
1D
100
AcDbCircle
 10
-74.24621202458752
 20
-74.24621202458746
 30
0.0
 40
5.999999999999978
  0
CIRCLE
  5
12F
330
A
100
AcDbEntity
  8
一般
  6
Continuous
 62
     7
370
    18
390
1D
100
AcDbCircle
 10
0.0
 20
-105.0
 30
0.0
 40
5.999999999999999
  0
CIRCLE
  5
130
330
A
100
AcDbEntity
  8
一般
  6
Continuous
 62
     7
370
    18
390
1D
100
AcDbCircle
 10
74.24621202458746
 20
-74.24621202458752
 30
0.0
 40
6.000000000000016
  0
CIRCLE
  5
131
330
A
100
AcDbEntity
  8
一般
  6
Continuous
 62
     7
370
    18
390
1D
100
AcDbCircle
 10
105.0
 20
-0.0000000000000142
 30
0.0
 40
5.999999999999997
  0
CIRCLE
  5
132
330
A
100
AcDbEntity
  8
一般
  6
Continuous
 62
     7
370
    18
390
1D
100
AcDbCircle
 10
74.24621202458752
 20
74.24621202458748
 30
0.0
 40
6.000000000000039
  0
CIRCLE
  5
133
330
A
100
AcDbEntity
  8
一般
  6
Continuous
 62
     7
370
    18
390
1D
100
AcDbCircle
 10
0.0
 20
105.0
 30
0.0
 40
5.999999999999996
  0
CIRCLE
  5
134
330
A
100
AcDbEntity
  8
一般
  6
Continuous
 62
     7
370
    18
390
1D
100
AcDbCircle
 10
0.0
 20
0.0
 30
0.0
 40
50.00000000000001
  0
CIRCLE
  5
135
330
A
100
AcDbEntity
  8
一般
  6
Continuous
 62
     7
370
    18
390
1D
100
AcDbCircle
 10
0.0
 20
0.0
 30
0.0
 40
87.5
  0
CIRCLE
  5
136
330
A
100
AcDbEntity
  8
一般
  6
Continuous
 62
     7
370
    18
390
1D
100
AcDbCircle
 10
0.0
 20
0.0
 30
0.0
 40
92.0
  0
LINE
  5
137
330
A
100
AcDbEntity
  8
一般
  6
STYLE_06
 62
     7
370
    18
390
1D
100
AcDbLine
 10
-556.5685424949238
 20
-61.56854249492379
 30
0.0
 11
-549.8333504041219
 21
-264.0
 31
0.0
  0
LINE
  5
138
330
A
100
AcDbEntity
  8
一般
  6
STYLE_06
 62
     7
370
    18
390
1D
100
AcDbLine
 10
-329.6270029067993
 20
221.3555881556565
 30
0.0
 11
-494.0
 21
105.0
 31
0.0
  0
LINE
  5
139
330
A
100
AcDbEntity
  8
一般
  6
STYLE_06
 62
     7
370
    18
390
1D
100
AcDbLine
 10
-202.3729970932007
 20
221.3555881556565
 30
0.0
 11
-6.0
 21
105.0
 31
0.0
  0
LINE
  5
13A
330
A
100
AcDbEntity
  8
一般
  6
STYLE_06
 62
     7
370
    18
390
1D
100
AcDbLine
 10
-135.0
 20
-233.3795
 30
0.0
 11
-25.0
 21
-88.53812738024223
 31
0.0
  0
DIMENSION
  5
13B
330
A
100
AcDbEntity
  8
寸法
  6
STYLE_01
 62
     7
370
    18
390
1D
100
AcDbDimension
  2
*D15
 10
-778.0
 20
117.5
 30
0.0
 11
-778.0
 21
0.0
 31
0.0
 70
    32
 71
     5
 42
-1.0
  3
Arch
100
AcDbAlignedDimension
 13
0.0
 23
-117.5
 33
0.0
 14
0.0
 24
117.5
 34
0.0
 50
90.0
100
AcDbRotatedDimension
1001
ACAD
1000
DSTYLE
1002
{
1070
   279
1070
     2
1070
   340
1005
34
1070
   147
1040
4.762499999999999
1002
}
  0
DIMENSION
  5
13C
330
A
100
AcDbEntity
  8
寸法
  6
STYLE_01
 62
     7
370
    18
390
1D
100
AcDbDimension
  2
*D16
 10
-732.0
 20
50.00000000000001
 30
0.0
 11
-732.0
 21
0.0
 31
0.0
 70
    32
 71
     5
 42
-1.0
  3
Arch
100
AcDbAlignedDimension
 13
0.0
 23
-50.00000000000001
 33
0.0
 14
0.0
 24
50.00000000000001
 34
0.0
 50
90.0
100
AcDbRotatedDimension
1001
ACAD
1000
DSTYLE
1002
{
1070
   279
1070
     2
1070
   340
1005
34
1070
   147
1040
4.762499999999999
1002
}
  0
DIMENSION
  5
13D
330
A
100
AcDbEntity
  8
寸法
  6
STYLE_01
 62
     7
370
    18
390
1D
100
AcDbDimension
  2
*D17
 10
-258.0
 20
-216.0
 30
0.0
 11
-250.0
 21
-216.0
 31
0.0
 70
    32
 71
     5
 42
-1.0
  3
Arch
100
AcDbAlignedDimension
 13
-242.0
 23
-117.5
 33
0.0
 14
-258.0
 24
-117.5
 34
0.0
100
AcDbRotatedDimension
1001
ACAD
1000
DSTYLE
1002
{
1070
   279
1070
     2
1070
   340
1005
34
1070
   147
1040
4.762499999999999
1002
}
  0
ENDSEC
  0
SECTION
  2
OBJECTS
  0
DICTIONARY
  5
19
330
0
100
AcDbDictionary
281
     1
  3
ACAD_GROUP
350
1A
  3
ACAD_LAYOUT
350
1E
  3
ACAD_MLINESTYLE
350
1B
  3
ACAD_PLOTSETTINGS
350
22
  3
ACAD_PLOTSTYLENAME
350
1F
  3
ACAD_WIPEOUT_VARS
350
23
  0
DICTIONARY
  5
1A
102
{ACAD_REACTORS
330
19
102
}
330
19
100
AcDbDictionary
281
     1
  0
DICTIONARY
  5
1E
102
{ACAD_REACTORS
330
19
102
}
330
19
100
AcDbDictionary
281
     1
  3
Layout1
350
21
  3
Model
350
20
  0
DICTIONARY
  5
1B
102
{ACAD_REACTORS
330
19
102
}
330
19
100
AcDbDictionary
281
     1
  3
Standard
350
1C
  0
DICTIONARY
  5
22
102
{ACAD_REACTORS
330
19
102
}
330
19
100
AcDbDictionary
281
     1
  0
ACDBDICTIONARYWDFLT
  5
1F
102
{ACAD_REACTORS
330
19
102
}
330
19
100
AcDbDictionary
281
     1
  3
Normal
350
1D
100
AcDbDictionaryWithDefault
340
1D
  0
WIPEOUTVARIABLES
  5
23
330
19
100
AcDbWipeoutVariables
 70
     0
  0
LAYOUT
  5
21
102
{ACAD_REACTORS
330
1E
102
}
330
1E
100
AcDbPlotSettings
  1

  2

  4

  6

 40
0.0
 41
0.0
 42
0.0
 43
0.0
 44
0.0
 45
0.0
 46
0.0
 47
0.0
 48
0.0
 49
0.0
140
0.0
141
0.0
142
1.0
143
1.0
 70
     0
 72
     0
 73
     0
 74
     0
  7

 75
     0
 76
     0
 77
     2
 78
   300
147
1.0
148
0.0
149
0.0
100
AcDbLayout
  1
Layout1
 70
     0
 71
     0
 10
0.0
 20
0.0
 11
0.0
 21
0.0
 12
0.0
 22
0.0
 32
0.0
 14
0.0
 24
0.0
 34
0.0
 15
0.0
 25
0.0
 35
0.0
146
0.0
 13
0.0
 23
0.0
 33
0.0
 16
0.0
 26
0.0
 36
0.0
 17
0.0
 27
0.0
 37
0.0
 76
     0
330
B
  0
LAYOUT
  5
20
102
{ACAD_REACTORS
330
1E
102
}
330
1E
100
AcDbPlotSettings
  1

  2

  4

  6

 40
0.0
 41
0.0
 42
0.0
 43
0.0
 44
0.0
 45
0.0
 46
0.0
 47
0.0
 48
0.0
 49
0.0
140
0.0
141
0.0
142
1.0
143
1.0
 70
  1024
 72
     0
 73
     0
 74
     0
  7

 75
     0
 76
     0
 77
     2
 78
   300
147
1.0
148
0.0
149
0.0
100
AcDbLayout
  1
Model
 70
     0
 71
     0
 10
0.0
 20
0.0
 11
0.0
 21
0.0
 12
0.0
 22
0.0
 32
0.0
 14
0.0
 24
0.0
 34
0.0
 15
0.0
 25
0.0
 35
0.0
146
0.0
 13
0.0
 23
0.0
 33
0.0
 16
0.0
 26
0.0
 36
0.0
 17
0.0
 27
0.0
 37
0.0
 76
     0
330
A
  0
MLINESTYLE
  5
1C
102
{ACAD_REACTORS
330
1B
102
}
330
1B
100
AcDbMlineStyle
  2
Standard
 70
     0
  3

 62
     0
 51
90.0
 52
90.0
 71
     2
 49
0.5
 62
   256
  6
BYLAYER
 49
-0.5
 62
   256
  6
BYLAYER
  0
ACDBPLACEHOLDER
  5
1D
102
{ACAD_REACTORS
330
1F
102
}
330
1F
  0
ENDSEC
  0
EOF
