  0
SECTION
  2
HEADER
  9
$ACADVER
  1
AC1018
  9
$ACADMAINTVER
 70
     0
  9
$DWGCODEPAGE
  3
ANSI_932
  9
$INSBASE
 10
0.0
 20
0.0
 30
0.0
  9
$EXTMIN
 10
-117.4999999999998
 20
-52.54999999999997
 30
-2.100050833333333
  9
$EXTMAX
 10
287.7304084524546
 20
206.2837263049058
 30
2.100050833333333
  9
$LIMMIN
 10
0.0
 20
0.0
  9
$LIMMAX
 10
0.0
 20
0.0
  9
$ORTHOMODE
 70
     0
  9
$REGENMODE
 70
     1
  9
$FILLMODE
 70
     1
  9
$QTEXTMODE
 70
     0
  9
$MIRRTEXT
 70
     1
  9
$LTSCALE
 40
5.08
  9
$ATTMODE
 70
     1
  9
$TEXTSIZE
 40
0.2
  9
$TRACEWID
 40
1.0
  9
$TEXTSTYLE
  7
Standard
  9
$CLAYER
  8
一般
  9
$CELTYPE
  6
Continuous
  9
$CECOLOR
 62
   256
  9
$CELTSCALE
 40
1.0
  9
$DISPSILH
 70
     0
  9
$DIMSCALE
 40
1.0
  9
$DIMASZ
 40
2.24482421875
  9
$DIMEXO
 40
1.5875
  9
$DIMDLI
 40
10.16
  9
$DIMRND
 40
0.0
  9
$DIMDLE
 40
1.5875
  9
$DIMEXE
 40
3.175
  9
$DIMTP
 40
0.0
  9
$DIMTM
 40
0.0
  9
$DIMTXT
 40
4.024560546875
  9
$DIMCEN
 40
0.0
  9
$DIMTSZ
 40
0.0
  9
$DIMTOL
 70
     0
  9
$DIMLIM
 70
     0
  9
$DIMTIH
 70
     0
  9
$DIMTOH
 70
     0
  9
$DIMSE1
 70
     0
  9
$DIMSE2
 70
     0
  9
$DIMTAD
 70
     1
  9
$DIMZIN
 70
    11
  9
$DIMBLK
  1
VW_SLASH
  9
$DIMASO
 70
     1
  9
$DIMSHO
 70
     1
  9
$DIMPOST
  1
<>
  9
$DIMAPOST
  1
[]
  9
$DIMALT
 70
     0
  9
$DIMALTD
 70
     3
  9
$DIMALTF
 40
0.0010936132983377
  9
$DIMLFAC
 40
1.0
  9
$DIMTOFL
 70
     1
  9
$DIMTVP
 40
0.0
  9
$DIMTIX
 70
     1
  9
$DIMSOXD
 70
     0
  9
$DIMSAH
 70
     0
  9
$DIMBLK1
  1

  9
$DIMBLK2
  1

  9
$DIMSTYLE
  2
Arch
  9
$DIMCLRD
 70
     0
  9
$DIMCLRE
 70
     0
  9
$DIMCLRT
 70
     0
  9
$DIMTFAC
 40
1.0
  9
$DIMGAP
 40
1.5875
  9
$DIMJUST
 70
     0
  9
$DIMSD1
 70
     0
  9
$DIMSD2
 70
     0
  9
$DIMTOLJ
 70
     1
  9
$DIMTZIN
 70
    11
  9
$DIMALTZ
 70
     7
  9
$DIMALTTZ
 70
     7
  9
$DIMUPT
 70
     0
  9
$DIMDEC
 70
     1
  9
$DIMTDEC
 70
     1
  9
$DIMALTU
 70
     2
  9
$DIMALTTD
 70
     2
  9
$DIMTXSTY
  7
Calibri (bold)
  9
$DIMAUNIT
 70
     0
  9
$DIMADEC
 70
     2
  9
$DIMALTRND
 40
0.0
  9
$DIMAZIN
 70
     0
  9
$DIMDSEP
 70
    46
  9
$DIMATFIT
 70
     0
  9
$DIMFRAC
 70
     2
  9
$DIMLDRBLK
  1

  9
$DIMLUNIT
 70
     2
  9
$DIMLWD
 70
    -2
  9
$DIMLWE
 70
    -2
  9
$DIMTMOVE
 70
     0
  9
$LUNITS
 70
     2
  9
$LUPREC
 70
     4
  9
$SKETCHINC
 40
0.1
  9
$FILLETRAD
 40
0.0
  9
$AUNITS
 70
     0
  9
$AUPREC
 70
     0
  9
$MENU
  1
acad
  9
$ELEVATION
 40
0.0
  9
$PELEVATION
 40
0.0
  9
$THICKNESS
 40
0.0
  9
$LIMCHECK
 70
     0
  9
$CHAMFERA
 40
0.0
  9
$CHAMFERB
 40
0.0
  9
$CHAMFERC
 40
0.0
  9
$CHAMFERD
 40
0.0
  9
$SKPOLY
 70
     0
  9
$TDCREATE
 40
2447893.375
  9
$TDUCREATE
 40
0.0
  9
$TDUPDATE
 40
2447893.375
  9
$TDUUPDATE
 40
0.0
  9
$TDINDWG
 40
0.0
  9
$TDUSRTIMER
 40
0.0
  9
$USRTIMER
 70
     1
  9
$ANGBASE
 50
0.0
  9
$ANGDIR
 70
     0
  9
$PDMODE
 70
     1
  9
$PDSIZE
 40
-2.0
  9
$PLINEWID
 40
0.0
  9
$SPLFRAME
 70
     0
  9
$SPLINETYPE
 70
     6
  9
$SPLINESEGS
 70
     8
  9
$HANDSEED
  5
11F
  9
$SURFTAB1
 70
     6
  9
$SURFTAB2
 70
     6
  9
$SURFTYPE
 70
     6
  9
$SURFU
 70
     6
  9
$SURFV
 70
     6
  9
$UCSBASE
  2

  9
$UCSNAME
  2

  9
$UCSORG
 10
0.0
 20
0.0
 30
0.0
  9
$UCSXDIR
 10
1.0
 20
0.0
 30
0.0
  9
$UCSYDIR
 10
0.0
 20
1.0
 30
0.0
  9
$UCSORTHOREF
  2

  9
$UCSORTHOVIEW
 70
     0
  9
$UCSORGTOP
 10
0.0
 20
0.0
 30
0.0
  9
$UCSORGBOTTOM
 10
0.0
 20
0.0
 30
0.0
  9
$UCSORGLEFT
 10
0.0
 20
0.0
 30
0.0
  9
$UCSORGRIGHT
 10
0.0
 20
0.0
 30
0.0
  9
$UCSORGFRONT
 10
0.0
 20
0.0
 30
0.0
  9
$UCSORGBACK
 10
0.0
 20
0.0
 30
0.0
  9
$PUCSBASE
  2

  9
$PUCSNAME
  2

  9
$PUCSORG
 10
0.0
 20
0.0
 30
0.0
  9
$PUCSXDIR
 10
1.0
 20
0.0
 30
0.0
  9
$PUCSYDIR
 10
0.0
 20
1.0
 30
0.0
  9
$PUCSORTHOREF
  2

  9
$PUCSORTHOVIEW
 70
     0
  9
$PUCSORGTOP
 10
0.0
 20
0.0
 30
0.0
  9
$PUCSORGBOTTOM
 10
0.0
 20
0.0
 30
0.0
  9
$PUCSORGLEFT
 10
0.0
 20
0.0
 30
0.0
  9
$PUCSORGRIGHT
 10
0.0
 20
0.0
 30
0.0
  9
$PUCSORGFRONT
 10
0.0
 20
0.0
 30
0.0
  9
$PUCSORGBACK
 10
0.0
 20
0.0
 30
0.0
  9
$USERI1
 70
     0
  9
$USERI2
 70
     0
  9
$USERI3
 70
     0
  9
$USERI4
 70
     0
  9
$USERI5
 70
     0
  9
$USERR1
 40
0.0
  9
$USERR2
 40
0.0
  9
$USERR3
 40
0.0
  9
$USERR4
 40
0.0
  9
$USERR5
 40
0.0
  9
$WORLDVIEW
 70
     1
  9
$SHADEDGE
 70
     3
  9
$SHADEDIF
 70
    70
  9
$TILEMODE
 70
     1
  9
$MAXACTVP
 70
    64
  9
$PINSBASE
 10
0.0
 20
0.0
 30
0.0
  9
$PLIMCHECK
 70
     0
  9
$PEXTMIN
 10
1.000000000000000E+20
 20
1.000000000000000E+20
 30
1.000000000000000E+20
  9
$PEXTMAX
 10
-1.000000000000000E+20
 20
-1.000000000000000E+20
 30
-1.000000000000000E+20
  9
$PLIMMIN
 10
0.0
 20
0.0
  9
$PLIMMAX
 10
12.0
 20
9.0
  9
$UNITMODE
 70
     0
  9
$VISRETAIN
 70
     0
  9
$PLINEGEN
 70
     1
  9
$PSLTSCALE
 70
     0
  9
$TREEDEPTH
 70
  3020
  9
$CMLSTYLE
  2
Standard
  9
$CMLJUST
 70
     0
  9
$CMLSCALE
 40
1.0
  9
$PROXYGRAPHICS
 70
     0
  9
$MEASUREMENT
 70
     1
  9
$CELWEIGHT
370
     0
  9
$ENDCAPS
280
     0
  9
$JOINSTYLE
280
     0
  9
$LWDISPLAY
290
     1
  9
$INSUNITS
 70
     4
  9
$HYPERLINKBASE
  1

  9
$STYLESHEET
  1

  9
$XEDIT
290
     1
  9
$CEPSNTYPE
380
     0
  9
$PSTYLEMODE
290
     1
  9
$FINGERPRINTGUID
  2

  9
$VERSIONGUID
  2

  9
$EXTNAMES
290
     1
  9
$PSVPSCALE
 40
0.0
  9
$OLESTARTUP
290
     0
  9
$SORTENTS
280
   127
  9
$INDEXCTL
280
     0
  9
$HIDETEXT
280
     1
  9
$XCLIPFRAME
290
     0
  9
$HALOGAP
280
     0
  9
$OBSCOLOR
 70
   257
  9
$OBSLTYPE
280
     0
  9
$INTERSECTIONDISPLAY
280
     0
  9
$INTERSECTIONCOLOR
 70
   257
  9
$DIMASSOC
280
     2
  9
$PROJECTNAME
  1

  0
ENDSEC
  0
SECTION
  2
CLASSES
  0
CLASS
  1
LWPOLYLINE
  2
AcDbPolyline
  3
AutoCAD 2000
 90
        0
 91
        1
280
     0
281
     1
  0
CLASS
  1
IMAGE
  2
AcDbRasterImage
  3
ISM
 90
      127
 91
        4
280
     0
281
     1
  0
CLASS
  1
OLE2FRAME
  2
AcDbOle2Frame
  3
AutoCAD 2000
 90
        0
 91
        1
280
     0
281
     1
  0
CLASS
  1
HATCH
  2
AcDbHatch
  3
AutoCAD 2000
 90
        0
 91
        1
280
     0
281
     1
  0
CLASS
  1
DICTIONARYVAR
  2
AcDbDictionaryVar
  3
ObjectDBX Classes
 90
        0
 91
        3
280
     0
281
     0
  0
CLASS
  1
RASTERVARIABLES
  2
AcDbRasterVariables
  3
ISM
 90
        0
 91
        3
280
     0
281
     0
  0
CLASS
  1
IMAGEDEF
  2
AcDbRasterImageDef
  3
ISM
 90
        0
 91
        3
280
     0
281
     0
  0
CLASS
  1
IMAGEDEF_REACTOR
  2
AcDbRasterImageDefReactor
  3
ISM
 90
        1
 91
        3
280
     0
281
     0
  0
CLASS
  1
IDBUFFER
  2
AcDbIdBuffer
  3
ObjectDBX Classes
 90
        0
 91
        3
280
     0
281
     0
  0
CLASS
  1
SPATIAL_FILTER
  2
AcDbSpatialFilter
  3
ObjectDBX Classes
 90
        0
 91
        3
280
     0
281
     0
  0
CLASS
  1
XRECORD
  2
AcDbXrecord
  3
AutoCAD 2000
 90
        0
 91
        1
280
     0
281
     0
  0
CLASS
  1
SORTENTSTABLE
  2
AcDbSortentsTable
  3
ObjectDBX Classes
 90
        0
 91
        3
280
     0
281
     0
  0
CLASS
  1
LAYER_INDEX
  2
AcDbLayerIndex
  3
ObjectDBX Classes
 90
        0
 91
        3
280
     0
281
     0
  0
CLASS
  1
SPATIAL_INDEX
  2
AcDbSpatialIndex
  3
AutoCAD 2000
 90
        0
 91
        3
280
     0
281
     0
  0
CLASS
  1
OBJECT_PTR
  2
CAseDLPNTableRecord
  3
ASE-LPNTableRecord
 90
        1
 91
        3
280
     0
281
     0
  0
CLASS
  1
LAYOUT
  2
AcDbLayout
  3
ObjectDBX Classes
 90
        0
 91
        1
280
     0
281
     0
  0
CLASS
  1
PLOTSETTINGS
  2
AcDbPlotSettings
  3
ObjectDBX Classes
 90
        0
 91
        3
280
     0
281
     0
  0
CLASS
  1
ACDBDICTIONARYWDFLT
  2
AcDbDictionaryWithDefault
  3
ObjectDBX Classes
 90
        0
 91
        3
280
     0
281
     0
  0
CLASS
  1
ACDBPLACEHOLDER
  2
AcDbPlaceHolder
  3
ObjectDBX Classes
 90
        0
 91
        1
280
     0
281
     0
  0
CLASS
  1
VBA_PROJECT
  2
AcDbVbaProject
  3
ObjectDBX Classes
 90
        0
 91
        1
280
     0
281
     0
  0
CLASS
  1
WIPEOUT
  2
AcDbWipeout
  3
WipeOut|AutoCAD Express Tool|expresstools@autodesk.com
 90
      127
 91
        3
280
     0
281
     1
  0
CLASS
  1
WIPEOUTVARIABLES
  2
AcDbWipeoutVariables
  3
WipeOut|AutoCAD Express Tool|expresstools@autodesk.com
 90
        0
 91
        3
280
     0
281
     0
  0
CLASS
  1
RTEXT
  2
RText
  3
RText|AutoCAD Express Tool|expresstools@autodesk.com
 90
        0
 91
        3
280
     0
281
     1
  0
CLASS
  1
ARCALIGNEDTEXT
  2
AcDbArcAlignedText
  3
ATEXT|AutoCAD Express Tool|expresstools@autodesk.com
 90
        0
 91
        3
280
     0
281
     1
  0
ENDSEC
  0
SECTION
  2
TABLES
  0
TABLE
  2
VPORT
  5
7
330
0
100
AcDbSymbolTable
 70
     1
  0
VPORT
  5
15
330
7
100
AcDbSymbolTableRecord
100
AcDbViewportTableRecord
  2
*ACTIVE
 70
     0
 10
0.0
 20
0.0
 11
1.0
 21
1.0
 12
85.11520422622736
 22
76.86686315245292
 13
0.0
 23
0.0
 14
1.0
 24
1.0
 15
0.0
 25
0.0
 16
0.0
 26
0.0
 36
1.0
 17
0.0
 27
0.0
 37
0.0
 40
258.8337263049058
 41
0.688564
 42
50.0
 43
0.0
 44
0.0
 50
0.0
 51
0.0
 71
     0
 72
  2000
 73
     1
 74
     1
 75
     0
 76
     0
 77
     0
 78
     0
281
     0
 65
     0
110
0.0
120
0.0
130
0.0
111
1.0
121
0.0
131
0.0
112
0.0
122
1.0
132
0.0
 79
     0
146
0.0
  0
ENDTAB
  0
TABLE
  2
LTYPE
  5
4
330
0
100
AcDbSymbolTable
 70
    11
  0
LTYPE
  5
11
330
4
100
AcDbSymbolTableRecord
100
AcDbLinetypeTableRecord
  2
ByBlock
 70
     0
  3

 72
    65
 73
     0
 40
0.0
  0
LTYPE
  5
12
330
4
100
AcDbSymbolTableRecord
100
AcDbLinetypeTableRecord
  2
ByLayer
 70
     0
  3

 72
    65
 73
     0
 40
0.0
  0
LTYPE
  5
13
330
4
100
AcDbSymbolTableRecord
100
AcDbLinetypeTableRecord
  2
Continuous
 70
     0
  3
Solid line
 72
    65
 73
     0
 40
0.0
  0
LTYPE
  5
37
330
4
100
AcDbSymbolTableRecord
100
AcDbLinetypeTableRecord
  2
STYLE_01
 70
     0
  3

 72
    65
 73
     2
 40
0.41664
 49
0.20828
 74
     0
 49
-0.20836
 74
     0
  0
LTYPE
  5
38
330
4
100
AcDbSymbolTableRecord
100
AcDbLinetypeTableRecord
  2
STYLE_02
 70
     0
  3

 72
    65
 73
     2
 40
0.6944250000000001
 49
0.48607
 74
     0
 49
-0.2083550000000001
 74
     0
  0
LTYPE
  5
39
330
4
100
AcDbSymbolTableRecord
100
AcDbLinetypeTableRecord
  2
STYLE_03
 70
     0
  3

 72
    65
 73
     2
 40
1.25
 49
1.04164
 74
     0
 49
-0.2083599999999999
 74
     0
  0
LTYPE
  5
3A
330
4
100
AcDbSymbolTableRecord
100
AcDbLinetypeTableRecord
  2
STYLE_04
 70
     0
  3

 72
    65
 73
     2
 40
1.52771
 49
1.319425
 74
     0
 49
-0.208285
 74
     0
  0
LTYPE
  5
3B
330
4
100
AcDbSymbolTableRecord
100
AcDbLinetypeTableRecord
  2
STYLE_05
 70
     0
  3

 72
    65
 73
     2
 40
0.20828
 49
0.069425
 74
     0
 49
-0.138855
 74
     0
  0
LTYPE
  5
3C
330
4
100
AcDbSymbolTableRecord
100
AcDbLinetypeTableRecord
  2
STYLE_06
 70
     0
  3

 72
    65
 73
     4
 40
1.04164
 49
0.625
 74
     0
 49
-0.20828
 74
     0
 49
0.06943
 74
     0
 49
-0.13893
 74
     0
  0
LTYPE
  5
3D
330
4
100
AcDbSymbolTableRecord
100
AcDbLinetypeTableRecord
  2
STYLE_07
 70
     0
  3

 72
    65
 73
     6
 40
1.875
 49
0.625
 74
     0
 49
-0.20828
 74
     0
 49
0.6250000000000001
 74
     0
 49
-0.2083599999999999
 74
     0
 49
0.06943
 74
     0
 49
-0.1389299999999999
 74
     0
  0
LTYPE
  5
3E
330
4
100
AcDbSymbolTableRecord
100
AcDbLinetypeTableRecord
  2
STYLE_08
 70
     0
  3

 72
    65
 73
     6
 40
1.25
 49
0.625
 74
     0
 49
-0.20828
 74
     0
 49
0.06943
 74
     0
 49
-0.13893
 74
     0
 49
0.0694299999999999
 74
     0
 49
-0.13893
 74
     0
  0
LTYPE
  5
3F
330
4
100
AcDbSymbolTableRecord
100
AcDbLinetypeTableRecord
  2
STYLE_09
 70
     0
  3

 72
    65
 73
     4
 40
5.0
 49
3.75
 74
     0
 49
-0.2777849999999998
 74
     0
 49
0.6944300000000003
 74
     0
 49
-0.2777849999999998
 74
     0
  0
LTYPE
  5
40
330
4
100
AcDbSymbolTableRecord
100
AcDbLinetypeTableRecord
  2
STYLE_10
 70
     0
  3

 72
    65
 73
     6
 40
5.9375
 49
3.75
 74
     0
 49
-0.2777849999999998
 74
     0
 49
0.6944300000000003
 74
     0
 49
-0.2777849999999998
 74
     0
 49
0.625
 74
     0
 49
-0.3125
 74
     0
  0
ENDTAB
  0
TABLE
  2
LAYER
  5
2
330
0
100
AcDbSymbolTable
 70
     4
  0
LAYER
  5
14
330
2
100
AcDbSymbolTableRecord
100
AcDbLayerTableRecord
  2
0
 70
     0
 62
     7
  6
Continuous
370
    -3
390
1D
  0
LAYER
  5
41
330
2
100
AcDbSymbolTableRecord
100
AcDbLayerTableRecord
  2
一般
 70
     0
 62
     7
  6
Continuous
370
   100
390
1D
  0
LAYER
  5
42
330
2
100
AcDbSymbolTableRecord
100
AcDbLayerTableRecord
  2
寸法
 70
     0
 62
     7
  6
Continuous
370
   100
390
1D
  0
LAYER
  5
43
330
2
100
AcDbSymbolTableRecord
100
AcDbLayerTableRecord
  2
Defpoints
 70
     0
 62
     7
  6
Continuous
290
     0
370
    -3
390
1D
  0
ENDTAB
  0
TABLE
  2
STYLE
  5
3
330
0
100
AcDbSymbolTable
 70
     2
  0
STYLE
  5
17
330
3
100
AcDbSymbolTableRecord
100
AcDbTextStyleTableRecord
  2
Standard
 70
     0
 40
0.0
 41
1.0
 50
0.0
 71
     0
 42
0.0
  3
txt
  4
BIGFONT.SHX
  0
STYLE
  5
36
330
3
100
AcDbSymbolTableRecord
100
AcDbTextStyleTableRecord
  2
Calibri (bold)
 70
     0
 40
0.0
 41
1.0
 50
0.0
 71
     0
 42
0.0
  3

  4
Calibri
1001
ACAD
1000
Calibri
1071
 33554432
  0
ENDTAB
  0
TABLE
  2
VIEW
  5
5
330
0
100
AcDbSymbolTable
 70
     0
  0
ENDTAB
  0
TABLE
  2
UCS
  5
6
330
0
100
AcDbSymbolTable
 70
     0
  0
ENDTAB
  0
TABLE
  2
APPID
  5
8
330
0
100
AcDbSymbolTable
 70
     1
  0
APPID
  5
16
330
8
100
AcDbSymbolTableRecord
100
AcDbRegAppTableRecord
  2
ACAD
 70
     0
  0
ENDTAB
  0
TABLE
  2
DIMSTYLE
  5
9
330
0
100
AcDbSymbolTable
 70
     2
100
AcDbDimStyleTable
  0
DIMSTYLE
105
18
330
9
100
AcDbSymbolTableRecord
100
AcDbDimStyleTableRecord
  2
Standard
 70
     0
340
17
  0
DIMSTYLE
105
4D
330
9
100
AcDbSymbolTableRecord
100
AcDbDimStyleTableRecord
  2
Arch
 70
     0
  3
<>
  4
[]
 41
2.24482421875
 42
1.5875
 43
10.16
 44
3.175
 46
1.5875
 73
     0
 74
     0
 77
     1
 78
    11
140
4.024560546875
141
0.0
143
0.0010936132983377
147
1.5875
171
     3
172
     1
174
     1
179
     2
271
     1
272
     1
276
     2
284
    11
285
     7
286
     7
289
     0
340
36
341
49
342
44
  0
ENDTAB
  0
TABLE
  2
BLOCK_RECORD
  5
1
330
0
100
AcDbSymbolTable
 70
    20
  0
BLOCK_RECORD
  5
A
330
1
100
AcDbSymbolTableRecord
100
AcDbBlockTableRecord
  2
*MODEL_SPACE
340
20
  0
BLOCK_RECORD
  5
B
330
1
100
AcDbSymbolTableRecord
100
AcDbBlockTableRecord
  2
*PAPER_SPACE
340
21
  0
BLOCK_RECORD
  5
44
330
1
100
AcDbSymbolTableRecord
100
AcDbBlockTableRecord
  2
VW_SLASH
340
0
  0
BLOCK_RECORD
  5
49
330
1
100
AcDbSymbolTableRecord
100
AcDbBlockTableRecord
  2
VW_FILLEDARROW
340
0
  0
BLOCK_RECORD
  5
24
330
1
100
AcDbSymbolTableRecord
100
AcDbBlockTableRecord
  2
グループ
340
0
102
{BLKREFS
331
54
102
}
  0
BLOCK_RECORD
  5
25
330
1
100
AcDbSymbolTableRecord
100
AcDbBlockTableRecord
  2
グループ-1
340
0
102
{BLKREFS
331
D6
102
}
  0
BLOCK_RECORD
  5
26
330
1
100
AcDbSymbolTableRecord
100
AcDbBlockTableRecord
  2
グループ-2
340
0
102
{BLKREFS
331
5C
102
}
  0
BLOCK_RECORD
  5
27
330
1
100
AcDbSymbolTableRecord
100
AcDbBlockTableRecord
  2
グループ-3
340
0
102
{BLKREFS
331
D7
102
}
  0
BLOCK_RECORD
  5
28
330
1
100
AcDbSymbolTableRecord
100
AcDbBlockTableRecord
  2
グループ-4
340
0
102
{BLKREFS
331
64
102
}
  0
BLOCK_RECORD
  5
29
330
1
100
AcDbSymbolTableRecord
100
AcDbBlockTableRecord
  2
グループ-5
340
0
102
{BLKREFS
331
D8
102
}
  0
BLOCK_RECORD
  5
2A
330
1
100
AcDbSymbolTableRecord
100
AcDbBlockTableRecord
  2
グループ-6
340
0
102
{BLKREFS
331
6C
102
}
  0
BLOCK_RECORD
  5
2B
330
1
100
AcDbSymbolTableRecord
100
AcDbBlockTableRecord
  2
グループ-7
340
0
102
{BLKREFS
331
D9
102
}
  0
BLOCK_RECORD
  5
2C
330
1
100
AcDbSymbolTableRecord
100
AcDbBlockTableRecord
  2
グループ-8
340
0
102
{BLKREFS
331
74
102
}
  0
BLOCK_RECORD
  5
2D
330
1
100
AcDbSymbolTableRecord
100
AcDbBlockTableRecord
  2
グループ-9
340
0
102
{BLKREFS
331
10E
102
}
  0
BLOCK_RECORD
  5
2E
330
1
100
AcDbSymbolTableRecord
100
AcDbBlockTableRecord
  2
グループ-10
340
0
102
{BLKREFS
331
7C
102
}
  0
BLOCK_RECORD
  5
2F
330
1
100
AcDbSymbolTableRecord
100
AcDbBlockTableRecord
  2
グループ-11
340
0
102
{BLKREFS
331
10F
102
}
  0
BLOCK_RECORD
  5
30
330
1
100
AcDbSymbolTableRecord
100
AcDbBlockTableRecord
  2
*D14
340
0
  0
BLOCK_RECORD
  5
31
330
1
100
AcDbSymbolTableRecord
100
AcDbBlockTableRecord
  2
グループ-12
340
0
102
{BLKREFS
331
111
102
}
  0
BLOCK_RECORD
  5
32
330
1
100
AcDbSymbolTableRecord
100
AcDbBlockTableRecord
  2
グループ-13
340
0
102
{BLKREFS
331
112
102
}
  0
BLOCK_RECORD
  5
33
330
1
100
AcDbSymbolTableRecord
100
AcDbBlockTableRecord
  2
グループ-14
340
0
102
{BLKREFS
331
113
102
}
  0
BLOCK_RECORD
  5
34
330
1
100
AcDbSymbolTableRecord
100
AcDbBlockTableRecord
  2
*D18
340
0
  0
BLOCK_RECORD
  5
35
330
1
100
AcDbSymbolTableRecord
100
AcDbBlockTableRecord
  2
*D19
340
0
  0
ENDTAB
  0
ENDSEC
  0
SECTION
  2
BLOCKS
  0
BLOCK
  5
D
330
A
100
AcDbEntity
  8
0
390
1D
100
AcDbBlockBegin
  2
*MODEL_SPACE
 70
     0
 71
     0
 10
0.0
 20
0.0
 30
0.0
  3
*MODEL_SPACE
  1

  0
ENDBLK
  5
E
330
A
100
AcDbEntity
  8
0
390
1D
100
AcDbBlockEnd
  0
BLOCK
  5
F
330
B
100
AcDbEntity
 67
     1
  8
0
390
1D
100
AcDbBlockBegin
  2
*PAPER_SPACE
 70
     0
 71
     0
 10
0.0
 20
0.0
 30
0.0
  3
*PAPER_SPACE
  1

  0
ENDBLK
  5
10
330
B
100
AcDbEntity
 67
     1
  8
0
390
1D
100
AcDbBlockEnd
  0
BLOCK
  5
45
330
44
100
AcDbEntity
  8
0
  6
ByBlock
 62
     0
370
    -2
390
1D
100
AcDbBlockBegin
  2
VW_SLASH
 70
     0
 71
     0
 10
0.0
 20
0.0
 30
0.0
  3
VW_SLASH
  1

  0
LINE
  5
46
330
44
100
AcDbEntity
  8
0
  6
ByBlock
 62
     0
370
    -2
390
1D
100
AcDbLine
 10
0.0
 20
0.0
 30
0.0
 11
-1.0
 21
0.0
 31
0.0
  0
LINE
  5
47
330
44
100
AcDbEntity
  8
0
  6
ByBlock
 62
     0
370
    20
390
1D
100
AcDbLine
 10
-0.499877537989201
 20
-0.4998775379892008
 30
0.0
 11
0.499877537989201
 21
0.4998775379892008
 31
0.0
  0
ENDBLK
  5
48
330
44
100
AcDbEntity
  8
0
390
1D
100
AcDbBlockEnd
  0
BLOCK
  5
4A
330
49
100
AcDbEntity
  8
0
  6
ByBlock
 62
     0
370
    -2
390
1D
100
AcDbBlockBegin
  2
VW_FILLEDARROW
 70
     0
 71
     0
 10
0.0
 20
0.0
 30
0.0
  3
VW_FILLEDARROW
  1

  0
SOLID
  5
4B
330
49
100
AcDbEntity
  8
0
 62
     0
370
    -2
390
1D
100
AcDbTrace
 10
0.0
 20
0.0
 30
0.0
 11
-1.4138671875
 21
-0.3788445710954878
 31
0.0
 12
-1.4138671875
 22
0.3788445710954881
 32
0.0
 13
-1.4138671875
 23
0.3788445710954881
 33
0.0
  0
ENDBLK
  5
4C
330
49
100
AcDbEntity
  8
0
390
1D
100
AcDbBlockEnd
  0
BLOCK
  5
4E
330
24
100
AcDbEntity
  8
寸法
390
1D
100
AcDbBlockBegin
  2
グループ
 70
     0
 71
     0
 10
0.0
 20
0.0
 30
0.0
  3
グループ
  1

  0
LINE
  5
4F
330
24
100
AcDbEntity
  8
一般
  6
Continuous
 62
     7
370
    18
390
1D
100
AcDbLine
 10
-101.3410216543966
 20
-5.184028797767814
 30
0.0
 11
-101.3410216543966
 21
1.165971202232171
 31
0.0
  0
LINE
  5
50
330
24
100
AcDbEntity
  8
一般
  6
Continuous
 62
     7
370
    18
390
1D
100
AcDbLine
 10
-98.16602165439662
 20
-2.009028797767829
 30
0.0
 11
-104.5160216543966
 21
-2.009028797767829
 31
0.0
  0
ENDBLK
  5
51
330
24
100
AcDbEntity
  8
寸法
390
1D
100
AcDbBlockEnd
  0
BLOCK
  5
52
330
25
100
AcDbEntity
  8
一般
390
1D
100
AcDbBlockBegin
  2
グループ-1
 70
     0
 71
     0
 10
0.0
 20
0.0
 30
0.0
  3
グループ-1
  1

  0
CIRCLE
  5
53
330
25
100
AcDbEntity
  8
一般
  6
Continuous
 62
     7
370
    18
390
1D
100
AcDbCircle
 10
-101.3410216543966
 20
-2.009028797767829
 30
0.0
 40
1.59999999999999
  0
INSERT
  5
54
330
25
100
AcDbEntity
  8
寸法
 62
     7
390
1D
100
AcDbBlockReference
  2
グループ
 10
0.0
 20
0.0
 30
0.0
  0
ENDBLK
  5
55
330
25
100
AcDbEntity
  8
一般
390
1D
100
AcDbBlockEnd
  0
BLOCK
  5
56
330
26
100
AcDbEntity
  8
寸法
390
1D
100
AcDbBlockBegin
  2
グループ-2
 70
     0
 71
     0
 10
0.0
 20
0.0
 30
0.0
  3
グループ-2
  1

  0
LINE
  5
57
330
26
100
AcDbEntity
  8
一般
  6
Continuous
 62
     7
370
    18
390
1D
100
AcDbLine
 10
-78.16602165439649
 20
-22.00902879776774
 30
0.0
 11
-84.51602165439651
 21
-22.00902879776774
 31
0.0
  0
LINE
  5
58
330
26
100
AcDbEntity
  8
一般
  6
Continuous
 62
     7
370
    18
390
1D
100
AcDbLine
 10
-81.34102165439649
 20
-18.83402879776774
 30
0.0
 11
-81.34102165439649
 21
-25.18402879776774
 31
0.0
  0
ENDBLK
  5
59
330
26
100
AcDbEntity
  8
寸法
390
1D
100
AcDbBlockEnd
  0
BLOCK
  5
5A
330
27
100
AcDbEntity
  8
一般
390
1D
100
AcDbBlockBegin
  2
グループ-3
 70
     0
 71
     0
 10
0.0
 20
0.0
 30
0.0
  3
グループ-3
  1

  0
CIRCLE
  5
5B
330
27
100
AcDbEntity
  8
一般
  6
Continuous
 62
     7
370
    18
390
1D
100
AcDbCircle
 10
-81.34102165439649
 20
-22.00902879776774
 30
0.0
 40
1.600000000000011
  0
INSERT
  5
5C
330
27
100
AcDbEntity
  8
寸法
 62
     7
390
1D
100
AcDbBlockReference
  2
グループ-2
 10
0.0
 20
0.0
 30
0.0
  0
ENDBLK
  5
5D
330
27
100
AcDbEntity
  8
一般
390
1D
100
AcDbBlockEnd
  0
BLOCK
  5
5E
330
28
100
AcDbEntity
  8
寸法
390
1D
100
AcDbBlockBegin
  2
グループ-4
 70
     0
 71
     0
 10
0.0
 20
0.0
 30
0.0
  3
グループ-4
  1

  0
LINE
  5
5F
330
28
100
AcDbEntity
  8
一般
  6
Continuous
 62
     7
370
    18
390
1D
100
AcDbLine
 10
-61.34102165439656
 20
1.165971202232164
 30
0.0
 11
-61.34102165439656
 21
-5.184028797767821
 31
0.0
  0
LINE
  5
60
330
28
100
AcDbEntity
  8
一般
  6
Continuous
 62
     7
370
    18
390
1D
100
AcDbLine
 10
-64.51602165439651
 20
-2.009028797767829
 30
0.0
 11
-58.16602165439662
 21
-2.009028797767829
 31
0.0
  0
ENDBLK
  5
61
330
28
100
AcDbEntity
  8
寸法
390
1D
100
AcDbBlockEnd
  0
BLOCK
  5
62
330
29
100
AcDbEntity
  8
一般
390
1D
100
AcDbBlockBegin
  2
グループ-5
 70
     0
 71
     0
 10
0.0
 20
0.0
 30
0.0
  3
グループ-5
  1

  0
CIRCLE
  5
63
330
29
100
AcDbEntity
  8
一般
  6
Continuous
 62
     7
370
    18
390
1D
100
AcDbCircle
 10
-61.34102165439656
 20
-2.009028797767829
 30
0.0
 40
1.599999999999976
  0
INSERT
  5
64
330
29
100
AcDbEntity
  8
寸法
 62
     7
390
1D
100
AcDbBlockReference
  2
グループ-4
 10
0.0
 20
0.0
 30
0.0
  0
ENDBLK
  5
65
330
29
100
AcDbEntity
  8
一般
390
1D
100
AcDbBlockEnd
  0
BLOCK
  5
66
330
2A
100
AcDbEntity
  8
寸法
390
1D
100
AcDbBlockBegin
  2
グループ-6
 70
     0
 71
     0
 10
0.0
 20
0.0
 30
0.0
  3
グループ-6
  1

  0
LINE
  5
67
330
2A
100
AcDbEntity
  8
一般
  6
Continuous
 62
     7
370
    18
390
1D
100
AcDbLine
 10
-84.51602165439651
 20
17.99097120223228
 30
0.0
 11
-78.16602165439649
 21
17.99097120223228
 31
0.0
  0
LINE
  5
68
330
2A
100
AcDbEntity
  8
一般
  6
Continuous
 62
     7
370
    18
390
1D
100
AcDbLine
 10
-81.34102165439647
 20
14.81597120223226
 30
0.0
 11
-81.34102165439647
 21
21.1659712022323
 31
0.0
  0
ENDBLK
  5
69
330
2A
100
AcDbEntity
  8
寸法
390
1D
100
AcDbBlockEnd
  0
BLOCK
  5
6A
330
2B
100
AcDbEntity
  8
一般
390
1D
100
AcDbBlockBegin
  2
グループ-7
 70
     0
 71
     0
 10
0.0
 20
0.0
 30
0.0
  3
グループ-7
  1

  0
CIRCLE
  5
6B
330
2B
100
AcDbEntity
  8
一般
  6
Continuous
 62
     7
370
    18
390
1D
100
AcDbCircle
 10
-81.34102165439647
 20
17.99097120223228
 30
0.0
 40
1.600000000000004
  0
INSERT
  5
6C
330
2B
100
AcDbEntity
  8
寸法
 62
     7
390
1D
100
AcDbBlockReference
  2
グループ-6
 10
0.0
 20
0.0
 30
0.0
  0
ENDBLK
  5
6D
330
2B
100
AcDbEntity
  8
一般
390
1D
100
AcDbBlockEnd
  0
BLOCK
  5
6E
330
2C
100
AcDbEntity
  8
寸法
390
1D
100
AcDbBlockBegin
  2
グループ-8
 70
     0
 71
     0
 10
0.0
 20
0.0
 30
0.0
  3
グループ-8
  1

  0
LINE
  5
6F
330
2C
100
AcDbEntity
  8
一般
  6
Continuous
 62
     7
370
    18
390
1D
100
AcDbLine
 10
-88.3410216543965
 20
-57.00902879776775
 30
0.0
 11
-84.3410216543965
 21
-57.00902879776775
 31
0.0
  0
LINE
  5
70
330
2C
100
AcDbEntity
  8
一般
  6
Continuous
 62
     7
370
    18
390
1D
100
AcDbLine
 10
-86.3410216543965
 20
-59.00902879776775
 30
0.0
 11
-86.3410216543965
 21
-55.00902879776775
 31
0.0
  0
ENDBLK
  5
71
330
2C
100
AcDbEntity
  8
寸法
390
1D
100
AcDbBlockEnd
  0
BLOCK
  5
72
330
2D
100
AcDbEntity
  8
一般
390
1D
100
AcDbBlockBegin
  2
グループ-9
 70
     0
 71
     0
 10
0.0
 20
0.0
 30
0.0
  3
グループ-9
  1

  0
CIRCLE
  5
73
330
2D
100
AcDbEntity
  8
一般
  6
Continuous
 62
     7
370
    18
390
1D
100
AcDbCircle
 10
-86.3410216543965
 20
-57.00902879776775
 30
0.0
 40
1.499999999999996
  0
INSERT
  5
74
330
2D
100
AcDbEntity
  8
寸法
 62
     7
390
1D
100
AcDbBlockReference
  2
グループ-8
 10
0.0
 20
0.0
 30
0.0
  0
ENDBLK
  5
75
330
2D
100
AcDbEntity
  8
一般
390
1D
100
AcDbBlockEnd
  0
BLOCK
  5
76
330
2E
100
AcDbEntity
  8
寸法
390
1D
100
AcDbBlockBegin
  2
グループ-10
 70
     0
 71
     0
 10
0.0
 20
0.0
 30
0.0
  3
グループ-10
  1

  0
LINE
  5
77
330
2E
100
AcDbEntity
  8
一般
  6
Continuous
 62
     7
370
    18
390
1D
100
AcDbLine
 10
-78.3410216543965
 20
-57.00902879776775
 30
0.0
 11
-74.3410216543965
 21
-57.00902879776775
 31
0.0
  0
LINE
  5
78
330
2E
100
AcDbEntity
  8
一般
  6
Continuous
 62
     7
370
    18
390
1D
100
AcDbLine
 10
-76.3410216543965
 20
-59.00902879776775
 30
0.0
 11
-76.3410216543965
 21
-55.00902879776775
 31
0.0
  0
ENDBLK
  5
79
330
2E
100
AcDbEntity
  8
寸法
390
1D
100
AcDbBlockEnd
  0
BLOCK
  5
7A
330
2F
100
AcDbEntity
  8
一般
390
1D
100
AcDbBlockBegin
  2
グループ-11
 70
     0
 71
     0
 10
0.0
 20
0.0
 30
0.0
  3
グループ-11
  1

  0
CIRCLE
  5
7B
330
2F
100
AcDbEntity
  8
一般
  6
Continuous
 62
     7
370
    18
390
1D
100
AcDbCircle
 10
-76.3410216543965
 20
-57.00902879776775
 30
0.0
 40
1.499999999999996
  0
INSERT
  5
7C
330
2F
100
AcDbEntity
  8
寸法
 62
     7
390
1D
100
AcDbBlockReference
  2
グループ-10
 10
0.0
 20
0.0
 30
0.0
  0
ENDBLK
  5
7D
330
2F
100
AcDbEntity
  8
一般
390
1D
100
AcDbBlockEnd
  0
BLOCK
  5
7E
330
30
100
AcDbEntity
  8
寸法
390
1D
100
AcDbBlockBegin
  2
*D14
 70
     1
 71
     0
 10
0.0
 20
0.0
 30
0.0
  3
*D14
  1

  0
LINE
  5
7F
330
30
100
AcDbEntity
  8
寸法
  6
STYLE_01
 62
     0
370
    -2
390
1D
100
AcDbLine
 10
-1.587499999999991
 20
135.0000000000001
 30
0.0
 11
-86.17500000000003
 21
135.0000000000001
 31
0.0
  0
LINE
  5
80
330
30
100
AcDbEntity
  8
寸法
  6
STYLE_01
 62
     0
370
    -2
390
1D
100
AcDbLine
 10
-1.587499999999991
 20
-5.000000000000199
 30
0.0
 11
-86.17500000000003
 21
-5.000000000000199
 31
0.0
  0
LINE
  5
81
330
30
100
AcDbEntity
  8
寸法
  6
STYLE_01
 62
     0
370
    -2
390
1D
100
AcDbLine
 10
-83.00000000000001
 20
136.5875000000001
 30
0.0
 11
-83.00000000000001
 21
135.0000000000001
 31
0.0
  0
LINE
  5
82
330
30
100
AcDbEntity
  8
寸法
  6
STYLE_01
 62
     0
370
    -2
390
1D
100
AcDbLine
 10
-83.00000000000001
 20
-5.000000000000199
 30
0.0
 11
-83.00000000000001
 21
-6.587500000000205
 31
0.0
  0
LINE
  5
83
330
30
100
AcDbEntity
  8
寸法
  6
STYLE_01
 62
     0
370
    -2
390
1D
100
AcDbLine
 10
-83.00000000000001
 20
135.0000000000001
 30
0.0
 11
-83.00000000000001
 21
-5.000000000000199
 31
0.0
  0
LINE
  5
84
330
30
100
AcDbEntity
  8
寸法
  6
STYLE_01
 62
     0
370
    20
390
1D
100
AcDbLine
 10
-81.87746798486636
 20
133.8774679848664
 30
0.0
 11
-84.12253201513367
 21
136.1225320151337
 31
0.0
  0
LINE
  5
85
330
30
100
AcDbEntity
  8
寸法
  6
STYLE_01
 62
     0
370
    20
390
1D
100
AcDbLine
 10
-84.12253201513367
 20
-3.877467984866556
 30
0.0
 11
-81.87746798486636
 21
-6.122532015133842
 31
0.0
  0
WIPEOUT
  5
86
330
30
100
AcDbEntity
  8
寸法
  6
STYLE_01
 62
     0
370
    -2
390
1D
 92
      308
310
3401000002000000A80000000B000000C520B072681557C0847F08FE599E5240000000000000000000000000000000000000000000000000000000000000F03F000000000000F03F0000000000000000000000000000000041634462576970656F757400FFFFFFFF000000000000000000000000000000000000F03F000000
310
0000000000000000000000F03F000000000000000000000000000000000000000074787400424947464F4E542E53485800840000000600000005000000C520B072681557C0847F08FE599E52400000000000000000E742D2B09DA754C0847F08FE599E52400000000000000000E742D2B09DA754C0625DE6BF240C55400000
310
000000000000C520B072681557C0625DE6BF240C55400000000000000000C520B072681557C0847F08FE599E52400000000000000000
100
AcDbWipeout
 90
        0
 10
-92.3345
 20
74.47424269513982
 30
0.0
 11
9.7155003229777
 21
0.0
 31
0.0
 12
0.0
 22
9.7155003229777
 32
0.0
 13
1.0
 23
1.0
340
0
 70
     7
280
     1
281
    50
282
    50
283
     0
360
0
 71
     2
 91
        5
 14
0.2973855944071041
 24
1.975167760813386
 14
0.2973855944071041
 24
0.9751677608133859
 14
-0.5
 24
0.9751677608133859
 14
-0.5
 24
1.975167760813386
 14
0.2973855944071041
 24
1.975167760813386
  0
MTEXT
  5
87
330
30
100
AcDbEntity
  8
寸法
 62
     0
390
1D
100
AcDbMText
 10
-90.326560546875
 20
60.14224983851108
 30
0.0
 40
4.024560546875
 41
0.0
 71
     1
 72
     1
  1
140
  7
Calibri (bold)
 11
0.0
 21
1.0
 31
0.0
 73
     1
 44
1.159596784673362
  0
POINT
  5
88
330
30
100
AcDbEntity
  8
Defpoints
 62
     0
370
     0
390
1D
100
AcDbPoint
 10
0.0000000000000142
 20
-5.000000000000199
 30
0.0
  0
POINT
  5
89
330
30
100
AcDbEntity
  8
Defpoints
 62
     0
370
     0
390
1D
100
AcDbPoint
 10
0.0000000000000142
 20
135.0000000000001
 30
0.0
  0
POINT
  5
8A
330
30
100
AcDbEntity
  8
Defpoints
 62
     0
370
     0
390
1D
100
AcDbPoint
 10
-83.00000000000001
 20
135.0000000000001
 30
0.0
  0
ENDBLK
  5
8B
330
30
100
AcDbEntity
  8
寸法
390
1D
100
AcDbBlockEnd
  0
BLOCK
  5
8C
330
31
100
AcDbEntity
  8
一般
390
1D
100
AcDbBlockBegin
  2
グループ-12
 70
     0
 71
     0
 10
0.0
 20
0.0
 30
0.0
  3
グループ-12
  1

  0
CIRCLE
  5
8D
330
31
100
AcDbEntity
  8
一般
  6
Continuous
 62
    20
370
    18
390
1D
100
AcDbCircle
 10
-81.34102165439649
 20
-2.009028797767822
 30
0.0
 40
117.4999999999998
  0
CIRCLE
  5
8E
330
31
100
AcDbEntity
  8
一般
  6
Continuous
 62
    20
370
    18
390
1D
100
AcDbCircle
 10
-121.522782052731
 20
94.9983221159174
 30
0.0
 40
6.000000000000029
  0
CIRCLE
  5
8F
330
31
100
AcDbEntity
  8
一般
  6
Continuous
 62
    20
370
    18
390
1D
100
AcDbCircle
 10
-178.3483725680817
 20
38.17273160056659
 30
0.0
 40
6.000000000000003
  0
CIRCLE
  5
90
330
31
100
AcDbEntity
  8
一般
  6
Continuous
 62
    20
370
    18
390
1D
100
AcDbCircle
 10
-178.3483725680817
 20
-42.19078919610204
 30
0.0
 40
6.000000000000011
  0
CIRCLE
  5
91
330
31
100
AcDbEntity
  8
一般
  6
Continuous
 62
    20
370
    18
390
1D
100
AcDbCircle
 10
-121.5227820527311
 20
-99.01637971145236
 30
0.0
 40
6.000000000000021
  0
CIRCLE
  5
92
330
31
100
AcDbEntity
  8
一般
  6
Continuous
 62
    20
370
    18
390
1D
100
AcDbCircle
 10
-41.15926125606227
 20
-99.01637971145236
 30
0.0
 40
5.999999999999988
  0
CIRCLE
  5
93
330
31
100
AcDbEntity
  8
一般
  6
Continuous
 62
    20
370
    18
390
1D
100
AcDbCircle
 10
15.66632925928855
 20
-42.1907891961021
 30
0.0
 40
6.000000000000022
  0
CIRCLE
  5
94
330
31
100
AcDbEntity
  8
一般
  6
Continuous
 62
    20
370
    18
390
1D
100
AcDbCircle
 10
15.66632925928858
 20
38.17273160056655
 30
0.0
 40
5.999999999999981
  0
CIRCLE
  5
95
330
31
100
AcDbEntity
  8
一般
  6
Continuous
 62
    20
370
    18
390
1D
100
AcDbCircle
 10
-41.15926125606222
 20
94.99832211591739
 30
0.0
 40
6.000000000000033
  0
CIRCLE
  5
96
330
31
100
AcDbEntity
  8
一般
  6
Continuous
 62
    20
370
    18
390
1D
100
AcDbCircle
 10
-81.34102165439649
 20
-2.009028797767822
 30
0.0
 40
70.00000000000013
  0
ENDBLK
  5
97
330
31
100
AcDbEntity
  8
一般
390
1D
100
AcDbBlockEnd
  0
BLOCK
  5
98
330
32
100
AcDbEntity
  8
一般
390
1D
100
AcDbBlockBegin
  2
グループ-13
 70
     0
 71
     0
 10
0.0
 20
0.0
 30
0.0
  3
グループ-13
  1

  0
LINE
  5
99
330
32
100
AcDbEntity
  8
一般
  6
Continuous
 62
    20
370
    18
390
1D
100
AcDbLine
 10
58.6589783456038
 20
67.99097120223207
 30
0.0
 11
58.6589783456038
 21
115.4909712022321
 31
0.0
  0
LINE
  5
9A
330
32
100
AcDbEntity
  8
一般
  6
Continuous
 62
    20
370
    18
390
1D
100
AcDbLine
 10
58.6589783456038
 20
115.4909712022321
 30
0.0
 11
68.6589783456036
 21
115.4909712022321
 31
0.0
  0
LINE
  5
9B
330
32
100
AcDbEntity
  8
一般
  6
Continuous
 62
    20
370
    18
390
1D
100
AcDbLine
 10
68.6589783456036
 20
115.4909712022321
 30
0.0
 11
68.6589783456036
 21
72.99097120223207
 31
0.0
  0
LINE
  5
9C
330
32
100
AcDbEntity
  8
一般
  6
Continuous
 62
    20
370
    18
390
1D
100
AcDbLine
 10
68.6589783456036
 20
72.99097120223207
 30
0.0
 11
198.6589783456032
 21
72.99097120223207
 31
0.0
  0
LINE
  5
9D
330
32
100
AcDbEntity
  8
一般
  6
Continuous
 62
    20
370
    18
390
1D
100
AcDbLine
 10
198.6589783456032
 20
72.99097120223207
 30
0.0
 11
198.6589783456032
 21
67.99097120223207
 31
0.0
  0
LINE
  5
9E
330
32
100
AcDbEntity
  8
一般
  6
Continuous
 62
    20
370
    18
390
1D
100
AcDbLine
 10
198.6589783456032
 20
67.99097120223207
 30
0.0
 11
58.6589783456038
 21
67.99097120223207
 31
0.0
  0
ENDBLK
  5
9F
330
32
100
AcDbEntity
  8
一般
390
1D
100
AcDbBlockEnd
  0
BLOCK
  5
A0
330
33
100
AcDbEntity
  8
一般
390
1D
100
AcDbBlockBegin
  2
グループ-14
 70
     0
 71
     0
 10
0.0
 20
0.0
 30
0.0
  3
グループ-14
  1

  0
LINE
  5
A1
330
33
100
AcDbEntity
  8
一般
  6
Continuous
 62
    20
370
    18
390
1D
100
AcDbLine
 10
58.65897834560381
 20
-72.05902879776778
 30
0.0
 11
58.65897834560381
 21
-119.5590287977677
 31
0.0
  0
LINE
  5
A2
330
33
100
AcDbEntity
  8
一般
  6
Continuous
 62
    20
370
    18
390
1D
100
AcDbLine
 10
58.65897834560381
 20
-119.5590287977677
 30
0.0
 11
68.65897834560361
 21
-119.5590287977677
 31
0.0
  0
LINE
  5
A3
330
33
100
AcDbEntity
  8
一般
  6
Continuous
 62
    20
370
    18
390
1D
100
AcDbLine
 10
68.65897834560361
 20
-119.5590287977677
 30
0.0
 11
68.65897834560361
 21
-77.05902879776772
 31
0.0
  0
LINE
  5
A4
330
33
100
AcDbEntity
  8
一般
  6
Continuous
 62
    20
370
    18
390
1D
100
AcDbLine
 10
68.65897834560361
 20
-77.05902879776772
 30
0.0
 11
198.6589783456032
 21
-77.05902879776772
 31
0.0
  0
LINE
  5
A5
330
33
100
AcDbEntity
  8
一般
  6
Continuous
 62
    20
370
    18
390
1D
100
AcDbLine
 10
198.6589783456032
 20
-77.05902879776772
 30
0.0
 11
198.6589783456032
 21
-72.05902879776778
 31
0.0
  0
LINE
  5
A6
330
33
100
AcDbEntity
  8
一般
  6
Continuous
 62
    20
370
    18
390
1D
100
AcDbLine
 10
198.6589783456032
 20
-72.05902879776778
 30
0.0
 11
58.65897834560381
 21
-72.05902879776778
 31
0.0
  0
ENDBLK
  5
A7
330
33
100
AcDbEntity
  8
一般
390
1D
100
AcDbBlockEnd
  0
BLOCK
  5
A8
330
34
100
AcDbEntity
  8
寸法
390
1D
100
AcDbBlockBegin
  2
*D18
 70
     1
 71
     0
 10
0.0
 20
0.0
 30
0.0
  3
*D18
  1

  0
LINE
  5
A9
330
34
100
AcDbEntity
  8
寸法
  6
Continuous
 62
     0
370
    -2
390
1D
100
AcDbLine
 10
218.6963327090323
 20
-5.050000000000026
 30
0.0
 11
147.2342283137189
 21
-5.050000000000026
 31
0.0
  0
ARC
  5
AA
330
34
100
AcDbEntity
  8
寸法
  6
Continuous
 62
     0
370
    -2
390
1D
100
AcDbCircle
 10
220.2838327090324
 20
-5.050000000000026
 30
0.0
 40
69.87460439531345
100
AcDbArc
 50
90.0
 51
180.0
  0
SOLID
  5
AB
330
34
100
AcDbEntity
  8
寸法
 62
     0
370
    -2
390
1D
100
AcDbTrace
 10
150.4092283137189
 20
-5.050000000000011
 30
0.0
 11
149.6698137768018
 21
-1.847243772248717
 31
0.0
 12
151.3702546546969
 22
-1.906624476180042
 32
0.0
 13
151.3702546546969
 23
-1.906624476180042
 33
0.0
  0
SOLID
  5
AC
330
34
100
AcDbEntity
  8
寸法
 62
     0
370
    -2
390
1D
100
AcDbTrace
 10
220.2838327090324
 20
64.82460439531343
 30
0.0
 11
217.1241637142302
 21
63.91858389052876
 31
0.0
 12
217.0944688395913
 22
65.61980211922135
 32
0.0
 13
217.0944688395913
 23
65.61980211922135
 33
0.0
  0
WIPEOUT
  5
AD
330
34
100
AcDbEntity
  8
寸法
  6
Continuous
 62
     0
370
    -2
390
1D
 92
      308
310
3401000002000000A80000000B0000005E71964DBA5C6240B90A40120EF54740000000000000000000000000000000000000000000000000000000000000F03F000000000000F03F0000000000000000000000000000000041634462576970656F757400FFFFFFFF000000000000000000000000000000000000F03F000000
310
0000000000000000000000F03F000000000000000000000000000000000000000074787400424947464F4E542E534858008400000006000000050000005E71964DBA5C6240B90A40120EF5474000000000000000007C75A7B9D7B46640B90A40120EF5474000000000000000007C75A7B9D7B46640980D42E1C1AA54400000
310
0000000000005E71964DBA5C6240980D42E1C1AA544000000000000000005E71964DBA5C6240B90A40120EF547400000000000000000
100
AcDbWipeout
 90
        0
 10
146.8977420748078
 20
47.91449192168279
 30
0.0
 11
34.7535915691705
 21
0.0
 31
0.0
 12
0.0
 22
34.7535915691705
 32
0.0
 13
1.0
 23
1.0
340
0
 70
     7
280
     1
281
    50
282
    50
283
     0
360
0
 71
     2
 91
        5
 14
-0.1847545254164975
 24
0.9123888268671054
 14
0.4999999999999996
 24
0.2276343014506081
 14
0.1847545254164971
 24
-0.0876111731328945
 14
-0.5
 24
0.5971433522836028
 14
-0.1847545254164975
 24
0.9123888268671054
  0
MTEXT
  5
AE
330
34
100
AcDbEntity
  8
寸法
 62
     0
390
1D
100
AcDbMText
 10
149.7373972818412
 20
41.69875632572502
 30
0.0
 40
8.04912109375
 41
0.0
 71
     1
 72
     1
  1
90.00°
  7
Calibri (bold)
 11
0.7071067811865476
 21
0.7071067811865475
 31
0.0
 73
     1
 44
1.159596784673362
  0
POINT
  5
AF
330
34
100
AcDbEntity
  8
Defpoints
 62
     0
370
     0
390
1D
100
AcDbPoint
 10
140.0000000000003
 20
-5.050000000000026
 30
0.0
  0
POINT
  5
B0
330
34
100
AcDbEntity
  8
Defpoints
 62
     0
370
     0
390
1D
100
AcDbPoint
 10
220.2838327090324
 20
90.00000000000003
 30
0.0
  0
POINT
  5
B1
330
34
100
AcDbEntity
  8
Defpoints
 62
     0
370
     0
390
1D
100
AcDbPoint
 10
220.2838327090324
 20
-5.050000000000026
 30
0.0
  0
ENDBLK
  5
B2
330
34
100
AcDbEntity
  8
寸法
390
1D
100
AcDbBlockEnd
  0
BLOCK
  5
B3
330
35
100
AcDbEntity
  8
寸法
390
1D
100
AcDbBlockBegin
  2
*D19
 70
     1
 71
     0
 10
0.0
 20
0.0
 30
0.0
  3
*D19
  1

  0
LINE
  5
B4
330
35
100
AcDbEntity
  8
寸法
  6
Continuous
 62
     0
370
    -2
390
1D
100
AcDbLine
 10
-1.374815328507779
 20
65.79374999999995
 30
0.0
 11
-38.40155444566201
 21
87.17114779650323
 31
0.0
  0
LINE
  5
B5
330
35
100
AcDbEntity
  8
寸法
  6
Continuous
 62
     0
370
    -2
390
1D
100
AcDbLine
 10
-36.37096894705196
 20
5.178633863196701
 30
0.0
 11
-73.39770806420621
 21
26.55603165969999
 31
0.0
  0
LINE
  5
B6
330
35
100
AcDbEntity
  8
寸法
  6
Continuous
 62
     0
370
    -2
390
1D
100
AcDbLine
 10
-34.85817378864644
 20
86.95846312501101
 30
0.0
 11
-35.65192378864644
 21
85.58364779650321
 31
0.0
  0
LINE
  5
B7
330
35
100
AcDbEntity
  8
寸法
  6
Continuous
 62
     0
370
    -2
390
1D
100
AcDbLine
 10
-70.64807740719063
 20
24.96853165969998
 30
0.0
 11
-71.44182740719064
 21
23.59371633119218
 31
0.0
  0
LINE
  5
B8
330
35
100
AcDbEntity
  8
寸法
  6
Continuous
 62
     0
370
    -2
390
1D
100
AcDbLine
 10
-35.65192378864644
 20
85.58364779650321
 30
0.0
 11
-70.64807740719063
 21
24.96853165969998
 31
0.0
  0
LINE
  5
B9
330
35
100
AcDbEntity
  8
寸法
  6
Continuous
 62
     0
370
    20
390
1D
100
AcDbLine
 10
-35.2410485545462
 20
84.05024054726933
 30
0.0
 11
-36.06279902274669
 21
87.11705504573712
 31
0.0
  0
LINE
  5
BA
330
35
100
AcDbEntity
  8
寸法
  6
Continuous
 62
     0
370
    20
390
1D
100
AcDbLine
 10
-71.03212841645511
 20
26.50887612516312
 30
0.0
 11
-70.26402639792614
 21
23.42818719423683
 31
0.0
  0
WIPEOUT
  5
BB
330
35
100
AcDbEntity
  8
寸法
  6
Continuous
 62
     0
370
    -2
390
1D
 92
      308
310
3401000002000000A80000000B000000653D63EB9DCB51C0F8C908BAB9325040000000000000000000000000000000000000000000000000000000000000F03F000000000000F03F0000000000000000000000000000000041634462576970656F757400FFFFFFFF000000000000000000000000000000000000F03F000000
310
0000000000000000000000F03F000000000000000000000000000000000000000074787400424947464F4E542E53485800840000000600000005000000653D63EB9DCB51C0F8C908BAB932504000000000000000004AF72AFFA5A449C0F8C908BAB932504000000000000000004AF72AFFA5A449C0B88BD6A5042C55400000
310
000000000000653D63EB9DCB51C0B88BD6A5042C55400000000000000000653D63EB9DCB51C0F8C908BAB93250400000000000000000
100
AcDbWipeout
 90
        0
 10
-71.18151364032163
 20
64.7925858579473
 30
0.0
 11
19.89519782155458
 21
0.0
 31
0.0
 12
0.0
 22
19.89519782155458
 32
0.0
 13
1.0
 23
1.0
340
0
 70
     7
280
     1
281
    50
282
    50
283
     0
360
0
 71
     2
 91
        5
 14
0.1744440405462415
 24
1.220374483590275
 14
0.5
 24
0.6564950211095392
 14
-0.1744440405462415
 24
0.2671045727468233
 14
-0.5
 24
0.8309840352275597
 14
0.1744440405462415
 24
1.220374483590275
  0
MTEXT
  5
BC
330
35
100
AcDbEntity
  8
寸法
 62
     0
390
1D
100
AcDbMText
 10
-67.70366048898707
 20
56.1996535481936
 30
0.0
 40
8.04912109375
 41
0.0
 71
     1
 72
     1
  1
70
  7
Calibri (bold)
 11
0.5000000000000043
 21
0.8660254037844362
 31
0.0
 73
     1
 44
1.159596784673362
  0
POINT
  5
BD
330
35
100
AcDbEntity
  8
Defpoints
 62
     0
370
     0
390
1D
100
AcDbPoint
 10
-34.99615361854417
 20
4.384883863196691
 30
0.0
  0
POINT
  5
BE
330
35
100
AcDbEntity
  8
Defpoints
 62
     0
370
     0
390
1D
100
AcDbPoint
 10
0.0000000000000142
 20
64.99999999999993
 30
0.0
  0
POINT
  5
BF
330
35
100
AcDbEntity
  8
Defpoints
 62
     0
370
     0
390
1D
100
AcDbPoint
 10
-35.65192378864644
 20
85.58364779650321
 30
0.0
  0
ENDBLK
  5
C0
330
35
100
AcDbEntity
  8
寸法
390
1D
100
AcDbBlockEnd
  0
ENDSEC
  0
SECTION
  2
ENTITIES
  0
POLYLINE
  5
C1
330
A
100
AcDbEntity
  8
一般
  6
Continuous
 62
     7
370
    18
390
1D
100
AcDb2dPolyline
 66
     1
 10
0.0
 20
0.0
 30
0.0
 70
     1
 75
     5
  0
VERTEX
  5
C2
330
C1
100
AcDbEntity
  8
一般
  6
Continuous
 62
     7
370
    18
390
1D
100
AcDbVertex
100
AcDb2dVertex
 10
177.2480691082137
 20
30.85898384862225
 30
0.0
  0
VERTEX
  5
C3
330
C1
100
AcDbEntity
  8
一般
  6
Continuous
 62
     7
370
    18
390
1D
100
AcDbVertex
100
AcDb2dVertex
 10
277.2480691082139
 20
30.85898384862225
 30
0.0
  0
VERTEX
  5
C4
330
C1
100
AcDbEntity
  8
一般
  6
Continuous
 62
     7
370
    18
390
1D
100
AcDbVertex
100
AcDb2dVertex
 10
277.2480691082139
 20
4.878221735089134
 30
0.0
  0
VERTEX
  5
C5
330
C1
100
AcDbEntity
  8
一般
  6
Continuous
 62
     7
370
    18
390
1D
100
AcDbVertex
100
AcDb2dVertex
 10
177.2480691082137
 20
4.878221735089134
 30
0.0
  0
SEQEND
  5
C6
330
C1
100
AcDbEntity
  8
一般
  6
Continuous
 62
     7
370
    18
390
1D
  0
CIRCLE
  5
C8
102
{ACAD_REACTORS
330
C9
102
}
330
A
100
AcDbEntity
  8
一般
  6
Continuous
 62
     7
370
    18
390
1D
100
AcDbCircle
 10
0.0000000000000142
 20
64.99999999999993
 30
0.0
 40
15.00000000000013
  0
HATCH
  5
C9
330
A
100
AcDbEntity
  8
一般
  6
Continuous
 62
   254
370
     0
390
1D
100
AcDbHatch
 10
0.0
 20
0.0
 30
0.0
210
0.0
220
0.0
230
1.0
  2
SOLID
 70
     1
 71
     1
 91
        1
 92
        1
 93
        1
 72
     2
 10
0.0000000000000142
 20
64.99999999999993
 40
15.00000000000013
 50
0.0
 51
360.0
 73
     0
 97
        1
330
C8
 75
     0
 76
     1
 98
        1
 10
0.0
 20
0.0
  0
ARC
  5
CA
330
A
100
AcDbEntity
  8
一般
  6
Continuous
 62
     7
370
    18
390
1D
100
AcDbCircle
 10
0.0000000000000142
 20
64.99999999999993
 30
0.0
 40
24.99999999999971
100
AcDbArc
 50
310.0
 51
229.9999999999994
  0
ARC
  5
CB
330
A
100
AcDbEntity
  8
一般
  6
Continuous
 62
     7
370
    18
390
1D
100
AcDbCircle
 10
0.0000000000000142
 20
64.99999999999993
 30
0.0
 40
65.00000000000004
100
AcDbArc
 50
240.8815083068058
 51
299.1184916931939
  0
LINE
  5
CC
330
A
100
AcDbEntity
  8
一般
  6
Continuous
 62
     7
370
    18
390
1D
100
AcDbLine
 10
-16.06969024216356
 20
45.84888892202575
 30
0.0
 11
-41.78119462962543
 21
15.20711119726654
 31
0.0
  0
LINE
  5
CD
330
A
100
AcDbEntity
  8
一般
  6
Continuous
 62
     7
370
    18
390
1D
100
AcDbLine
 10
16.06969024216335
 20
45.84888892202565
 30
0.0
 11
41.78119462962454
 21
15.20711119726633
 31
0.0
  0
LINE
  5
CE
330
A
100
AcDbEntity
  8
一般
  6
Continuous
 62
     7
370
    18
390
1D
100
AcDbLine
 10
-33.36217902232859
 20
9.21501088211889
 30
0.0
 11
-28.36217902232859
 21
17.8752649199632
 31
0.0
  0
LINE
  5
CF
330
A
100
AcDbEntity
  8
一般
  6
Continuous
 62
     7
370
    18
390
1D
100
AcDbLine
 10
-31.63012821475975
 20
8.215010882118818
 30
0.0
 11
-26.63012821475975
 21
16.87526491996314
 31
0.0
  0
LINE
  5
D0
330
A
100
AcDbEntity
  8
一般
  6
STYLE_01
 62
     7
370
    18
390
1D
100
AcDbLine
 10
-28.36217902232859
 20
17.8752649199632
 30
0.0
 11
-26.63012821475975
 21
16.87526491996314
 31
0.0
  0
LINE
  5
D1
330
A
100
AcDbEntity
  8
一般
  6
Continuous
 62
     7
370
    18
390
1D
100
AcDbLine
 10
26.63012821475928
 20
16.87526491996316
 30
0.0
 11
31.63012821475917
 21
8.215010882118847
 31
0.0
  0
LINE
  5
D2
330
A
100
AcDbEntity
  8
一般
  6
Continuous
 62
     7
370
    18
390
1D
100
AcDbLine
 10
28.36217902232814
 20
17.87526491996316
 30
0.0
 11
33.36217902232803
 21
9.215010882118847
 31
0.0
  0
LINE
  5
D3
330
A
100
AcDbEntity
  8
一般
  6
STYLE_01
 62
     7
370
    18
390
1D
100
AcDbLine
 10
26.63012821475928
 20
16.87526491996316
 30
0.0
 11
28.36217902232814
 21
17.87526491996316
 31
0.0
  0
ARC
  5
D4
330
A
100
AcDbEntity
  8
一般
  6
Continuous
 62
     7
370
    18
390
1D
100
AcDbCircle
 10
0.0000000000000142
 20
64.99999999999993
 30
0.0
 40
64.9999999999998
100
AcDbArc
 50
300.8815083068058
 51
309.9999999999997
  0
ARC
  5
D5
330
A
100
AcDbEntity
  8
一般
  6
Continuous
 62
     7
370
    18
390
1D
100
AcDbCircle
 10
0.0000000000000142
 20
64.99999999999993
 30
0.0
 40
65.00000000000011
100
AcDbArc
 50
229.9999999999997
 51
239.1184916931938
  0
INSERT
  5
D6
330
A
100
AcDbEntity
  8
一般
 62
     7
390
1D
100
AcDbBlockReference
  2
グループ-1
 10
81.3410216543965
 20
67.00902879776775
 30
0.0
  0
INSERT
  5
D7
330
A
100
AcDbEntity
  8
一般
 62
     7
390
1D
100
AcDbBlockReference
  2
グループ-3
 10
81.3410216543965
 20
67.00902879776775
 30
0.0
  0
INSERT
  5
D8
330
A
100
AcDbEntity
  8
一般
 62
     7
390
1D
100
AcDbBlockReference
  2
グループ-5
 10
81.3410216543965
 20
67.00902879776775
 30
0.0
  0
INSERT
  5
D9
330
A
100
AcDbEntity
  8
一般
 62
     7
390
1D
100
AcDbBlockReference
  2
グループ-7
 10
81.3410216543965
 20
67.00902879776775
 30
0.0
  0
POLYLINE
  5
DA
330
A
100
AcDbEntity
  8
一般
  6
Continuous
 62
     7
370
    18
390
1D
100
AcDb2dPolyline
 66
     1
 10
0.0
 20
0.0
 30
0.0
 70
     1
 75
     5
  0
VERTEX
  5
DB
330
DA
100
AcDbEntity
  8
一般
  6
Continuous
 62
     7
370
    18
390
1D
100
AcDbVertex
100
AcDb2dVertex
 10
-35.8621790223286
 20
4.884883863196698
 30
0.0
  0
VERTEX
  5
DC
330
DA
100
AcDbEntity
  8
一般
  6
Continuous
 62
     7
370
    18
390
1D
100
AcDbVertex
100
AcDb2dVertex
 10
-20.8621790223286
 20
30.86564597672981
 30
0.0
  0
VERTEX
  5
DD
330
DA
100
AcDbEntity
  8
一般
  6
Continuous
 62
     7
370
    18
390
1D
100
AcDbVertex
100
AcDb2dVertex
 10
-19.13012821475972
 20
29.86564597672979
 30
0.0
  0
VERTEX
  5
DE
330
DA
100
AcDbEntity
  8
一般
  6
Continuous
 62
     7
370
    18
390
1D
100
AcDbVertex
100
AcDb2dVertex
 10
-34.13012821475972
 20
3.884883863196691
 30
0.0
  0
SEQEND
  5
DF
330
DA
100
AcDbEntity
  8
一般
  6
Continuous
 62
     7
370
    18
390
1D
  0
POLYLINE
  5
E1
330
A
100
AcDbEntity
  8
一般
  6
Continuous
 62
     7
370
    18
390
1D
100
AcDb2dPolyline
 66
     1
 10
0.0
 20
0.0
 30
0.0
 70
     1
 75
     5
  0
VERTEX
  5
E2
330
E1
100
AcDbEntity
  8
一般
  6
Continuous
 62
     7
370
    18
390
1D
100
AcDbVertex
100
AcDb2dVertex
 10
20.86602540378448
 20
30.85898384862225
 30
0.0
  0
VERTEX
  5
E3
330
E1
100
AcDbEntity
  8
一般
  6
Continuous
 62
     7
370
    18
390
1D
100
AcDbVertex
100
AcDb2dVertex
 10
35.86602540378438
 20
4.878221735089134
 30
0.0
  0
VERTEX
  5
E4
330
E1
100
AcDbEntity
  8
一般
  6
Continuous
 62
     7
370
    18
390
1D
100
AcDbVertex
100
AcDb2dVertex
 10
34.13397459621551
 20
3.878221735089141
 30
0.0
  0
VERTEX
  5
E5
330
E1
100
AcDbEntity
  8
一般
  6
Continuous
 62
     7
370
    18
390
1D
100
AcDbVertex
100
AcDb2dVertex
 10
19.1339745962156
 20
29.85898384862224
 30
0.0
  0
SEQEND
  5
E6
330
E1
100
AcDbEntity
  8
一般
  6
Continuous
 62
     7
370
    18
390
1D
  0
WIPEOUT
  5
E8
330
A
100
AcDbEntity
  8
一般
  6
Continuous
 62
     7
370
    18
390
1D
 92
      308
310
3401000002000000A80000000B000000885A552815896B40C073BBF7FAA92C40000000000000000000000000000000000000000000000000000000000000F03F000000000000F03F0000000000000000000000000000000041634462576970656F757400FFFFFFFF000000000000000000000000000000000000F03F000000
310
0000000000000000000000F03F000000000000000000000000000000000000000074787400424947464F4E542E53485800840000000600000005000000885A552815896B40C073BBF7FAA92C40000000000000000044AD2A948A647340C073BBF7FAA92C40000000000000000044AD2A948A6473407A6EF75E3F155A400000
310
000000000000885A552815896B407A6EF75E3F155A400000000000000000885A552815896B40C073BBF7FAA92C400000000000000000
100
AcDbWipeout
 90
        0
 10
220.2838327090324
 20
14.33199285662874
 30
0.0
 11
90.00000000000003
 21
0.0
 31
0.0
 12
0.0
 22
90.00000000000003
 32
0.0
 13
1.0
 23
1.0
340
0
 70
     7
280
     1
281
    50
282
    50
283
     0
360
0
 71
     2
 91
        5
 14
-0.5
 24
-0.3407556349263473
 14
-0.4777777777777778
 24
-0.3407556349263473
 14
-0.4777777777777778
 24
0.6592443650736527
 14
-0.5
 24
0.6592443650736527
 14
-0.5
 24
-0.3407556349263473
  0
POLYLINE
  5
E9
330
A
100
AcDbEntity
  8
一般
  6
Continuous
 62
     7
370
    18
390
1D
100
AcDb2dPolyline
 66
     1
 10
0.0
 20
0.0
 30
0.0
 70
     1
 75
     5
  0
VERTEX
  5
EA
330
E9
100
AcDbEntity
  8
一般
  6
Continuous
 62
     7
370
    18
390
1D
100
AcDbVertex
100
AcDb2dVertex
 10
220.2838327090324
 20
90.00000000000003
 30
0.0
  0
VERTEX
  5
EB
330
E9
100
AcDbEntity
  8
一般
  6
Continuous
 62
     7
370
    18
390
1D
100
AcDbVertex
100
AcDb2dVertex
 10
222.2838327090324
 20
90.00000000000003
 30
0.0
  0
VERTEX
  5
EC
330
E9
100
AcDbEntity
  8
一般
  6
Continuous
 62
     7
370
    18
390
1D
100
AcDbVertex
100
AcDb2dVertex
 10
222.2838327090324
 20
0.0
 30
0.0
  0
VERTEX
  5
ED
330
E9
100
AcDbEntity
  8
一般
  6
Continuous
 62
     7
370
    18
390
1D
100
AcDbVertex
100
AcDb2dVertex
 10
220.2838327090324
 20
0.0
 30
0.0
  0
SEQEND
  5
EE
330
E9
100
AcDbEntity
  8
一般
  6
Continuous
 62
     7
370
    18
390
1D
  0
WIPEOUT
  5
F0
330
A
100
AcDbEntity
  8
一般
  6
Continuous
 62
     7
370
    18
390
1D
 92
      308
310
3401000002000000A80000000B000000885A552815496E40C073BBF7FAA92C40000000000000000000000000000000000000000000000000000000000000F03F000000000000F03F0000000000000000000000000000000041634462576970656F757400FFFFFFFF000000000000000000000000000000000000F03F000000
310
0000000000000000000000F03F000000000000000000000000000000000000000074787400424947464F4E542E53485800840000000600000005000000885A552815496E40C073BBF7FAA92C40000000000000000044AD2A948AC47440C073BBF7FAA92C40000000000000000044AD2A948AC474407A6EF75E3F155A400000
310
000000000000885A552815496E407A6EF75E3F155A400000000000000000885A552815496E40C073BBF7FAA92C400000000000000000
100
AcDbWipeout
 90
        0
 10
242.2838327090324
 20
14.33199285662874
 30
0.0
 11
90.00000000000003
 21
0.0
 31
0.0
 12
0.0
 22
90.00000000000003
 32
0.0
 13
1.0
 23
1.0
340
0
 70
     7
280
     1
281
    50
282
    50
283
     0
360
0
 71
     2
 91
        5
 14
-0.5
 24
-0.3407556349263473
 14
-0.4888888888888889
 24
-0.3407556349263473
 14
-0.4888888888888889
 24
0.6592443650736527
 14
-0.5
 24
0.6592443650736527
 14
-0.5
 24
-0.3407556349263473
  0
POLYLINE
  5
F1
330
A
100
AcDbEntity
  8
一般
  6
Continuous
 62
     7
370
    18
390
1D
100
AcDb2dPolyline
 66
     1
 10
0.0
 20
0.0
 30
0.0
 70
     1
 75
     5
  0
VERTEX
  5
F2
330
F1
100
AcDbEntity
  8
一般
  6
Continuous
 62
     7
370
    18
390
1D
100
AcDbVertex
100
AcDb2dVertex
 10
242.2838327090324
 20
90.00000000000003
 30
0.0
  0
VERTEX
  5
F3
330
F1
100
AcDbEntity
  8
一般
  6
Continuous
 62
     7
370
    18
390
1D
100
AcDbVertex
100
AcDb2dVertex
 10
243.2838327090324
 20
90.00000000000003
 30
0.0
  0
VERTEX
  5
F4
330
F1
100
AcDbEntity
  8
一般
  6
Continuous
 62
     7
370
    18
390
1D
100
AcDbVertex
100
AcDb2dVertex
 10
243.2838327090324
 20
0.0
 30
0.0
  0
VERTEX
  5
F5
330
F1
100
AcDbEntity
  8
一般
  6
Continuous
 62
     7
370
    18
390
1D
100
AcDbVertex
100
AcDb2dVertex
 10
242.2838327090324
 20
0.0
 30
0.0
  0
SEQEND
  5
F6
330
F1
100
AcDbEntity
  8
一般
  6
Continuous
 62
     7
370
    18
390
1D
  0
POLYLINE
  5
F8
102
{ACAD_REACTORS
330
FF
102
}
330
A
100
AcDbEntity
  8
一般
  6
Continuous
 62
     7
370
    18
390
1D
100
AcDb2dPolyline
 66
     1
 10
0.0
 20
0.0
 30
0.0
 70
     1
 75
     5
  0
VERTEX
  5
F9
330
F8
100
AcDbEntity
  8
一般
  6
Continuous
 62
     7
370
    18
390
1D
100
AcDbVertex
100
AcDb2dVertex
 10
222.2838327090324
 20
82.5
 30
0.0
  0
VERTEX
  5
FA
330
F8
100
AcDbEntity
  8
一般
  6
Continuous
 62
     7
370
    18
390
1D
100
AcDbVertex
100
AcDb2dVertex
 10
242.2838327090323
 20
82.5
 30
0.0
  0
VERTEX
  5
FB
330
F8
100
AcDbEntity
  8
一般
  6
Continuous
 62
     7
370
    18
390
1D
100
AcDbVertex
100
AcDb2dVertex
 10
242.2838327090323
 20
47.49999999999997
 30
0.0
  0
VERTEX
  5
FC
330
F8
100
AcDbEntity
  8
一般
  6
Continuous
 62
     7
370
    18
390
1D
100
AcDbVertex
100
AcDb2dVertex
 10
222.2838327090324
 20
47.49999999999997
 30
0.0
  0
SEQEND
  5
FD
330
F8
100
AcDbEntity
  8
一般
  6
Continuous
 62
     7
370
    18
390
1D
  0
HATCH
  5
FF
330
A
100
AcDbEntity
  8
一般
  6
Continuous
 62
   254
370
     0
390
1D
100
AcDbHatch
 10
0.0
 20
0.0
 30
0.0
210
0.0
220
0.0
230
1.0
  2
SOLID
 70
     1
 71
     1
 91
        1
 92
        1
 93
        4
 72
     1
 10
222.2838327090324
 20
82.5
 11
242.2838327090323
 21
82.5
 72
     1
 10
242.2838327090323
 20
82.5
 11
242.2838327090323
 21
47.49999999999997
 72
     1
 10
242.2838327090323
 20
47.49999999999997
 11
222.2838327090324
 21
47.49999999999997
 72
     1
 10
222.2838327090324
 20
47.49999999999997
 11
222.2838327090324
 21
82.5
 97
        1
330
F8
 75
     0
 76
     1
 98
        1
 10
0.0
 20
0.0
  0
LINE
  5
100
330
A
100
AcDbEntity
  8
一般
  6
Continuous
 62
     7
370
    18
390
1D
100
AcDbLine
 10
220.2838327090324
 20
9.215010882118847
 30
0.0
 11
222.2838327090324
 21
9.215010882118847
 31
0.0
  0
LINE
  5
101
330
A
100
AcDbEntity
  8
一般
  6
Continuous
 62
     7
370
    18
390
1D
100
AcDbLine
 10
220.2838327090324
 20
4.878221735089134
 30
0.0
 11
222.2838327090324
 21
4.878221735089134
 31
0.0
  0
LINE
  5
102
330
A
100
AcDbEntity
  8
一般
  6
STYLE_01
 62
     7
370
    18
390
1D
100
AcDbLine
 10
35.86602540378438
 20
4.878221735089134
 30
0.0
 11
177.0819110986712
 21
4.878221735089134
 31
0.0
  0
LINE
  5
103
330
A
100
AcDbEntity
  8
一般
  6
STYLE_01
 62
     7
370
    18
390
1D
100
AcDbLine
 10
20.86602540378448
 20
30.85898384862225
 30
0.0
 11
177.0819110986712
 21
30.85898384862225
 31
0.0
  0
LINE
  5
104
330
A
100
AcDbEntity
  8
一般
  6
STYLE_01
 62
     7
370
    18
390
1D
100
AcDbLine
 10
33.36217902232803
 20
9.215010882118847
 30
0.0
 11
242.2838327090324
 21
9.215010882118847
 31
0.0
  0
LINE
  5
105
330
A
100
AcDbEntity
  8
一般
  6
STYLE_01
 62
     7
370
    18
390
1D
100
AcDbLine
 10
0.0
 20
0.0
 30
0.0
 11
242.2838327090324
 21
0.0
 31
0.0
  0
LINE
  5
106
330
A
100
AcDbEntity
  8
一般
  6
Continuous
 62
     7
370
    18
390
1D
100
AcDbLine
 10
242.2838327090324
 20
9.215010882118847
 30
0.0
 11
243.2838327090324
 21
9.215010882118847
 31
0.0
  0
CIRCLE
  5
107
330
A
100
AcDbEntity
  8
一般
  6
STYLE_06
 62
     5
370
    50
390
1D
100
AcDbCircle
 10
16.06969024216335
 20
45.84888892202565
 30
0.0
 40
4.999999999999998
  0
CIRCLE
  5
108
330
A
100
AcDbEntity
  8
一般
  6
STYLE_06
 62
     5
370
    50
390
1D
100
AcDbCircle
 10
41.78119462962454
 20
15.20711119726633
 30
0.0
 40
4.999999999999998
  0
CIRCLE
  5
109
330
A
100
AcDbEntity
  8
一般
  6
STYLE_06
 62
     5
370
    50
390
1D
100
AcDbCircle
 10
-16.06969024216362
 20
45.84888892202569
 30
0.0
 40
4.999999999999992
  0
CIRCLE
  5
10A
330
A
100
AcDbEntity
  8
一般
  6
STYLE_06
 62
     5
370
    50
390
1D
100
AcDbCircle
 10
-41.78119462962543
 20
15.20711119726654
 30
0.0
 40
4.999999999999992
  0
MTEXT
  5
10B
330
A
100
AcDbEntity
  8
一般
 62
     5
390
1D
100
AcDbMText
 10
74.9925785755696
 20
83.1801450370599
 30
0.0
 40
6.260427517361111
 41
0.0
 71
     1
 72
     1
  1
Ｒ加工可
  7
Calibri (bold)
 73
     1
 44
1.159596784673362
  0
LINE
  5
10C
330
A
100
AcDbEntity
  8
一般
  6
STYLE_06
 62
     5
370
    50
390
1D
100
AcDbLine
 10
21.06969024216335
 20
45.84888892202565
 30
0.0
 11
73.00000000000001
 21
78.99999999999993
 31
0.0
  0
LINE
  5
10D
330
A
100
AcDbEntity
  8
一般
  6
STYLE_06
 62
     5
370
    50
390
1D
100
AcDbLine
 10
41.78119462962454
 20
20.20711119726633
 30
0.0
 11
73.00000000000001
 21
78.99999999999993
 31
0.0
  0
INSERT
  5
10E
330
A
100
AcDbEntity
  8
一般
 62
     7
390
1D
100
AcDbBlockReference
  2
グループ-9
 10
81.3410216543965
 20
67.00902879776775
 30
0.0
  0
INSERT
  5
10F
330
A
100
AcDbEntity
  8
一般
 62
     7
390
1D
100
AcDbBlockReference
  2
グループ-11
 10
81.3410216543965
 20
67.00902879776775
 30
0.0
  0
DIMENSION
  5
110
330
A
100
AcDbEntity
  8
寸法
  6
STYLE_01
 62
     1
370
    18
390
1D
100
AcDbDimension
  2
*D14
 10
-83.00000000000001
 20
135.0000000000001
 30
0.0
 11
-83.00000000000001
 21
64.99999999999993
 31
0.0
 70
    32
 71
     5
 42
-1.0
  3
Arch
100
AcDbAlignedDimension
 13
0.0000000000000142
 23
-5.000000000000199
 33
0.0
 14
0.0000000000000142
 24
135.0000000000001
 34
0.0
 50
90.0
100
AcDbRotatedDimension
1001
ACAD
1000
DSTYLE
1002
{
1070
   279
1070
     2
1070
   340
1005
36
1002
}
  0
INSERT
  5
111
330
A
100
AcDbEntity
  8
一般
 62
    20
390
1D
100
AcDbBlockReference
  2
グループ-12
 10
81.3410216543965
 20
67.00902879776775
 30
0.0
  0
INSERT
  5
112
330
A
100
AcDbEntity
  8
一般
 62
    20
390
1D
100
AcDbBlockReference
  2
グループ-13
 10
81.3410216543965
 20
67.00902879776775
 30
0.0
  0
INSERT
  5
113
330
A
100
AcDbEntity
  8
一般
 62
    20
390
1D
100
AcDbBlockReference
  2
グループ-14
 10
81.3410216543965
 20
67.00902879776775
 30
0.0
  0
DIMENSION
  5
114
330
A
100
AcDbEntity
  8
寸法
  6
Continuous
 62
     5
370
    18
390
1D
100
AcDbDimension
  2
*D18
 10
170.8750261083789
 20
44.35880660065345
 30
0.0
 11
169.7524940932452
 21
45.4813386157871
 31
0.0
 70
   133
 71
     5
 42
-1.0
  3
Arch
100
AcDb3PointAngularDimension
 13
140.0000000000003
 23
-5.050000000000026
 33
0.0
 14
220.2838327090324
 24
90.00000000000003
 34
0.0
 15
220.2838327090324
 25
-5.050000000000026
 35
0.0
1001
ACAD
1000
DSTYLE
1002
{
1070
   279
1070
     2
1070
   342
1005
49
1070
   340
1005
36
1070
   140
1040
8.04912109375
1070
     3
1000
<> 
1002
}
  0
MTEXT
  5
115
330
A
100
AcDbEntity
  8
一般
 62
     1
390
1D
100
AcDbMText
 10
-113.6838033418902
 20
203.160264933378
 30
0.0
 40
6.260427517361111
 41
0.0
 71
     1
 72
     1
  1
{\C7;\lF. TargetFrame}
  7
Calibri (bold)
 73
     1
 44
1.159596784673362
  0
MTEXT
  5
116
330
A
100
AcDbEntity
  8
一般
 62
     1
390
1D
100
AcDbMText
 10
-115.0177512380812
 20
172.8655605468749
 30
0.0
 40
4.024560546875
 41
0.0
 71
     1
 72
     1
  1
{\C7;\l＜　前　＞}
  7
Calibri (bold)
 73
     1
 44
1.159596784673362
  0
MTEXT
  5
117
330
A
100
AcDbEntity
  8
一般
 62
     1
390
1D
100
AcDbMText
 10
106.2351969049696
 20
172.8655605468749
 30
0.0
 40
4.024560546875
 41
0.0
 71
     1
 72
     1
  1
{\C7;\l＜　横　＞}
  7
Calibri (bold)
 73
     1
 44
1.159596784673362
  0
DIMENSION
  5
118
330
A
100
AcDbEntity
  8
寸法
  6
Continuous
 62
     5
370
    18
390
1D
100
AcDbDimension
  2
*D19
 10
-35.65192378864644
 20
85.58364779650321
 30
0.0
 11
-53.15000059791855
 21
55.2760897281016
 31
0.0
 70
     1
 71
     5
 42
-1.0
  3
Arch
100
AcDbAlignedDimension
 13
-34.99615361854417
 23
4.384883863196691
 33
0.0
 14
0.0000000000000142
 24
64.99999999999993
 34
0.0
1001
ACAD
1000
DSTYLE
1002
{
1070
   279
1070
     2
1070
   340
1005
36
1070
   140
1040
8.04912109375
1002
}
  0
MTEXT
  5
119
330
A
100
AcDbEntity
  8
一般
 62
     7
390
1D
100
AcDbMText
 10
142.8735
 20
116.7491389726476
 30
0.0
 40
4.024560546875
 41
0.0
 71
     1
 72
     1
  1
サポートフレーム①
  7
Calibri (bold)
 73
     1
 44
1.159596784673362
  0
MTEXT
  5
11A
330
A
100
AcDbEntity
  8
一般
 62
     7
390
1D
100
AcDbMText
 10
237.7559071605438
 20
116.8655605468749
 30
0.0
 40
4.024560546875
 41
0.0
 71
     1
 72
     1
  1
サポートフレーム②
  7
Calibri (bold)
 73
     1
 44
1.159596784673362
  0
MTEXT
  5
11B
330
A
100
AcDbEntity
  8
一般
 62
     7
390
1D
100
AcDbMText
 10
232.0127493540446
 20
-23.13443945312507
 30
0.0
 40
4.024560546875
 41
0.0
 71
     1
 72
     1
  1
サポートフレーム③
  7
Calibri (bold)
 73
     1
 44
1.159596784673362
  0
LINE
  5
11C
330
A
100
AcDbEntity
  8
一般
  6
STYLE_06
 62
     7
370
    18
390
1D
100
AcDbLine
 10
192.8480012919108
 20
111.0100784257726
 30
0.0
 11
220.2838327090324
 21
90.00000000000003
 31
0.0
  0
LINE
  5
11D
330
A
100
AcDbEntity
  8
一般
  6
STYLE_06
 62
     7
370
    18
390
1D
100
AcDbLine
 10
260.0
 20
108.9999999999999
 30
0.0
 11
243.2838327090324
 21
90.00000000000003
 31
0.0
  0
LINE
  5
11E
330
A
100
AcDbEntity
  8
一般
  6
STYLE_06
 62
     7
370
    18
390
1D
100
AcDbLine
 10
252.0
 20
-18.00000000000007
 30
0.0
 11
265.2087474773337
 21
4.878221735089134
 31
0.0
  0
ENDSEC
  0
SECTION
  2
OBJECTS
  0
DICTIONARY
  5
19
330
0
100
AcDbDictionary
281
     1
  3
ACAD_GROUP
350
1A
  3
ACAD_LAYOUT
350
1E
  3
ACAD_MLINESTYLE
350
1B
  3
ACAD_PLOTSETTINGS
350
22
  3
ACAD_PLOTSTYLENAME
350
1F
  3
ACAD_WIPEOUT_VARS
350
23
  0
DICTIONARY
  5
1A
102
{ACAD_REACTORS
330
19
102
}
330
19
100
AcDbDictionary
281
     1
  0
DICTIONARY
  5
1E
102
{ACAD_REACTORS
330
19
102
}
330
19
100
AcDbDictionary
281
     1
  3
Layout1
350
21
  3
Model
350
20
  0
DICTIONARY
  5
1B
102
{ACAD_REACTORS
330
19
102
}
330
19
100
AcDbDictionary
281
     1
  3
Standard
350
1C
  0
DICTIONARY
  5
22
102
{ACAD_REACTORS
330
19
102
}
330
19
100
AcDbDictionary
281
     1
  0
ACDBDICTIONARYWDFLT
  5
1F
102
{ACAD_REACTORS
330
19
102
}
330
19
100
AcDbDictionary
281
     1
  3
Normal
350
1D
100
AcDbDictionaryWithDefault
340
1D
  0
WIPEOUTVARIABLES
  5
23
330
19
100
AcDbWipeoutVariables
 70
     0
  0
LAYOUT
  5
21
102
{ACAD_REACTORS
330
1E
102
}
330
1E
100
AcDbPlotSettings
  1

  2

  4

  6

 40
0.0
 41
0.0
 42
0.0
 43
0.0
 44
0.0
 45
0.0
 46
0.0
 47
0.0
 48
0.0
 49
0.0
140
0.0
141
0.0
142
1.0
143
1.0
 70
     0
 72
     0
 73
     0
 74
     0
  7

 75
     0
 76
     0
 77
     2
 78
   300
147
1.0
148
0.0
149
0.0
100
AcDbLayout
  1
Layout1
 70
     0
 71
     0
 10
0.0
 20
0.0
 11
0.0
 21
0.0
 12
0.0
 22
0.0
 32
0.0
 14
0.0
 24
0.0
 34
0.0
 15
0.0
 25
0.0
 35
0.0
146
0.0
 13
0.0
 23
0.0
 33
0.0
 16
0.0
 26
0.0
 36
0.0
 17
0.0
 27
0.0
 37
0.0
 76
     0
330
B
  0
LAYOUT
  5
20
102
{ACAD_REACTORS
330
1E
102
}
330
1E
100
AcDbPlotSettings
  1

  2

  4

  6

 40
0.0
 41
0.0
 42
0.0
 43
0.0
 44
0.0
 45
0.0
 46
0.0
 47
0.0
 48
0.0
 49
0.0
140
0.0
141
0.0
142
1.0
143
1.0
 70
  1024
 72
     0
 73
     0
 74
     0
  7

 75
     0
 76
     0
 77
     2
 78
   300
147
1.0
148
0.0
149
0.0
100
AcDbLayout
  1
Model
 70
     0
 71
     0
 10
0.0
 20
0.0
 11
0.0
 21
0.0
 12
0.0
 22
0.0
 32
0.0
 14
0.0
 24
0.0
 34
0.0
 15
0.0
 25
0.0
 35
0.0
146
0.0
 13
0.0
 23
0.0
 33
0.0
 16
0.0
 26
0.0
 36
0.0
 17
0.0
 27
0.0
 37
0.0
 76
     0
330
A
  0
MLINESTYLE
  5
1C
102
{ACAD_REACTORS
330
1B
102
}
330
1B
100
AcDbMlineStyle
  2
Standard
 70
     0
  3

 62
     0
 51
90.0
 52
90.0
 71
     2
 49
0.5
 62
   256
  6
BYLAYER
 49
-0.5
 62
   256
  6
BYLAYER
  0
ACDBPLACEHOLDER
  5
1D
102
{ACAD_REACTORS
330
1F
102
}
330
1F
  0
ENDSEC
  0
EOF
