  0
SECTION
  2
HEADER
  9
$ACADVER
  1
AC1018
  9
$ACADMAINTVER
 70
     0
  9
$DWGCODEPAGE
  3
ANSI_932
  9
$INSBASE
 10
0.0
 20
0.0
 30
0.0
  9
$EXTMIN
 10
-328.9983199999999
 20
-623.99932
 30
-8.400203333333332
  9
$EXTMAX
 10
1350.99832
 20
563.99932
 30
8.400203333333332
  9
$LIMMIN
 10
0.0
 20
0.0
  9
$LIMMAX
 10
0.0
 20
0.0
  9
$ORTHOMODE
 70
     0
  9
$REGENMODE
 70
     1
  9
$FILLMODE
 70
     1
  9
$QTEXTMODE
 70
     0
  9
$MIRRTEXT
 70
     1
  9
$LTSCALE
 40
20.32
  9
$ATTMODE
 70
     1
  9
$TEXTSIZE
 40
0.2
  9
$TRACEWID
 40
1.0
  9
$TEXTSTYLE
  7
Standard
  9
$CLAYER
  8
一般
  9
$CELTYPE
  6
Continuous
  9
$CECOLOR
 62
   256
  9
$CELTSCALE
 40
1.0
  9
$DISPSILH
 70
     0
  9
$DIMSCALE
 40
1.0
  9
$DIMASZ
 40
8.979296875
  9
$DIMEXO
 40
6.35
  9
$DIMDLI
 40
10.16
  9
$DIMRND
 40
0.0
  9
$DIMDLE
 40
1.5875
  9
$DIMEXE
 40
12.7
  9
$DIMTP
 40
0.0
  9
$DIMTM
 40
0.0
  9
$DIMTXT
 40
16.0982421875
  9
$DIMCEN
 40
0.0
  9
$DIMTSZ
 40
0.0
  9
$DIMTOL
 70
     0
  9
$DIMLIM
 70
     0
  9
$DIMTIH
 70
     0
  9
$DIMTOH
 70
     0
  9
$DIMSE1
 70
     0
  9
$DIMSE2
 70
     0
  9
$DIMTAD
 70
     1
  9
$DIMZIN
 70
    11
  9
$DIMBLK
  1
VW_SLASH
  9
$DIMASO
 70
     1
  9
$DIMSHO
 70
     1
  9
$DIMPOST
  1
<>
  9
$DIMAPOST
  1
[]
  9
$DIMALT
 70
     0
  9
$DIMALTD
 70
     3
  9
$DIMALTF
 40
0.0010936132983377
  9
$DIMLFAC
 40
1.0
  9
$DIMTOFL
 70
     1
  9
$DIMTVP
 40
0.0
  9
$DIMTIX
 70
     1
  9
$DIMSOXD
 70
     0
  9
$DIMSAH
 70
     0
  9
$DIMBLK1
  1

  9
$DIMBLK2
  1

  9
$DIMSTYLE
  2
Arch
  9
$DIMCLRD
 70
     0
  9
$DIMCLRE
 70
     0
  9
$DIMCLRT
 70
     0
  9
$DIMTFAC
 40
1.0
  9
$DIMGAP
 40
1.5875
  9
$DIMJUST
 70
     0
  9
$DIMSD1
 70
     0
  9
$DIMSD2
 70
     0
  9
$DIMTOLJ
 70
     1
  9
$DIMTZIN
 70
    11
  9
$DIMALTZ
 70
     7
  9
$DIMALTTZ
 70
     7
  9
$DIMUPT
 70
     0
  9
$DIMDEC
 70
     1
  9
$DIMTDEC
 70
     1
  9
$DIMALTU
 70
     2
  9
$DIMALTTD
 70
     2
  9
$DIMTXSTY
  7
Calibri (bold)
  9
$DIMAUNIT
 70
     0
  9
$DIMADEC
 70
     2
  9
$DIMALTRND
 40
0.0
  9
$DIMAZIN
 70
     0
  9
$DIMDSEP
 70
    46
  9
$DIMATFIT
 70
     0
  9
$DIMFRAC
 70
     2
  9
$DIMLDRBLK
  1

  9
$DIMLUNIT
 70
     2
  9
$DIMLWD
 70
    -2
  9
$DIMLWE
 70
    -2
  9
$DIMTMOVE
 70
     0
  9
$LUNITS
 70
     2
  9
$LUPREC
 70
     4
  9
$SKETCHINC
 40
0.1
  9
$FILLETRAD
 40
0.0
  9
$AUNITS
 70
     0
  9
$AUPREC
 70
     0
  9
$MENU
  1
acad
  9
$ELEVATION
 40
0.0
  9
$PELEVATION
 40
0.0
  9
$THICKNESS
 40
0.0
  9
$LIMCHECK
 70
     0
  9
$CHAMFERA
 40
0.0
  9
$CHAMFERB
 40
0.0
  9
$CHAMFERC
 40
0.0
  9
$CHAMFERD
 40
0.0
  9
$SKPOLY
 70
     0
  9
$TDCREATE
 40
2447893.375
  9
$TDUCREATE
 40
0.0
  9
$TDUPDATE
 40
2447893.375
  9
$TDUUPDATE
 40
0.0
  9
$TDINDWG
 40
0.0
  9
$TDUSRTIMER
 40
0.0
  9
$USRTIMER
 70
     1
  9
$ANGBASE
 50
0.0
  9
$ANGDIR
 70
     0
  9
$PDMODE
 70
     1
  9
$PDSIZE
 40
-2.0
  9
$PLINEWID
 40
0.0
  9
$SPLFRAME
 70
     0
  9
$SPLINETYPE
 70
     6
  9
$SPLINESEGS
 70
     8
  9
$HANDSEED
  5
DB
  9
$SURFTAB1
 70
     6
  9
$SURFTAB2
 70
     6
  9
$SURFTYPE
 70
     6
  9
$SURFU
 70
     6
  9
$SURFV
 70
     6
  9
$UCSBASE
  2

  9
$UCSNAME
  2

  9
$UCSORG
 10
0.0
 20
0.0
 30
0.0
  9
$UCSXDIR
 10
1.0
 20
0.0
 30
0.0
  9
$UCSYDIR
 10
0.0
 20
1.0
 30
0.0
  9
$UCSORTHOREF
  2

  9
$UCSORTHOVIEW
 70
     0
  9
$UCSORGTOP
 10
0.0
 20
0.0
 30
0.0
  9
$UCSORGBOTTOM
 10
0.0
 20
0.0
 30
0.0
  9
$UCSORGLEFT
 10
0.0
 20
0.0
 30
0.0
  9
$UCSORGRIGHT
 10
0.0
 20
0.0
 30
0.0
  9
$UCSORGFRONT
 10
0.0
 20
0.0
 30
0.0
  9
$UCSORGBACK
 10
0.0
 20
0.0
 30
0.0
  9
$PUCSBASE
  2

  9
$PUCSNAME
  2

  9
$PUCSORG
 10
0.0
 20
0.0
 30
0.0
  9
$PUCSXDIR
 10
1.0
 20
0.0
 30
0.0
  9
$PUCSYDIR
 10
0.0
 20
1.0
 30
0.0
  9
$PUCSORTHOREF
  2

  9
$PUCSORTHOVIEW
 70
     0
  9
$PUCSORGTOP
 10
0.0
 20
0.0
 30
0.0
  9
$PUCSORGBOTTOM
 10
0.0
 20
0.0
 30
0.0
  9
$PUCSORGLEFT
 10
0.0
 20
0.0
 30
0.0
  9
$PUCSORGRIGHT
 10
0.0
 20
0.0
 30
0.0
  9
$PUCSORGFRONT
 10
0.0
 20
0.0
 30
0.0
  9
$PUCSORGBACK
 10
0.0
 20
0.0
 30
0.0
  9
$USERI1
 70
     0
  9
$USERI2
 70
     0
  9
$USERI3
 70
     0
  9
$USERI4
 70
     0
  9
$USERI5
 70
     0
  9
$USERR1
 40
0.0
  9
$USERR2
 40
0.0
  9
$USERR3
 40
0.0
  9
$USERR4
 40
0.0
  9
$USERR5
 40
0.0
  9
$WORLDVIEW
 70
     1
  9
$SHADEDGE
 70
     3
  9
$SHADEDIF
 70
    70
  9
$TILEMODE
 70
     1
  9
$MAXACTVP
 70
    64
  9
$PINSBASE
 10
0.0
 20
0.0
 30
0.0
  9
$PLIMCHECK
 70
     0
  9
$PEXTMIN
 10
1.000000000000000E+20
 20
1.000000000000000E+20
 30
1.000000000000000E+20
  9
$PEXTMAX
 10
-1.000000000000000E+20
 20
-1.000000000000000E+20
 30
-1.000000000000000E+20
  9
$PLIMMIN
 10
0.0
 20
0.0
  9
$PLIMMAX
 10
12.0
 20
9.0
  9
$UNITMODE
 70
     0
  9
$VISRETAIN
 70
     0
  9
$PLINEGEN
 70
     1
  9
$PSLTSCALE
 70
     0
  9
$TREEDEPTH
 70
  3020
  9
$CMLSTYLE
  2
Standard
  9
$CMLJUST
 70
     0
  9
$CMLSCALE
 40
1.0
  9
$PROXYGRAPHICS
 70
     0
  9
$MEASUREMENT
 70
     1
  9
$CELWEIGHT
370
     0
  9
$ENDCAPS
280
     0
  9
$JOINSTYLE
280
     0
  9
$LWDISPLAY
290
     1
  9
$INSUNITS
 70
     4
  9
$HYPERLINKBASE
  1

  9
$STYLESHEET
  1

  9
$XEDIT
290
     1
  9
$CEPSNTYPE
380
     0
  9
$PSTYLEMODE
290
     1
  9
$FINGERPRINTGUID
  2

  9
$VERSIONGUID
  2

  9
$EXTNAMES
290
     1
  9
$PSVPSCALE
 40
0.0
  9
$OLESTARTUP
290
     0
  9
$SORTENTS
280
   127
  9
$INDEXCTL
280
     0
  9
$HIDETEXT
280
     1
  9
$XCLIPFRAME
290
     0
  9
$HALOGAP
280
     0
  9
$OBSCOLOR
 70
   257
  9
$OBSLTYPE
280
     0
  9
$INTERSECTIONDISPLAY
280
     0
  9
$INTERSECTIONCOLOR
 70
   257
  9
$DIMASSOC
280
     2
  9
$PROJECTNAME
  1

  0
ENDSEC
  0
SECTION
  2
CLASSES
  0
CLASS
  1
LWPOLYLINE
  2
AcDbPolyline
  3
AutoCAD 2000
 90
        0
 91
        1
280
     0
281
     1
  0
CLASS
  1
IMAGE
  2
AcDbRasterImage
  3
ISM
 90
      127
 91
        4
280
     0
281
     1
  0
CLASS
  1
OLE2FRAME
  2
AcDbOle2Frame
  3
AutoCAD 2000
 90
        0
 91
        1
280
     0
281
     1
  0
CLASS
  1
HATCH
  2
AcDbHatch
  3
AutoCAD 2000
 90
        0
 91
        1
280
     0
281
     1
  0
CLASS
  1
DICTIONARYVAR
  2
AcDbDictionaryVar
  3
ObjectDBX Classes
 90
        0
 91
        3
280
     0
281
     0
  0
CLASS
  1
RASTERVARIABLES
  2
AcDbRasterVariables
  3
ISM
 90
        0
 91
        3
280
     0
281
     0
  0
CLASS
  1
IMAGEDEF
  2
AcDbRasterImageDef
  3
ISM
 90
        0
 91
        3
280
     0
281
     0
  0
CLASS
  1
IMAGEDEF_REACTOR
  2
AcDbRasterImageDefReactor
  3
ISM
 90
        1
 91
        3
280
     0
281
     0
  0
CLASS
  1
IDBUFFER
  2
AcDbIdBuffer
  3
ObjectDBX Classes
 90
        0
 91
        3
280
     0
281
     0
  0
CLASS
  1
SPATIAL_FILTER
  2
AcDbSpatialFilter
  3
ObjectDBX Classes
 90
        0
 91
        3
280
     0
281
     0
  0
CLASS
  1
XRECORD
  2
AcDbXrecord
  3
AutoCAD 2000
 90
        0
 91
        1
280
     0
281
     0
  0
CLASS
  1
SORTENTSTABLE
  2
AcDbSortentsTable
  3
ObjectDBX Classes
 90
        0
 91
        3
280
     0
281
     0
  0
CLASS
  1
LAYER_INDEX
  2
AcDbLayerIndex
  3
ObjectDBX Classes
 90
        0
 91
        3
280
     0
281
     0
  0
CLASS
  1
SPATIAL_INDEX
  2
AcDbSpatialIndex
  3
AutoCAD 2000
 90
        0
 91
        3
280
     0
281
     0
  0
CLASS
  1
OBJECT_PTR
  2
CAseDLPNTableRecord
  3
ASE-LPNTableRecord
 90
        1
 91
        3
280
     0
281
     0
  0
CLASS
  1
LAYOUT
  2
AcDbLayout
  3
ObjectDBX Classes
 90
        0
 91
        1
280
     0
281
     0
  0
CLASS
  1
PLOTSETTINGS
  2
AcDbPlotSettings
  3
ObjectDBX Classes
 90
        0
 91
        3
280
     0
281
     0
  0
CLASS
  1
ACDBDICTIONARYWDFLT
  2
AcDbDictionaryWithDefault
  3
ObjectDBX Classes
 90
        0
 91
        3
280
     0
281
     0
  0
CLASS
  1
ACDBPLACEHOLDER
  2
AcDbPlaceHolder
  3
ObjectDBX Classes
 90
        0
 91
        1
280
     0
281
     0
  0
CLASS
  1
VBA_PROJECT
  2
AcDbVbaProject
  3
ObjectDBX Classes
 90
        0
 91
        1
280
     0
281
     0
  0
CLASS
  1
WIPEOUT
  2
AcDbWipeout
  3
WipeOut|AutoCAD Express Tool|expresstools@autodesk.com
 90
      127
 91
        3
280
     0
281
     1
  0
CLASS
  1
WIPEOUTVARIABLES
  2
AcDbWipeoutVariables
  3
WipeOut|AutoCAD Express Tool|expresstools@autodesk.com
 90
        0
 91
        3
280
     0
281
     0
  0
CLASS
  1
RTEXT
  2
RText
  3
RText|AutoCAD Express Tool|expresstools@autodesk.com
 90
        0
 91
        3
280
     0
281
     1
  0
CLASS
  1
ARCALIGNEDTEXT
  2
AcDbArcAlignedText
  3
ATEXT|AutoCAD Express Tool|expresstools@autodesk.com
 90
        0
 91
        3
280
     0
281
     1
  0
ENDSEC
  0
SECTION
  2
TABLES
  0
TABLE
  2
VPORT
  5
7
330
0
100
AcDbSymbolTable
 70
     1
  0
VPORT
  5
15
330
7
100
AcDbSymbolTableRecord
100
AcDbViewportTableRecord
  2
*ACTIVE
 70
     0
 10
0.0
 20
0.0
 11
1.0
 21
1.0
 12
511.0
 22
-30.0
 13
0.0
 23
0.0
 14
1.0
 24
1.0
 15
0.0
 25
0.0
 16
0.0
 26
0.0
 36
1.0
 17
0.0
 27
0.0
 37
0.0
 40
1187.99864
 41
0.688564
 42
50.0
 43
0.0
 44
0.0
 50
0.0
 51
0.0
 71
     0
 72
  2000
 73
     1
 74
     1
 75
     0
 76
     0
 77
     0
 78
     0
281
     0
 65
     0
110
0.0
120
0.0
130
0.0
111
1.0
121
0.0
131
0.0
112
0.0
122
1.0
132
0.0
 79
     0
146
0.0
  0
ENDTAB
  0
TABLE
  2
LTYPE
  5
4
330
0
100
AcDbSymbolTable
 70
    11
  0
LTYPE
  5
11
330
4
100
AcDbSymbolTableRecord
100
AcDbLinetypeTableRecord
  2
ByBlock
 70
     0
  3

 72
    65
 73
     0
 40
0.0
  0
LTYPE
  5
12
330
4
100
AcDbSymbolTableRecord
100
AcDbLinetypeTableRecord
  2
ByLayer
 70
     0
  3

 72
    65
 73
     0
 40
0.0
  0
LTYPE
  5
13
330
4
100
AcDbSymbolTableRecord
100
AcDbLinetypeTableRecord
  2
Continuous
 70
     0
  3
Solid line
 72
    65
 73
     0
 40
0.0
  0
LTYPE
  5
2D
330
4
100
AcDbSymbolTableRecord
100
AcDbLinetypeTableRecord
  2
STYLE_01
 70
     0
  3

 72
    65
 73
     2
 40
0.41664
 49
0.20828
 74
     0
 49
-0.20836
 74
     0
  0
LTYPE
  5
2E
330
4
100
AcDbSymbolTableRecord
100
AcDbLinetypeTableRecord
  2
STYLE_02
 70
     0
  3

 72
    65
 73
     2
 40
0.6944250000000001
 49
0.48607
 74
     0
 49
-0.2083550000000001
 74
     0
  0
LTYPE
  5
2F
330
4
100
AcDbSymbolTableRecord
100
AcDbLinetypeTableRecord
  2
STYLE_03
 70
     0
  3

 72
    65
 73
     2
 40
1.25
 49
1.04164
 74
     0
 49
-0.2083599999999999
 74
     0
  0
LTYPE
  5
30
330
4
100
AcDbSymbolTableRecord
100
AcDbLinetypeTableRecord
  2
STYLE_04
 70
     0
  3

 72
    65
 73
     2
 40
1.52771
 49
1.319425
 74
     0
 49
-0.208285
 74
     0
  0
LTYPE
  5
31
330
4
100
AcDbSymbolTableRecord
100
AcDbLinetypeTableRecord
  2
STYLE_05
 70
     0
  3

 72
    65
 73
     2
 40
0.20828
 49
0.069425
 74
     0
 49
-0.138855
 74
     0
  0
LTYPE
  5
32
330
4
100
AcDbSymbolTableRecord
100
AcDbLinetypeTableRecord
  2
STYLE_06
 70
     0
  3

 72
    65
 73
     4
 40
1.04164
 49
0.625
 74
     0
 49
-0.20828
 74
     0
 49
0.06943
 74
     0
 49
-0.13893
 74
     0
  0
LTYPE
  5
33
330
4
100
AcDbSymbolTableRecord
100
AcDbLinetypeTableRecord
  2
STYLE_07
 70
     0
  3

 72
    65
 73
     6
 40
1.875
 49
0.625
 74
     0
 49
-0.20828
 74
     0
 49
0.6250000000000001
 74
     0
 49
-0.2083599999999999
 74
     0
 49
0.06943
 74
     0
 49
-0.1389299999999999
 74
     0
  0
LTYPE
  5
34
330
4
100
AcDbSymbolTableRecord
100
AcDbLinetypeTableRecord
  2
STYLE_08
 70
     0
  3

 72
    65
 73
     6
 40
1.25
 49
0.625
 74
     0
 49
-0.20828
 74
     0
 49
0.06943
 74
     0
 49
-0.13893
 74
     0
 49
0.0694299999999999
 74
     0
 49
-0.13893
 74
     0
  0
LTYPE
  5
35
330
4
100
AcDbSymbolTableRecord
100
AcDbLinetypeTableRecord
  2
STYLE_09
 70
     0
  3

 72
    65
 73
     4
 40
5.0
 49
3.75
 74
     0
 49
-0.2777849999999998
 74
     0
 49
0.6944300000000003
 74
     0
 49
-0.2777849999999998
 74
     0
  0
LTYPE
  5
36
330
4
100
AcDbSymbolTableRecord
100
AcDbLinetypeTableRecord
  2
STYLE_10
 70
     0
  3

 72
    65
 73
     6
 40
5.9375
 49
3.75
 74
     0
 49
-0.2777849999999998
 74
     0
 49
0.6944300000000003
 74
     0
 49
-0.2777849999999998
 74
     0
 49
0.625
 74
     0
 49
-0.3125
 74
     0
  0
ENDTAB
  0
TABLE
  2
LAYER
  5
2
330
0
100
AcDbSymbolTable
 70
     4
  0
LAYER
  5
14
330
2
100
AcDbSymbolTableRecord
100
AcDbLayerTableRecord
  2
0
 70
     0
 62
     7
  6
Continuous
370
    -3
390
1D
  0
LAYER
  5
37
330
2
100
AcDbSymbolTableRecord
100
AcDbLayerTableRecord
  2
一般
 70
     0
 62
     7
  6
Continuous
370
   100
390
1D
  0
LAYER
  5
38
330
2
100
AcDbSymbolTableRecord
100
AcDbLayerTableRecord
  2
寸法
 70
     0
 62
     7
  6
Continuous
370
   100
390
1D
  0
LAYER
  5
39
330
2
100
AcDbSymbolTableRecord
100
AcDbLayerTableRecord
  2
Defpoints
 70
     0
 62
     7
  6
Continuous
290
     0
370
    -3
390
1D
  0
ENDTAB
  0
TABLE
  2
STYLE
  5
3
330
0
100
AcDbSymbolTable
 70
     2
  0
STYLE
  5
17
330
3
100
AcDbSymbolTableRecord
100
AcDbTextStyleTableRecord
  2
Standard
 70
     0
 40
0.0
 41
1.0
 50
0.0
 71
     0
 42
0.0
  3
txt
  4
BIGFONT.SHX
  0
STYLE
  5
2C
330
3
100
AcDbSymbolTableRecord
100
AcDbTextStyleTableRecord
  2
Calibri (bold)
 70
     0
 40
0.0
 41
1.0
 50
0.0
 71
     0
 42
0.0
  3

  4
Calibri
1001
ACAD
1000
Calibri
1071
 33554432
  0
ENDTAB
  0
TABLE
  2
VIEW
  5
5
330
0
100
AcDbSymbolTable
 70
     0
  0
ENDTAB
  0
TABLE
  2
UCS
  5
6
330
0
100
AcDbSymbolTable
 70
     0
  0
ENDTAB
  0
TABLE
  2
APPID
  5
8
330
0
100
AcDbSymbolTable
 70
     1
  0
APPID
  5
16
330
8
100
AcDbSymbolTableRecord
100
AcDbRegAppTableRecord
  2
ACAD
 70
     0
  0
ENDTAB
  0
TABLE
  2
DIMSTYLE
  5
9
330
0
100
AcDbSymbolTable
 70
     2
100
AcDbDimStyleTable
  0
DIMSTYLE
105
18
330
9
100
AcDbSymbolTableRecord
100
AcDbDimStyleTableRecord
  2
Standard
 70
     0
340
17
  0
DIMSTYLE
105
43
330
9
100
AcDbSymbolTableRecord
100
AcDbDimStyleTableRecord
  2
Arch
 70
     0
  3
<>
  4
[]
 41
8.979296875
 42
6.35
 43
10.16
 44
12.7
 46
1.5875
 73
     0
 74
     0
 77
     1
 78
    11
140
16.0982421875
141
0.0
143
0.0010936132983377
147
1.5875
171
     3
172
     1
174
     1
179
     2
271
     1
272
     1
276
     2
284
    11
285
     7
286
     7
289
     0
340
2C
341
3F
342
3A
  0
ENDTAB
  0
TABLE
  2
BLOCK_RECORD
  5
1
330
0
100
AcDbSymbolTable
 70
    10
  0
BLOCK_RECORD
  5
A
330
1
100
AcDbSymbolTableRecord
100
AcDbBlockTableRecord
  2
*MODEL_SPACE
340
20
  0
BLOCK_RECORD
  5
B
330
1
100
AcDbSymbolTableRecord
100
AcDbBlockTableRecord
  2
*PAPER_SPACE
340
21
  0
BLOCK_RECORD
  5
3A
330
1
100
AcDbSymbolTableRecord
100
AcDbBlockTableRecord
  2
VW_SLASH
340
0
  0
BLOCK_RECORD
  5
3F
330
1
100
AcDbSymbolTableRecord
100
AcDbBlockTableRecord
  2
VW_FILLEDARROW
340
0
  0
BLOCK_RECORD
  5
24
330
1
100
AcDbSymbolTableRecord
100
AcDbBlockTableRecord
  2
グループ
340
0
102
{BLKREFS
331
81
102
}
  0
BLOCK_RECORD
  5
25
330
1
100
AcDbSymbolTableRecord
100
AcDbBlockTableRecord
  2
Drawing Border - Universal
340
0
102
{BLKREFS
331
D0
102
}
  0
BLOCK_RECORD
  5
26
330
1
100
AcDbSymbolTableRecord
100
AcDbBlockTableRecord
  2
グループ-1
340
0
102
{BLKREFS
331
A9
102
}
  0
BLOCK_RECORD
  5
27
330
1
100
AcDbSymbolTableRecord
100
AcDbBlockTableRecord
  2
グループ-2
340
0
102
{BLKREFS
331
AA
102
}
  0
BLOCK_RECORD
  5
28
330
1
100
AcDbSymbolTableRecord
100
AcDbBlockTableRecord
  2
グループ-3
340
0
102
{BLKREFS
331
AB
102
}
  0
BLOCK_RECORD
  5
29
330
1
100
AcDbSymbolTableRecord
100
AcDbBlockTableRecord
  2
グループ-4
340
0
102
{BLKREFS
331
AC
102
}
  0
BLOCK_RECORD
  5
2A
330
1
100
AcDbSymbolTableRecord
100
AcDbBlockTableRecord
  2
グループ-5
340
0
102
{BLKREFS
331
D9
102
}
  0
BLOCK_RECORD
  5
2B
330
1
100
AcDbSymbolTableRecord
100
AcDbBlockTableRecord
  2
*D9
340
0
  0
ENDTAB
  0
ENDSEC
  0
SECTION
  2
BLOCKS
  0
BLOCK
  5
D
330
A
100
AcDbEntity
  8
0
390
1D
100
AcDbBlockBegin
  2
*MODEL_SPACE
 70
     0
 71
     0
 10
0.0
 20
0.0
 30
0.0
  3
*MODEL_SPACE
  1

  0
ENDBLK
  5
E
330
A
100
AcDbEntity
  8
0
390
1D
100
AcDbBlockEnd
  0
BLOCK
  5
F
330
B
100
AcDbEntity
 67
     1
  8
0
390
1D
100
AcDbBlockBegin
  2
*PAPER_SPACE
 70
     0
 71
     0
 10
0.0
 20
0.0
 30
0.0
  3
*PAPER_SPACE
  1

  0
ENDBLK
  5
10
330
B
100
AcDbEntity
 67
     1
  8
0
390
1D
100
AcDbBlockEnd
  0
BLOCK
  5
3B
330
3A
100
AcDbEntity
  8
0
  6
ByBlock
 62
     0
370
    -2
390
1D
100
AcDbBlockBegin
  2
VW_SLASH
 70
     0
 71
     0
 10
0.0
 20
0.0
 30
0.0
  3
VW_SLASH
  1

  0
LINE
  5
3C
330
3A
100
AcDbEntity
  8
0
  6
ByBlock
 62
     0
370
    -2
390
1D
100
AcDbLine
 10
0.0
 20
0.0
 30
0.0
 11
-1.0
 21
0.0
 31
0.0
  0
LINE
  5
3D
330
3A
100
AcDbEntity
  8
0
  6
ByBlock
 62
     0
370
    20
390
1D
100
AcDbLine
 10
-0.1249693844973003
 20
-0.1249693844973002
 30
0.0
 11
0.1249693844973003
 21
0.1249693844973002
 31
0.0
  0
ENDBLK
  5
3E
330
3A
100
AcDbEntity
  8
0
390
1D
100
AcDbBlockEnd
  0
BLOCK
  5
40
330
3F
100
AcDbEntity
  8
0
  6
ByBlock
 62
     0
370
    -2
390
1D
100
AcDbBlockBegin
  2
VW_FILLEDARROW
 70
     0
 71
     0
 10
0.0
 20
0.0
 30
0.0
  3
VW_FILLEDARROW
  1

  0
SOLID
  5
41
330
3F
100
AcDbEntity
  8
0
 62
     0
370
    -2
390
1D
100
AcDbTrace
 10
0.0
 20
0.0
 30
0.0
 11
-0.353466796875
 21
-0.094711142773872
 31
0.0
 12
-0.353466796875
 22
0.094711142773872
 32
0.0
 13
-0.353466796875
 23
0.094711142773872
 33
0.0
  0
ENDBLK
  5
42
330
3F
100
AcDbEntity
  8
0
390
1D
100
AcDbBlockEnd
  0
BLOCK
  5
44
330
24
100
AcDbEntity
  8
一般
390
1D
100
AcDbBlockBegin
  2
グループ
 70
     0
 71
     0
 10
0.0
 20
0.0
 30
0.0
  3
グループ
  1

  0
POLYLINE
  5
45
330
24
100
AcDbEntity
  8
一般
  6
Continuous
 62
     7
370
    13
390
1D
100
AcDb2dPolyline
 66
     1
 10
0.0
 20
0.0
 30
0.0
 70
     1
 75
     5
  0
VERTEX
  5
46
330
45
100
AcDbEntity
  8
一般
  6
Continuous
 62
     7
370
    13
390
1D
100
AcDbVertex
100
AcDb2dVertex
 10
-839.9983199999999
 20
593.99932
 30
0.0
  0
VERTEX
  5
47
330
45
100
AcDbEntity
  8
一般
  6
Continuous
 62
     7
370
    13
390
1D
100
AcDbVertex
100
AcDb2dVertex
 10
839.9983199999999
 20
593.99932
 30
0.0
  0
VERTEX
  5
48
330
45
100
AcDbEntity
  8
一般
  6
Continuous
 62
     7
370
    13
390
1D
100
AcDbVertex
100
AcDb2dVertex
 10
839.9983199999999
 20
-593.99932
 30
0.0
  0
VERTEX
  5
49
330
45
100
AcDbEntity
  8
一般
  6
Continuous
 62
     7
370
    13
390
1D
100
AcDbVertex
100
AcDb2dVertex
 10
-839.9983199999999
 20
-593.99932
 30
0.0
  0
SEQEND
  5
4A
330
45
100
AcDbEntity
  8
一般
  6
Continuous
 62
     7
370
    13
390
1D
  0
POLYLINE
  5
4C
330
24
100
AcDbEntity
  8
一般
  6
Continuous
 62
     7
370
    70
390
1D
100
AcDb2dPolyline
 66
     1
 10
0.0
 20
0.0
 30
0.0
 70
     1
 75
     5
  0
VERTEX
  5
4D
330
4C
100
AcDbEntity
  8
一般
  6
Continuous
 62
     7
370
    70
390
1D
100
AcDbVertex
100
AcDb2dVertex
 10
-759.99848
 20
513.9994800000001
 30
0.0
  0
VERTEX
  5
4E
330
4C
100
AcDbEntity
  8
一般
  6
Continuous
 62
     7
370
    70
390
1D
100
AcDbVertex
100
AcDb2dVertex
 10
759.99848
 20
513.9994800000001
 30
0.0
  0
VERTEX
  5
4F
330
4C
100
AcDbEntity
  8
一般
  6
Continuous
 62
     7
370
    70
390
1D
100
AcDbVertex
100
AcDb2dVertex
 10
759.99848
 20
-513.9994800000001
 30
0.0
  0
VERTEX
  5
50
330
4C
100
AcDbEntity
  8
一般
  6
Continuous
 62
     7
370
    70
390
1D
100
AcDbVertex
100
AcDb2dVertex
 10
-759.99848
 20
-513.9994800000001
 30
0.0
  0
SEQEND
  5
51
330
4C
100
AcDbEntity
  8
一般
  6
Continuous
 62
     7
370
    70
390
1D
  0
LINE
  5
53
330
24
100
AcDbEntity
  8
一般
  6
Continuous
 62
     7
370
    70
390
1D
100
AcDbLine
 10
-759.99848
 20
513.9994800000001
 30
0.0
 11
-759.99848
 21
552.60748
 31
0.0
  0
LINE
  5
54
330
24
100
AcDbEntity
  8
一般
  6
Continuous
 62
     7
370
    70
390
1D
100
AcDbLine
 10
-506.6656533333334
 20
513.9994800000001
 30
0.0
 11
-506.6656533333334
 21
552.60748
 31
0.0
  0
LINE
  5
55
330
24
100
AcDbEntity
  8
一般
  6
Continuous
 62
     7
370
    70
390
1D
100
AcDbLine
 10
-253.3328266666667
 20
513.9994800000001
 30
0.0
 11
-253.3328266666667
 21
552.60748
 31
0.0
  0
LINE
  5
56
330
24
100
AcDbEntity
  8
一般
  6
Continuous
 62
     7
370
    70
390
1D
100
AcDbLine
 10
-0.0000000000000568
 20
513.9994800000001
 30
0.0
 11
-0.0000000000000568
 21
552.60748
 31
0.0
  0
LINE
  5
57
330
24
100
AcDbEntity
  8
一般
  6
Continuous
 62
     7
370
    70
390
1D
100
AcDbLine
 10
253.3328266666666
 20
513.9994800000001
 30
0.0
 11
253.3328266666666
 21
552.60748
 31
0.0
  0
LINE
  5
58
330
24
100
AcDbEntity
  8
一般
  6
Continuous
 62
     7
370
    70
390
1D
100
AcDbLine
 10
506.6656533333332
 20
513.9994800000001
 30
0.0
 11
506.6656533333332
 21
552.60748
 31
0.0
  0
LINE
  5
59
330
24
100
AcDbEntity
  8
一般
  6
Continuous
 62
     7
370
    70
390
1D
100
AcDbLine
 10
759.9984799999999
 20
513.9994800000001
 30
0.0
 11
759.9984799999999
 21
552.60748
 31
0.0
  0
LINE
  5
5A
330
24
100
AcDbEntity
  8
一般
  6
Continuous
 62
     7
370
    70
390
1D
100
AcDbLine
 10
-759.99848
 20
-513.9994800000001
 30
0.0
 11
-759.99848
 21
-552.60748
 31
0.0
  0
LINE
  5
5B
330
24
100
AcDbEntity
  8
一般
  6
Continuous
 62
     7
370
    70
390
1D
100
AcDbLine
 10
-506.6656533333334
 20
-513.9994800000001
 30
0.0
 11
-506.6656533333334
 21
-552.60748
 31
0.0
  0
LINE
  5
5C
330
24
100
AcDbEntity
  8
一般
  6
Continuous
 62
     7
370
    70
390
1D
100
AcDbLine
 10
-253.3328266666667
 20
-513.9994800000001
 30
0.0
 11
-253.3328266666667
 21
-552.60748
 31
0.0
  0
LINE
  5
5D
330
24
100
AcDbEntity
  8
一般
  6
Continuous
 62
     7
370
    70
390
1D
100
AcDbLine
 10
-0.0000000000000568
 20
-513.9994800000001
 30
0.0
 11
-0.0000000000000568
 21
-552.60748
 31
0.0
  0
LINE
  5
5E
330
24
100
AcDbEntity
  8
一般
  6
Continuous
 62
     7
370
    70
390
1D
100
AcDbLine
 10
253.3328266666666
 20
-513.9994800000001
 30
0.0
 11
253.3328266666666
 21
-552.60748
 31
0.0
  0
LINE
  5
5F
330
24
100
AcDbEntity
  8
一般
  6
Continuous
 62
     7
370
    70
390
1D
100
AcDbLine
 10
506.6656533333332
 20
-513.9994800000001
 30
0.0
 11
506.6656533333332
 21
-552.60748
 31
0.0
  0
LINE
  5
60
330
24
100
AcDbEntity
  8
一般
  6
Continuous
 62
     7
370
    70
390
1D
100
AcDbLine
 10
759.9984799999999
 20
-513.9994800000001
 30
0.0
 11
759.9984799999999
 21
-552.60748
 31
0.0
  0
LINE
  5
61
330
24
100
AcDbEntity
  8
一般
  6
Continuous
 62
     7
370
    70
390
1D
100
AcDbLine
 10
-759.99848
 20
513.9994800000001
 30
0.0
 11
-798.6064799999999
 21
513.9994800000001
 31
0.0
  0
LINE
  5
62
330
24
100
AcDbEntity
  8
一般
  6
Continuous
 62
     7
370
    70
390
1D
100
AcDbLine
 10
-759.99848
 20
256.99974
 30
0.0
 11
-798.6064799999999
 21
256.99974
 31
0.0
  0
LINE
  5
63
330
24
100
AcDbEntity
  8
一般
  6
Continuous
 62
     7
370
    70
390
1D
100
AcDbLine
 10
-759.99848
 20
0.0
 30
0.0
 11
-798.6064799999999
 21
0.0
 31
0.0
  0
LINE
  5
64
330
24
100
AcDbEntity
  8
一般
  6
Continuous
 62
     7
370
    70
390
1D
100
AcDbLine
 10
-759.99848
 20
-256.99974
 30
0.0
 11
-798.6064799999999
 21
-256.99974
 31
0.0
  0
LINE
  5
65
330
24
100
AcDbEntity
  8
一般
  6
Continuous
 62
     7
370
    70
390
1D
100
AcDbLine
 10
-759.99848
 20
-513.9994800000001
 30
0.0
 11
-798.6064799999999
 21
-513.9994800000001
 31
0.0
  0
LINE
  5
66
330
24
100
AcDbEntity
  8
一般
  6
Continuous
 62
     7
370
    70
390
1D
100
AcDbLine
 10
759.99848
 20
513.9994800000001
 30
0.0
 11
798.6064799999999
 21
513.9994800000001
 31
0.0
  0
LINE
  5
67
330
24
100
AcDbEntity
  8
一般
  6
Continuous
 62
     7
370
    70
390
1D
100
AcDbLine
 10
759.99848
 20
256.99974
 30
0.0
 11
798.6064799999999
 21
256.99974
 31
0.0
  0
LINE
  5
68
330
24
100
AcDbEntity
  8
一般
  6
Continuous
 62
     7
370
    70
390
1D
100
AcDbLine
 10
759.99848
 20
0.0
 30
0.0
 11
798.6064799999999
 21
0.0
 31
0.0
  0
LINE
  5
69
330
24
100
AcDbEntity
  8
一般
  6
Continuous
 62
     7
370
    70
390
1D
100
AcDbLine
 10
759.99848
 20
-256.99974
 30
0.0
 11
798.6064799999999
 21
-256.99974
 31
0.0
  0
LINE
  5
6A
330
24
100
AcDbEntity
  8
一般
  6
Continuous
 62
     7
370
    70
390
1D
100
AcDbLine
 10
759.99848
 20
-513.9994800000001
 30
0.0
 11
798.6064799999999
 21
-513.9994800000001
 31
0.0
  0
MTEXT
  5
6B
330
24
100
AcDbEntity
  8
一般
 62
     7
390
1D
100
AcDbMText
 10
-633.3320666666666
 20
539.39948
 30
0.0
 40
16.0982421875
 41
0.0
 71
     5
 72
     1
  1
1
  7
Calibri (bold)
 73
     1
 44
1.159596784673362
  0
MTEXT
  5
6C
330
24
100
AcDbEntity
  8
一般
 62
     7
390
1D
100
AcDbMText
 10
-633.3320666666666
 20
-539.39948
 30
0.0
 40
16.0982421875
 41
0.0
 71
     5
 72
     1
  1
1
  7
Calibri (bold)
 73
     1
 44
1.159596784673362
  0
MTEXT
  5
6D
330
24
100
AcDbEntity
  8
一般
 62
     7
390
1D
100
AcDbMText
 10
-379.99924
 20
539.39948
 30
0.0
 40
16.0982421875
 41
0.0
 71
     5
 72
     1
  1
2
  7
Calibri (bold)
 73
     1
 44
1.159596784673362
  0
MTEXT
  5
6E
330
24
100
AcDbEntity
  8
一般
 62
     7
390
1D
100
AcDbMText
 10
-379.99924
 20
-539.39948
 30
0.0
 40
16.0982421875
 41
0.0
 71
     5
 72
     1
  1
2
  7
Calibri (bold)
 73
     1
 44
1.159596784673362
  0
MTEXT
  5
6F
330
24
100
AcDbEntity
  8
一般
 62
     7
390
1D
100
AcDbMText
 10
-126.6664133333333
 20
539.39948
 30
0.0
 40
16.0982421875
 41
0.0
 71
     5
 72
     1
  1
3
  7
Calibri (bold)
 73
     1
 44
1.159596784673362
  0
MTEXT
  5
70
330
24
100
AcDbEntity
  8
一般
 62
     7
390
1D
100
AcDbMText
 10
-126.6664133333333
 20
-539.39948
 30
0.0
 40
16.0982421875
 41
0.0
 71
     5
 72
     1
  1
3
  7
Calibri (bold)
 73
     1
 44
1.159596784673362
  0
MTEXT
  5
71
330
24
100
AcDbEntity
  8
一般
 62
     7
390
1D
100
AcDbMText
 10
126.6664133333333
 20
539.39948
 30
0.0
 40
16.0982421875
 41
0.0
 71
     5
 72
     1
  1
4
  7
Calibri (bold)
 73
     1
 44
1.159596784673362
  0
MTEXT
  5
72
330
24
100
AcDbEntity
  8
一般
 62
     7
390
1D
100
AcDbMText
 10
126.6664133333333
 20
-539.39948
 30
0.0
 40
16.0982421875
 41
0.0
 71
     5
 72
     1
  1
4
  7
Calibri (bold)
 73
     1
 44
1.159596784673362
  0
MTEXT
  5
73
330
24
100
AcDbEntity
  8
一般
 62
     7
390
1D
100
AcDbMText
 10
379.99924
 20
539.39948
 30
0.0
 40
16.0982421875
 41
0.0
 71
     5
 72
     1
  1
5
  7
Calibri (bold)
 73
     1
 44
1.159596784673362
  0
MTEXT
  5
74
330
24
100
AcDbEntity
  8
一般
 62
     7
390
1D
100
AcDbMText
 10
379.99924
 20
-539.39948
 30
0.0
 40
16.0982421875
 41
0.0
 71
     5
 72
     1
  1
5
  7
Calibri (bold)
 73
     1
 44
1.159596784673362
  0
MTEXT
  5
75
330
24
100
AcDbEntity
  8
一般
 62
     7
390
1D
100
AcDbMText
 10
633.3320666666666
 20
539.39948
 30
0.0
 40
16.0982421875
 41
0.0
 71
     5
 72
     1
  1
6
  7
Calibri (bold)
 73
     1
 44
1.159596784673362
  0
MTEXT
  5
76
330
24
100
AcDbEntity
  8
一般
 62
     7
390
1D
100
AcDbMText
 10
633.3320666666666
 20
-539.39948
 30
0.0
 40
16.0982421875
 41
0.0
 71
     5
 72
     1
  1
6
  7
Calibri (bold)
 73
     1
 44
1.159596784673362
  0
MTEXT
  5
77
330
24
100
AcDbEntity
  8
一般
 62
     7
390
1D
100
AcDbMText
 10
-785.39848
 20
385.4996100000001
 30
0.0
 40
16.0982421875
 41
0.0
 71
     5
 72
     1
  1
A
  7
Calibri (bold)
 73
     1
 44
1.159596784673362
  0
MTEXT
  5
78
330
24
100
AcDbEntity
  8
一般
 62
     7
390
1D
100
AcDbMText
 10
785.39848
 20
385.4996100000001
 30
0.0
 40
16.0982421875
 41
0.0
 71
     5
 72
     1
  1
A
  7
Calibri (bold)
 73
     1
 44
1.159596784673362
  0
MTEXT
  5
79
330
24
100
AcDbEntity
  8
一般
 62
     7
390
1D
100
AcDbMText
 10
-785.39848
 20
128.49987
 30
0.0
 40
16.0982421875
 41
0.0
 71
     5
 72
     1
  1
B
  7
Calibri (bold)
 73
     1
 44
1.159596784673362
  0
MTEXT
  5
7A
330
24
100
AcDbEntity
  8
一般
 62
     7
390
1D
100
AcDbMText
 10
785.39848
 20
128.49987
 30
0.0
 40
16.0982421875
 41
0.0
 71
     5
 72
     1
  1
B
  7
Calibri (bold)
 73
     1
 44
1.159596784673362
  0
MTEXT
  5
7B
330
24
100
AcDbEntity
  8
一般
 62
     7
390
1D
100
AcDbMText
 10
-785.39848
 20
-128.49987
 30
0.0
 40
16.0982421875
 41
0.0
 71
     5
 72
     1
  1
C
  7
Calibri (bold)
 73
     1
 44
1.159596784673362
  0
MTEXT
  5
7C
330
24
100
AcDbEntity
  8
一般
 62
     7
390
1D
100
AcDbMText
 10
785.39848
 20
-128.49987
 30
0.0
 40
16.0982421875
 41
0.0
 71
     5
 72
     1
  1
C
  7
Calibri (bold)
 73
     1
 44
1.159596784673362
  0
MTEXT
  5
7D
330
24
100
AcDbEntity
  8
一般
 62
     7
390
1D
100
AcDbMText
 10
-785.39848
 20
-385.49961
 30
0.0
 40
16.0982421875
 41
0.0
 71
     5
 72
     1
  1
D
  7
Calibri (bold)
 73
     1
 44
1.159596784673362
  0
MTEXT
  5
7E
330
24
100
AcDbEntity
  8
一般
 62
     7
390
1D
100
AcDbMText
 10
785.39848
 20
-385.49961
 30
0.0
 40
16.0982421875
 41
0.0
 71
     5
 72
     1
  1
D
  7
Calibri (bold)
 73
     1
 44
1.159596784673362
  0
ENDBLK
  5
7F
330
24
100
AcDbEntity
  8
一般
390
1D
100
AcDbBlockEnd
  0
BLOCK
  5
80
330
25
100
AcDbEntity
  8
一般
390
1D
100
AcDbBlockBegin
  2
Drawing Border - Universal
 70
     0
 71
     0
 10
0.0
 20
0.0
 30
0.0
  3
Drawing Border - Universal
  1

  0
INSERT
  5
81
330
25
100
AcDbEntity
  8
一般
 62
     7
390
1D
100
AcDbBlockReference
  2
グループ
 10
0.0
 20
0.0
 30
0.0
  0
ENDBLK
  5
82
330
25
100
AcDbEntity
  8
一般
390
1D
100
AcDbBlockEnd
  0
BLOCK
  5
83
330
26
100
AcDbEntity
  8
一般
390
1D
100
AcDbBlockBegin
  2
グループ-1
 70
     0
 71
     0
 10
0.0
 20
0.0
 30
0.0
  3
グループ-1
  1

  0
LINE
  5
84
330
26
100
AcDbEntity
  8
一般
  6
Continuous
 62
     7
370
    18
390
1D
100
AcDbLine
 10
-528.2272532134328
 20
146.5454506426867
 30
0.0
 11
-516.2272532134332
 21
146.5454506426867
 31
0.0
  0
LINE
  5
85
330
26
100
AcDbEntity
  8
一般
  6
Continuous
 62
     7
370
    18
390
1D
100
AcDbLine
 10
-528.2272532134328
 20
136.5454506426867
 30
0.0
 11
-516.2272532134332
 21
136.5454506426867
 31
0.0
  0
ENDBLK
  5
86
330
26
100
AcDbEntity
  8
一般
390
1D
100
AcDbBlockEnd
  0
BLOCK
  5
87
330
27
100
AcDbEntity
  8
一般
390
1D
100
AcDbBlockBegin
  2
グループ-2
 70
     0
 71
     0
 10
0.0
 20
0.0
 30
0.0
  3
グループ-2
  1

  0
LINE
  5
88
330
27
100
AcDbEntity
  8
一般
  6
Continuous
 62
     7
370
    18
390
1D
100
AcDbLine
 10
-528.2272532134328
 20
-63.45454935731334
 30
0.0
 11
-516.2272532134332
 21
-63.45454935731334
 31
0.0
  0
LINE
  5
89
330
27
100
AcDbEntity
  8
一般
  6
Continuous
 62
     7
370
    18
390
1D
100
AcDbLine
 10
-528.2272532134328
 20
-73.45454935731334
 30
0.0
 11
-516.2272532134332
 21
-73.45454935731334
 31
0.0
  0
ENDBLK
  5
8A
330
27
100
AcDbEntity
  8
一般
390
1D
100
AcDbBlockEnd
  0
BLOCK
  5
8B
330
28
100
AcDbEntity
  8
一般
390
1D
100
AcDbBlockBegin
  2
グループ-3
 70
     0
 71
     0
 10
0.0
 20
0.0
 30
0.0
  3
グループ-3
  1

  0
LINE
  5
8C
330
28
100
AcDbEntity
  8
一般
  6
Continuous
 62
     7
370
    18
390
1D
100
AcDbLine
 10
519.7727467865673
 20
147.0454506426867
 30
0.0
 11
531.7727467865673
 21
147.0454506426867
 31
0.0
  0
LINE
  5
8D
330
28
100
AcDbEntity
  8
一般
  6
Continuous
 62
     7
370
    18
390
1D
100
AcDbLine
 10
519.7727467865673
 20
137.0454506426867
 30
0.0
 11
531.7727467865673
 21
137.0454506426867
 31
0.0
  0
ENDBLK
  5
8E
330
28
100
AcDbEntity
  8
一般
390
1D
100
AcDbBlockEnd
  0
BLOCK
  5
8F
330
29
100
AcDbEntity
  8
一般
390
1D
100
AcDbBlockBegin
  2
グループ-4
 70
     0
 71
     0
 10
0.0
 20
0.0
 30
0.0
  3
グループ-4
  1

  0
LINE
  5
90
330
29
100
AcDbEntity
  8
一般
  6
Continuous
 62
     7
370
    18
390
1D
100
AcDbLine
 10
519.7727467865673
 20
-62.95454935731334
 30
0.0
 11
531.7727467865673
 21
-62.95454935731334
 31
0.0
  0
LINE
  5
91
330
29
100
AcDbEntity
  8
一般
  6
Continuous
 62
     7
370
    18
390
1D
100
AcDbLine
 10
519.7727467865673
 20
-72.95454935731334
 30
0.0
 11
531.7727467865673
 21
-72.95454935731334
 31
0.0
  0
ENDBLK
  5
92
330
29
100
AcDbEntity
  8
一般
390
1D
100
AcDbBlockEnd
  0
BLOCK
  5
93
330
2A
100
AcDbEntity
  8
一般
390
1D
100
AcDbBlockBegin
  2
グループ-5
 70
     0
 71
     0
 10
0.0
 20
0.0
 30
0.0
  3
グループ-5
  1

  0
POLYLINE
  5
94
330
2A
100
AcDbEntity
  8
一般
  6
Continuous
 62
     7
370
    18
390
1D
100
AcDb2dPolyline
 66
     1
 10
0.0
 20
0.0
 30
0.0
 70
     1
 75
     5
  0
VERTEX
  5
95
330
94
100
AcDbEntity
  8
一般
  6
Continuous
 62
     7
370
    18
390
1D
100
AcDbVertex
100
AcDb2dVertex
 10
519.7727467865673
 20
154.0454506426867
 30
0.0
  0
VERTEX
  5
96
330
94
100
AcDbEntity
  8
一般
  6
Continuous
 62
     7
370
    18
390
1D
100
AcDbVertex
100
AcDb2dVertex
 10
531.7727467865673
 20
154.0454506426867
 30
0.0
  0
VERTEX
  5
97
330
94
100
AcDbEntity
  8
一般
  6
Continuous
 62
     7
370
    18
390
1D
100
AcDbVertex
100
AcDb2dVertex
 10
531.7727467865673
 20
-80.95454935731331
 30
0.0
  0
VERTEX
  5
98
330
94
100
AcDbEntity
  8
一般
  6
Continuous
 62
     7
370
    18
390
1D
100
AcDbVertex
100
AcDb2dVertex
 10
519.7727467865673
 20
-80.95454935731331
 30
0.0
  0
SEQEND
  5
99
330
94
100
AcDbEntity
  8
一般
  6
Continuous
 62
     7
370
    18
390
1D
  0
POLYLINE
  5
9B
330
2A
100
AcDbEntity
  8
一般
  6
Continuous
 62
     7
370
    18
390
1D
100
AcDb2dPolyline
 66
     1
 10
0.0
 20
0.0
 30
0.0
 70
     1
 75
     5
  0
VERTEX
  5
9C
330
9B
100
AcDbEntity
  8
一般
  6
Continuous
 62
     7
370
    18
390
1D
100
AcDbVertex
100
AcDb2dVertex
 10
-516.2272532134332
 20
111.5454506426867
 30
0.0
  0
VERTEX
  5
9D
330
9B
100
AcDbEntity
  8
一般
  6
Continuous
 62
     7
370
    18
390
1D
100
AcDbVertex
100
AcDb2dVertex
 10
519.7727467865673
 20
111.5454506426867
 30
0.0
  0
VERTEX
  5
9E
330
9B
100
AcDbEntity
  8
一般
  6
Continuous
 62
     7
370
    18
390
1D
100
AcDbVertex
100
AcDb2dVertex
 10
519.7727467865673
 20
-38.45454935731334
 30
0.0
  0
VERTEX
  5
9F
330
9B
100
AcDbEntity
  8
一般
  6
Continuous
 62
     7
370
    18
390
1D
100
AcDbVertex
100
AcDb2dVertex
 10
-516.2272532134332
 20
-38.45454935731334
 30
0.0
  0
SEQEND
  5
A0
330
9B
100
AcDbEntity
  8
一般
  6
Continuous
 62
     7
370
    18
390
1D
  0
POLYLINE
  5
A2
330
2A
100
AcDbEntity
  8
一般
  6
Continuous
 62
     7
370
    18
390
1D
100
AcDb2dPolyline
 66
     1
 10
0.0
 20
0.0
 30
0.0
 70
     1
 75
     5
  0
VERTEX
  5
A3
330
A2
100
AcDbEntity
  8
一般
  6
Continuous
 62
     7
370
    18
390
1D
100
AcDbVertex
100
AcDb2dVertex
 10
-528.2272532134328
 20
154.0454506426867
 30
0.0
  0
VERTEX
  5
A4
330
A2
100
AcDbEntity
  8
一般
  6
Continuous
 62
     7
370
    18
390
1D
100
AcDbVertex
100
AcDb2dVertex
 10
-516.2272532134332
 20
154.0454506426867
 30
0.0
  0
VERTEX
  5
A5
330
A2
100
AcDbEntity
  8
一般
  6
Continuous
 62
     7
370
    18
390
1D
100
AcDbVertex
100
AcDb2dVertex
 10
-516.2272532134332
 20
-80.95454935731331
 30
0.0
  0
VERTEX
  5
A6
330
A2
100
AcDbEntity
  8
一般
  6
Continuous
 62
     7
370
    18
390
1D
100
AcDbVertex
100
AcDb2dVertex
 10
-528.2272532134328
 20
-80.95454935731331
 30
0.0
  0
SEQEND
  5
A7
330
A2
100
AcDbEntity
  8
一般
  6
Continuous
 62
     7
370
    18
390
1D
  0
INSERT
  5
A9
330
2A
100
AcDbEntity
  8
一般
 62
     7
390
1D
100
AcDbBlockReference
  2
グループ-1
 10
0.0
 20
0.0
 30
0.0
  0
INSERT
  5
AA
330
2A
100
AcDbEntity
  8
一般
 62
     7
390
1D
100
AcDbBlockReference
  2
グループ-2
 10
0.0
 20
0.0
 30
0.0
  0
INSERT
  5
AB
330
2A
100
AcDbEntity
  8
一般
 62
     7
390
1D
100
AcDbBlockReference
  2
グループ-3
 10
0.0
 20
0.0
 30
0.0
  0
INSERT
  5
AC
330
2A
100
AcDbEntity
  8
一般
 62
     7
390
1D
100
AcDbBlockReference
  2
グループ-4
 10
0.0
 20
0.0
 30
0.0
  0
WIPEOUT
  5
AD
330
2A
100
AcDbEntity
  8
一般
  6
Continuous
 62
     7
370
    18
390
1D
 92
      308
310
3401000002000000A80000000B000000C29C772FC8878040F8FACFA9E8025F40000000000000000000000000000000000000000000000000000000000000F03F000000000000F03F0000000000000000000000000000000041634462576970656F757400FFFFFFFF000000000000000000000000000000000000F03F000000
310
0000000000000000000000F03F000000000000000000000000000000000000000074787400424947464F4E542E53485800840000000600000005000000C29C772FC8878040F8FACFA9E8025F400000000000000000C29C772FC8AB8040F8FACFA9E8025F400000000000000000C29C772FC8AB80407CFDE754741160400000
310
000000000000C29C772FC88780407CFDE754741160400000000000000000C29C772FC8878040F8FACFA9E8025F400000000000000000
100
AcDbWipeout
 90
        0
 10
528.9727467865671
 20
124.0454506426867
 30
0.0
 11
4.5
 21
0.0
 31
0.0
 12
0.0
 22
4.5
 32
0.0
 13
1.0
 23
1.0
340
0
 70
     7
280
     1
281
    50
282
    50
283
     0
360
0
 71
     2
 91
        5
 14
-0.5
 24
-0.5
 14
0.1222222222222626
 24
-0.5
 14
0.1222222222222626
 24
0.5
 14
-0.5
 24
0.5
 14
-0.5
 24
-0.5
  0
POLYLINE
  5
AE
330
2A
100
AcDbEntity
  8
一般
  6
Continuous
 62
     7
370
    18
390
1D
100
AcDb2dPolyline
 66
     1
 10
0.0
 20
0.0
 30
0.0
 70
     1
 75
     5
  0
VERTEX
  5
AF
330
AE
100
AcDbEntity
  8
一般
  6
Continuous
 62
     7
370
    18
390
1D
100
AcDbVertex
100
AcDb2dVertex
 10
528.9727467865671
 20
128.5454506426867
 30
0.0
  0
VERTEX
  5
B0
330
AE
100
AcDbEntity
  8
一般
  6
Continuous
 62
     7
370
    18
390
1D
100
AcDbVertex
100
AcDb2dVertex
 10
531.7727467865673
 20
128.5454506426867
 30
0.0
  0
VERTEX
  5
B1
330
AE
100
AcDbEntity
  8
一般
  6
Continuous
 62
     7
370
    18
390
1D
100
AcDbVertex
100
AcDb2dVertex
 10
531.7727467865673
 20
124.0454506426867
 30
0.0
  0
VERTEX
  5
B2
330
AE
100
AcDbEntity
  8
一般
  6
Continuous
 62
     7
370
    18
390
1D
100
AcDbVertex
100
AcDb2dVertex
 10
528.9727467865671
 20
124.0454506426867
 30
0.0
  0
SEQEND
  5
B3
330
AE
100
AcDbEntity
  8
一般
  6
Continuous
 62
     7
370
    18
390
1D
  0
WIPEOUT
  5
B5
330
2A
100
AcDbEntity
  8
一般
  6
Continuous
 62
     7
370
    18
390
1D
 92
      308
310
3401000002000000A80000000B000000C29C772FC8878040100A60AC2EBA4BC0000000000000000000000000000000000000000000000000000000000000F03F000000000000F03F0000000000000000000000000000000041634462576970656F757400FFFFFFFF000000000000000000000000000000000000F03F000000
310
0000000000000000000000F03F000000000000000000000000000000000000000074787400424947464F4E542E53485800840000000600000005000000C29C772FC8878040100A60AC2EBA4BC00000000000000000C29C772FC8AB8040100A60AC2EBA4BC00000000000000000C29C772FC8AB8040100A60AC2E7A49C00000
310
000000000000C29C772FC8878040100A60AC2E7A49C00000000000000000C29C772FC8878040100A60AC2EBA4BC00000000000000000
100
AcDbWipeout
 90
        0
 10
528.9727467865671
 20
-55.45454935731334
 30
0.0
 11
4.5
 21
0.0
 31
0.0
 12
0.0
 22
4.5
 32
0.0
 13
1.0
 23
1.0
340
0
 70
     7
280
     1
281
    50
282
    50
283
     0
360
0
 71
     2
 91
        5
 14
-0.5
 24
-0.5
 14
0.1222222222222626
 24
-0.5
 14
0.1222222222222626
 24
0.5
 14
-0.5
 24
0.5
 14
-0.5
 24
-0.5
  0
POLYLINE
  5
B6
330
2A
100
AcDbEntity
  8
一般
  6
Continuous
 62
     7
370
    18
390
1D
100
AcDb2dPolyline
 66
     1
 10
0.0
 20
0.0
 30
0.0
 70
     1
 75
     5
  0
VERTEX
  5
B7
330
B6
100
AcDbEntity
  8
一般
  6
Continuous
 62
     7
370
    18
390
1D
100
AcDbVertex
100
AcDb2dVertex
 10
528.9727467865671
 20
-50.95454935731334
 30
0.0
  0
VERTEX
  5
B8
330
B6
100
AcDbEntity
  8
一般
  6
Continuous
 62
     7
370
    18
390
1D
100
AcDbVertex
100
AcDb2dVertex
 10
531.7727467865673
 20
-50.95454935731334
 30
0.0
  0
VERTEX
  5
B9
330
B6
100
AcDbEntity
  8
一般
  6
Continuous
 62
     7
370
    18
390
1D
100
AcDbVertex
100
AcDb2dVertex
 10
531.7727467865673
 20
-55.45454935731334
 30
0.0
  0
VERTEX
  5
BA
330
B6
100
AcDbEntity
  8
一般
  6
Continuous
 62
     7
370
    18
390
1D
100
AcDbVertex
100
AcDb2dVertex
 10
528.9727467865671
 20
-55.45454935731334
 30
0.0
  0
SEQEND
  5
BB
330
B6
100
AcDbEntity
  8
一般
  6
Continuous
 62
     7
370
    18
390
1D
  0
LINE
  5
BD
330
2A
100
AcDbEntity
  8
一般
  6
Continuous
 62
     7
370
    18
390
1D
100
AcDbLine
 10
-516.2272532134332
 20
111.5454506426868
 30
0.0
 11
-528.2272532134328
 21
111.5454506426868
 31
0.0
  0
LINE
  5
BE
330
2A
100
AcDbEntity
  8
一般
  6
Continuous
 62
     7
370
    18
390
1D
100
AcDbLine
 10
-516.2272532134332
 20
-38.45454935731323
 30
0.0
 11
-528.2272532134328
 21
-38.45454935731323
 31
0.0
  0
LINE
  5
BF
330
2A
100
AcDbEntity
  8
一般
  6
Continuous
 62
     7
370
    18
390
1D
100
AcDbLine
 10
519.7727467865673
 20
111.5454506426867
 30
0.0
 11
531.7727467865673
 21
111.5454506426867
 31
0.0
  0
LINE
  5
C0
330
2A
100
AcDbEntity
  8
一般
  6
Continuous
 62
     7
370
    18
390
1D
100
AcDbLine
 10
519.7727467865673
 20
-38.45454935731334
 30
0.0
 11
531.7727467865673
 21
-38.45454935731334
 31
0.0
  0
ENDBLK
  5
C1
330
2A
100
AcDbEntity
  8
一般
390
1D
100
AcDbBlockEnd
  0
BLOCK
  5
C2
330
2B
100
AcDbEntity
  8
寸法
390
1D
100
AcDbBlockBegin
  2
*D9
 70
     1
 71
     0
 10
0.0
 20
0.0
 30
0.0
  3
*D9
  1

  0
LINE
  5
C3
330
2B
100
AcDbEntity
  8
寸法
  6
Continuous
 62
     0
370
    -2
390
1D
100
AcDbLine
 10
-17.22725321343285
 20
130.3954506426866
 30
0.0
 11
-17.22725321343285
 21
217.7
 31
0.0
  0
LINE
  5
C4
330
2B
100
AcDbEntity
  8
寸法
  6
Continuous
 62
     0
370
    -2
390
1D
100
AcDbLine
 10
1042.772746786567
 20
130.3954506426866
 30
0.0
 11
1042.772746786567
 21
217.7
 31
0.0
  0
LINE
  5
C5
330
2B
100
AcDbEntity
  8
寸法
  6
Continuous
 62
     0
370
    -2
390
1D
100
AcDbLine
 10
-23.57725321343287
 20
205.0
 30
0.0
 11
-17.22725321343285
 21
205.0
 31
0.0
  0
LINE
  5
C6
330
2B
100
AcDbEntity
  8
寸法
  6
Continuous
 62
     0
370
    -2
390
1D
100
AcDbLine
 10
1042.772746786567
 20
205.0
 30
0.0
 11
1049.122746786567
 21
205.0
 31
0.0
  0
LINE
  5
C7
330
2B
100
AcDbEntity
  8
寸法
  6
Continuous
 62
     0
370
    -2
390
1D
100
AcDbLine
 10
-17.22725321343285
 20
205.0
 30
0.0
 11
1042.772746786567
 21
205.0
 31
0.0
  0
LINE
  5
C8
330
2B
100
AcDbEntity
  8
寸法
  6
Continuous
 62
     0
370
    20
390
1D
100
AcDbLine
 10
-12.73712515289822
 20
209.4901280605346
 30
0.0
 11
-21.71738127396748
 21
200.5098719394654
 31
0.0
  0
LINE
  5
C9
330
2B
100
AcDbEntity
  8
寸法
  6
Continuous
 62
     0
370
    20
390
1D
100
AcDbLine
 10
1038.282618726033
 20
200.5098719394654
 30
0.0
 11
1047.262874847102
 21
209.4901280605346
 31
0.0
  0
WIPEOUT
  5
CA
330
2B
100
AcDbEntity
  8
寸法
  6
Continuous
 62
     0
370
    -2
390
1D
 92
      308
310
3401000002000000A80000000B000000BFC7D2FFD56D7E40CCCCCCCCCC828740000000000000000000000000000000000000000000000000000000000000F03F000000000000F03F0000000000000000000000000000000041634462576970656F757400FFFFFFFF000000000000000000000000000000000000F03F000000
310
0000000000000000000000F03F000000000000000000000000000000000000000074787400424947464F4E542E53485800840000000600000005000000BFC7D2FFD56D7E40CCCCCCCCCC828740000000000000000073A2D22B72D58040CCCCCCCCCC828740000000000000000073A2D22B72D58040600BB6F8532189400000
310
000000000000BFC7D2FFD56D7E40600BB6F8532189400000000000000000BFC7D2FFD56D7E40CCCCCCCCCC8287400000000000000000
100
AcDbWipeout
 90
        0
 10
486.8647459252933
 20
752.3499999999999
 30
0.0
 11
51.81600172254774
 21
0.0
 31
0.0
 12
0.0
 22
51.81600172254774
 32
0.0
 13
1.0
 23
1.0
340
0
 70
     7
280
     1
281
    50
282
    50
283
     0
360
0
 71
     2
 91
        5
 14
-0.5
 24
10.9407901423352
 14
0.4999999999999992
 24
10.9407901423352
 14
0.4999999999999992
 24
10.34275094652987
 14
-0.5
 24
10.34275094652987
 14
-0.5
 24
10.9407901423352
  0
MTEXT
  5
CB
330
2B
100
AcDbEntity
  8
寸法
 62
     0
390
1D
100
AcDbMText
 10
486.8647459252933
 20
234.3062421874999
 30
0.0
 40
16.0982421875
 41
0.0
 71
     1
 72
     1
  1
1060
  7
Calibri (bold)
 73
     1
 44
1.159596784673362
  0
POINT
  5
CC
330
2B
100
AcDbEntity
  8
Defpoints
 62
     0
370
     0
390
1D
100
AcDbPoint
 10
1042.772746786567
 20
124.0454506426866
 30
0.0
  0
POINT
  5
CD
330
2B
100
AcDbEntity
  8
Defpoints
 62
     0
370
     0
390
1D
100
AcDbPoint
 10
-17.22725321343285
 20
124.0454506426866
 30
0.0
  0
POINT
  5
CE
330
2B
100
AcDbEntity
  8
Defpoints
 62
     0
370
     0
390
1D
100
AcDbPoint
 10
-17.22725321343285
 20
205.0
 30
0.0
  0
ENDBLK
  5
CF
330
2B
100
AcDbEntity
  8
寸法
390
1D
100
AcDbBlockEnd
  0
ENDSEC
  0
SECTION
  2
ENTITIES
  0
INSERT
  5
D0
330
A
100
AcDbEntity
  8
一般
 62
     7
390
1D
100
AcDbBlockReference
  2
Drawing Border - Universal
 10
511.0
 20
-30.00000000000001
 30
0.0
  0
WIPEOUT
  5
D1
330
A
100
AcDbEntity
  8
一般
  6
Continuous
 62
     7
370
    18
390
1D
 92
      308
310
3401000002000000A80000000B000000F4979B68062963C0AF269E158D1C8D40000000000000000000000000000000000000000000000000000000000000F03F000000000000F03F0000000000000000000000000000000041634462576970656F757400FFFFFFFF000000000000000000000000000000000000F03F000000
310
0000000000000000000000F03F000000000000000000000000000000000000000074787400424947464F4E542E53485800840000000600000005000000F4979B68062963C0AF269E158D1C8D4000000000000000001CA073C2944E7240AF269E158D1C8D4000000000000000001CA073C2944E72405D6E7F880C8795400000
310
000000000000F4979B68062963C05D6E7F880C8795400000000000000000F4979B68062963C0AF269E158D1C8D400000000000000000
100
AcDbWipeout
 90
        0
 10
-153.2820323027551
 20
931.5688888888889
 30
0.0
 11
446.1933505588107
 21
0.0
 31
0.0
 12
0.0
 22
446.1933505588107
 32
0.0
 13
1.0
 23
1.0
340
0
 70
     7
280
     1
281
    50
282
    50
283
     0
360
0
 71
     2
 91
        5
 14
-0.5
 24
1.712478848737781
 14
0.5
 24
1.712478848737781
 14
0.5
 24
1.635312501305688
 14
-0.5
 24
1.635312501305688
 14
-0.5
 24
1.712478848737781
  0
MTEXT
  5
D2
330
A
100
AcDbEntity
  8
一般
 62
     7
390
1D
100
AcDbMText
 10
-153.2820323027551
 20
416.0758246527778
 30
0.0
 40
17.88693576388889
 41
0.0
 71
     1
 72
     1
  1
G. VF150 - VG150 I管 (両間:1060mm)
  7
Calibri (bold)
 73
     1
 44
1.159596784673362
  0
MTEXT
  5
D3
330
A
100
AcDbEntity
  8
一般
 62
     7
390
1D
100
AcDbMText
 10
-9.0
 20
-235.0
 30
0.0
 40
16.0982421875
 41
0.0
 71
     5
 72
     1
  1
VF150\P内径150mm
  7
Calibri (bold)
 73
     1
 44
1.159596784673362
  0
MTEXT
  5
D4
330
A
100
AcDbEntity
  8
一般
 62
     7
390
1D
100
AcDbMText
 10
1051.0
 20
-230.0
 30
0.0
 40
16.0982421875
 41
0.0
 71
     5
 72
     1
  1
VG150 (V175)\P内径150mm
  7
Calibri (bold)
 73
     1
 44
1.159596784673362
  0
MTEXT
  5
D5
330
A
100
AcDbEntity
  8
一般
 62
     7
390
1D
100
AcDbMText
 10
511.0
 20
-240.0
 30
0.0
 40
16.0982421875
 41
0.0
 71
     5
 72
     1
  1
φ150mm
  7
Calibri (bold)
 73
     1
 44
1.159596784673362
  0
LINE
  5
D6
330
A
100
AcDbEntity
  8
一般
  6
STYLE_06
 62
     7
370
    18
390
1D
100
AcDbLine
 10
1036.772746786567
 20
-110.9545493573133
 30
0.0
 11
1051.0
 21
-199.012
 31
0.0
  0
LINE
  5
D7
330
A
100
AcDbEntity
  8
一般
  6
STYLE_06
 62
     7
370
    18
390
1D
100
AcDbLine
 10
491.0
 20
-75.00000000000001
 30
0.0
 11
511.0
 21
-224.506
 31
0.0
  0
LINE
  5
D8
330
A
100
AcDbEntity
  8
一般
  6
STYLE_06
 62
     7
370
    18
390
1D
100
AcDbLine
 10
-11.22725321343296
 20
-110.9545493573133
 30
0.0
 11
-19.0
 21
-195.0
 31
0.0
  0
INSERT
  5
D9
330
A
100
AcDbEntity
  8
一般
 62
     7
390
1D
100
AcDbBlockReference
  2
グループ-5
 10
511.0
 20
-30.00000000000001
 30
0.0
  0
DIMENSION
  5
DA
330
A
100
AcDbEntity
  8
寸法
  6
Continuous
 62
     7
370
    18
390
1D
100
AcDbDimension
  2
*D9
 10
-17.22725321343285
 20
205.0
 30
0.0
 11
512.7727467865672
 21
205.0
 31
0.0
 70
    32
 71
     5
 42
-1.0
  3
Arch
100
AcDbAlignedDimension
 13
1042.772746786567
 23
124.0454506426866
 33
0.0
 14
-17.22725321343285
 24
124.0454506426866
 34
0.0
100
AcDbRotatedDimension
1001
ACAD
1000
DSTYLE
1002
{
1070
   279
1070
     2
1070
   340
1005
2C
1070
   147
1040
6.35
1002
}
  0
ENDSEC
  0
SECTION
  2
OBJECTS
  0
DICTIONARY
  5
19
330
0
100
AcDbDictionary
281
     1
  3
ACAD_GROUP
350
1A
  3
ACAD_LAYOUT
350
1E
  3
ACAD_MLINESTYLE
350
1B
  3
ACAD_PLOTSETTINGS
350
22
  3
ACAD_PLOTSTYLENAME
350
1F
  3
ACAD_WIPEOUT_VARS
350
23
  0
DICTIONARY
  5
1A
102
{ACAD_REACTORS
330
19
102
}
330
19
100
AcDbDictionary
281
     1
  0
DICTIONARY
  5
1E
102
{ACAD_REACTORS
330
19
102
}
330
19
100
AcDbDictionary
281
     1
  3
Layout1
350
21
  3
Model
350
20
  0
DICTIONARY
  5
1B
102
{ACAD_REACTORS
330
19
102
}
330
19
100
AcDbDictionary
281
     1
  3
Standard
350
1C
  0
DICTIONARY
  5
22
102
{ACAD_REACTORS
330
19
102
}
330
19
100
AcDbDictionary
281
     1
  0
ACDBDICTIONARYWDFLT
  5
1F
102
{ACAD_REACTORS
330
19
102
}
330
19
100
AcDbDictionary
281
     1
  3
Normal
350
1D
100
AcDbDictionaryWithDefault
340
1D
  0
WIPEOUTVARIABLES
  5
23
330
19
100
AcDbWipeoutVariables
 70
     0
  0
LAYOUT
  5
21
102
{ACAD_REACTORS
330
1E
102
}
330
1E
100
AcDbPlotSettings
  1

  2

  4

  6

 40
0.0
 41
0.0
 42
0.0
 43
0.0
 44
0.0
 45
0.0
 46
0.0
 47
0.0
 48
0.0
 49
0.0
140
0.0
141
0.0
142
1.0
143
1.0
 70
     0
 72
     0
 73
     0
 74
     0
  7

 75
     0
 76
     0
 77
     2
 78
   300
147
1.0
148
0.0
149
0.0
100
AcDbLayout
  1
Layout1
 70
     0
 71
     0
 10
0.0
 20
0.0
 11
0.0
 21
0.0
 12
0.0
 22
0.0
 32
0.0
 14
0.0
 24
0.0
 34
0.0
 15
0.0
 25
0.0
 35
0.0
146
0.0
 13
0.0
 23
0.0
 33
0.0
 16
0.0
 26
0.0
 36
0.0
 17
0.0
 27
0.0
 37
0.0
 76
     0
330
B
  0
LAYOUT
  5
20
102
{ACAD_REACTORS
330
1E
102
}
330
1E
100
AcDbPlotSettings
  1

  2

  4

  6

 40
0.0
 41
0.0
 42
0.0
 43
0.0
 44
0.0
 45
0.0
 46
0.0
 47
0.0
 48
0.0
 49
0.0
140
0.0
141
0.0
142
1.0
143
1.0
 70
  1024
 72
     0
 73
     0
 74
     0
  7

 75
     0
 76
     0
 77
     2
 78
   300
147
1.0
148
0.0
149
0.0
100
AcDbLayout
  1
Model
 70
     0
 71
     0
 10
0.0
 20
0.0
 11
0.0
 21
0.0
 12
0.0
 22
0.0
 32
0.0
 14
0.0
 24
0.0
 34
0.0
 15
0.0
 25
0.0
 35
0.0
146
0.0
 13
0.0
 23
0.0
 33
0.0
 16
0.0
 26
0.0
 36
0.0
 17
0.0
 27
0.0
 37
0.0
 76
     0
330
A
  0
MLINESTYLE
  5
1C
102
{ACAD_REACTORS
330
1B
102
}
330
1B
100
AcDbMlineStyle
  2
Standard
 70
     0
  3

 62
     0
 51
90.0
 52
90.0
 71
     2
 49
0.5
 62
   256
  6
BYLAYER
 49
-0.5
 62
   256
  6
BYLAYER
  0
ACDBPLACEHOLDER
  5
1D
102
{ACAD_REACTORS
330
1F
102
}
330
1F
  0
ENDSEC
  0
EOF
