  0
SECTION
  2
HEADER
  9
$ACADVER
  1
AC1018
  9
$ACADMAINTVER
 70
     0
  9
$DWGCODEPAGE
  3
ANSI_932
  9
$INSBASE
 10
0.0
 20
0.0
 30
0.0
  9
$EXTMIN
 10
-279.1380694215683
 20
-281.5565222475836
 30
-4.200101666666666
  9
$EXTMAX
 10
560.8602505784316
 20
312.4427977524164
 30
4.200101666666666
  9
$LIMMIN
 10
0.0
 20
0.0
  9
$LIMMAX
 10
0.0
 20
0.0
  9
$ORTHOMODE
 70
     0
  9
$REGENMODE
 70
     1
  9
$FILLMODE
 70
     1
  9
$QTEXTMODE
 70
     0
  9
$MIRRTEXT
 70
     1
  9
$LTSCALE
 40
10.16
  9
$ATTMODE
 70
     1
  9
$TEXTSIZE
 40
0.2
  9
$TRACEWID
 40
1.0
  9
$TEXTSTYLE
  7
Standard
  9
$CLAYER
  8
一般
  9
$CELTYPE
  6
Continuous
  9
$CECOLOR
 62
   256
  9
$CELTSCALE
 40
1.0
  9
$DISPSILH
 70
     0
  9
$DIMSCALE
 40
1.0
  9
$DIMASZ
 40
4.4896484375
  9
$DIMEXO
 40
3.175
  9
$DIMDLI
 40
10.16
  9
$DIMRND
 40
0.0
  9
$DIMDLE
 40
1.5875
  9
$DIMEXE
 40
6.35
  9
$DIMTP
 40
0.0
  9
$DIMTM
 40
0.0
  9
$DIMTXT
 40
8.04912109375
  9
$DIMCEN
 40
0.0
  9
$DIMTSZ
 40
0.0
  9
$DIMTOL
 70
     0
  9
$DIMLIM
 70
     0
  9
$DIMTIH
 70
     0
  9
$DIMTOH
 70
     0
  9
$DIMSE1
 70
     0
  9
$DIMSE2
 70
     0
  9
$DIMTAD
 70
     1
  9
$DIMZIN
 70
    11
  9
$DIMBLK
  1
VW_SLASH
  9
$DIMASO
 70
     1
  9
$DIMSHO
 70
     1
  9
$DIMPOST
  1
<>
  9
$DIMAPOST
  1
[]
  9
$DIMALT
 70
     0
  9
$DIMALTD
 70
     3
  9
$DIMALTF
 40
0.0010936132983377
  9
$DIMLFAC
 40
1.0
  9
$DIMTOFL
 70
     1
  9
$DIMTVP
 40
0.0
  9
$DIMTIX
 70
     1
  9
$DIMSOXD
 70
     0
  9
$DIMSAH
 70
     0
  9
$DIMBLK1
  1

  9
$DIMBLK2
  1

  9
$DIMSTYLE
  2
Arch
  9
$DIMCLRD
 70
     0
  9
$DIMCLRE
 70
     0
  9
$DIMCLRT
 70
     0
  9
$DIMTFAC
 40
1.0
  9
$DIMGAP
 40
1.5875
  9
$DIMJUST
 70
     0
  9
$DIMSD1
 70
     0
  9
$DIMSD2
 70
     0
  9
$DIMTOLJ
 70
     1
  9
$DIMTZIN
 70
    11
  9
$DIMALTZ
 70
     7
  9
$DIMALTTZ
 70
     7
  9
$DIMUPT
 70
     0
  9
$DIMDEC
 70
     1
  9
$DIMTDEC
 70
     1
  9
$DIMALTU
 70
     2
  9
$DIMALTTD
 70
     2
  9
$DIMTXSTY
  7
Calibri (bold)
  9
$DIMAUNIT
 70
     0
  9
$DIMADEC
 70
     2
  9
$DIMALTRND
 40
0.0
  9
$DIMAZIN
 70
     0
  9
$DIMDSEP
 70
    46
  9
$DIMATFIT
 70
     0
  9
$DIMFRAC
 70
     2
  9
$DIMLDRBLK
  1

  9
$DIMLUNIT
 70
     2
  9
$DIMLWD
 70
    -2
  9
$DIMLWE
 70
    -2
  9
$DIMTMOVE
 70
     0
  9
$LUNITS
 70
     2
  9
$LUPREC
 70
     4
  9
$SKETCHINC
 40
0.1
  9
$FILLETRAD
 40
0.0
  9
$AUNITS
 70
     0
  9
$AUPREC
 70
     0
  9
$MENU
  1
acad
  9
$ELEVATION
 40
0.0
  9
$PELEVATION
 40
0.0
  9
$THICKNESS
 40
0.0
  9
$LIMCHECK
 70
     0
  9
$CHAMFERA
 40
0.0
  9
$CHAMFERB
 40
0.0
  9
$CHAMFERC
 40
0.0
  9
$CHAMFERD
 40
0.0
  9
$SKPOLY
 70
     0
  9
$TDCREATE
 40
2447893.375
  9
$TDUCREATE
 40
0.0
  9
$TDUPDATE
 40
2447893.375
  9
$TDUUPDATE
 40
0.0
  9
$TDINDWG
 40
0.0
  9
$TDUSRTIMER
 40
0.0
  9
$USRTIMER
 70
     1
  9
$ANGBASE
 50
0.0
  9
$ANGDIR
 70
     0
  9
$PDMODE
 70
     1
  9
$PDSIZE
 40
-2.0
  9
$PLINEWID
 40
0.0
  9
$SPLFRAME
 70
     0
  9
$SPLINETYPE
 70
     6
  9
$SPLINESEGS
 70
     8
  9
$HANDSEED
  5
146
  9
$SURFTAB1
 70
     6
  9
$SURFTAB2
 70
     6
  9
$SURFTYPE
 70
     6
  9
$SURFU
 70
     6
  9
$SURFV
 70
     6
  9
$UCSBASE
  2

  9
$UCSNAME
  2

  9
$UCSORG
 10
0.0
 20
0.0
 30
0.0
  9
$UCSXDIR
 10
1.0
 20
0.0
 30
0.0
  9
$UCSYDIR
 10
0.0
 20
1.0
 30
0.0
  9
$UCSORTHOREF
  2

  9
$UCSORTHOVIEW
 70
     0
  9
$UCSORGTOP
 10
0.0
 20
0.0
 30
0.0
  9
$UCSORGBOTTOM
 10
0.0
 20
0.0
 30
0.0
  9
$UCSORGLEFT
 10
0.0
 20
0.0
 30
0.0
  9
$UCSORGRIGHT
 10
0.0
 20
0.0
 30
0.0
  9
$UCSORGFRONT
 10
0.0
 20
0.0
 30
0.0
  9
$UCSORGBACK
 10
0.0
 20
0.0
 30
0.0
  9
$PUCSBASE
  2

  9
$PUCSNAME
  2

  9
$PUCSORG
 10
0.0
 20
0.0
 30
0.0
  9
$PUCSXDIR
 10
1.0
 20
0.0
 30
0.0
  9
$PUCSYDIR
 10
0.0
 20
1.0
 30
0.0
  9
$PUCSORTHOREF
  2

  9
$PUCSORTHOVIEW
 70
     0
  9
$PUCSORGTOP
 10
0.0
 20
0.0
 30
0.0
  9
$PUCSORGBOTTOM
 10
0.0
 20
0.0
 30
0.0
  9
$PUCSORGLEFT
 10
0.0
 20
0.0
 30
0.0
  9
$PUCSORGRIGHT
 10
0.0
 20
0.0
 30
0.0
  9
$PUCSORGFRONT
 10
0.0
 20
0.0
 30
0.0
  9
$PUCSORGBACK
 10
0.0
 20
0.0
 30
0.0
  9
$USERI1
 70
     0
  9
$USERI2
 70
     0
  9
$USERI3
 70
     0
  9
$USERI4
 70
     0
  9
$USERI5
 70
     0
  9
$USERR1
 40
0.0
  9
$USERR2
 40
0.0
  9
$USERR3
 40
0.0
  9
$USERR4
 40
0.0
  9
$USERR5
 40
0.0
  9
$WORLDVIEW
 70
     1
  9
$SHADEDGE
 70
     3
  9
$SHADEDIF
 70
    70
  9
$TILEMODE
 70
     1
  9
$MAXACTVP
 70
    64
  9
$PINSBASE
 10
0.0
 20
0.0
 30
0.0
  9
$PLIMCHECK
 70
     0
  9
$PEXTMIN
 10
1.000000000000000E+20
 20
1.000000000000000E+20
 30
1.000000000000000E+20
  9
$PEXTMAX
 10
-1.000000000000000E+20
 20
-1.000000000000000E+20
 30
-1.000000000000000E+20
  9
$PLIMMIN
 10
0.0
 20
0.0
  9
$PLIMMAX
 10
12.0
 20
9.0
  9
$UNITMODE
 70
     0
  9
$VISRETAIN
 70
     0
  9
$PLINEGEN
 70
     1
  9
$PSLTSCALE
 70
     0
  9
$TREEDEPTH
 70
  3020
  9
$CMLSTYLE
  2
Standard
  9
$CMLJUST
 70
     0
  9
$CMLSCALE
 40
1.0
  9
$PROXYGRAPHICS
 70
     0
  9
$MEASUREMENT
 70
     1
  9
$CELWEIGHT
370
     0
  9
$ENDCAPS
280
     0
  9
$JOINSTYLE
280
     0
  9
$LWDISPLAY
290
     1
  9
$INSUNITS
 70
     4
  9
$HYPERLINKBASE
  1

  9
$STYLESHEET
  1

  9
$XEDIT
290
     1
  9
$CEPSNTYPE
380
     0
  9
$PSTYLEMODE
290
     1
  9
$FINGERPRINTGUID
  2

  9
$VERSIONGUID
  2

  9
$EXTNAMES
290
     1
  9
$PSVPSCALE
 40
0.0
  9
$OLESTARTUP
290
     0
  9
$SORTENTS
280
   127
  9
$INDEXCTL
280
     0
  9
$HIDETEXT
280
     1
  9
$XCLIPFRAME
290
     0
  9
$HALOGAP
280
     0
  9
$OBSCOLOR
 70
   257
  9
$OBSLTYPE
280
     0
  9
$INTERSECTIONDISPLAY
280
     0
  9
$INTERSECTIONCOLOR
 70
   257
  9
$DIMASSOC
280
     2
  9
$PROJECTNAME
  1

  0
ENDSEC
  0
SECTION
  2
CLASSES
  0
CLASS
  1
LWPOLYLINE
  2
AcDbPolyline
  3
AutoCAD 2000
 90
        0
 91
        1
280
     0
281
     1
  0
CLASS
  1
IMAGE
  2
AcDbRasterImage
  3
ISM
 90
      127
 91
        4
280
     0
281
     1
  0
CLASS
  1
OLE2FRAME
  2
AcDbOle2Frame
  3
AutoCAD 2000
 90
        0
 91
        1
280
     0
281
     1
  0
CLASS
  1
HATCH
  2
AcDbHatch
  3
AutoCAD 2000
 90
        0
 91
        1
280
     0
281
     1
  0
CLASS
  1
DICTIONARYVAR
  2
AcDbDictionaryVar
  3
ObjectDBX Classes
 90
        0
 91
        3
280
     0
281
     0
  0
CLASS
  1
RASTERVARIABLES
  2
AcDbRasterVariables
  3
ISM
 90
        0
 91
        3
280
     0
281
     0
  0
CLASS
  1
IMAGEDEF
  2
AcDbRasterImageDef
  3
ISM
 90
        0
 91
        3
280
     0
281
     0
  0
CLASS
  1
IMAGEDEF_REACTOR
  2
AcDbRasterImageDefReactor
  3
ISM
 90
        1
 91
        3
280
     0
281
     0
  0
CLASS
  1
IDBUFFER
  2
AcDbIdBuffer
  3
ObjectDBX Classes
 90
        0
 91
        3
280
     0
281
     0
  0
CLASS
  1
SPATIAL_FILTER
  2
AcDbSpatialFilter
  3
ObjectDBX Classes
 90
        0
 91
        3
280
     0
281
     0
  0
CLASS
  1
XRECORD
  2
AcDbXrecord
  3
AutoCAD 2000
 90
        0
 91
        1
280
     0
281
     0
  0
CLASS
  1
SORTENTSTABLE
  2
AcDbSortentsTable
  3
ObjectDBX Classes
 90
        0
 91
        3
280
     0
281
     0
  0
CLASS
  1
LAYER_INDEX
  2
AcDbLayerIndex
  3
ObjectDBX Classes
 90
        0
 91
        3
280
     0
281
     0
  0
CLASS
  1
SPATIAL_INDEX
  2
AcDbSpatialIndex
  3
AutoCAD 2000
 90
        0
 91
        3
280
     0
281
     0
  0
CLASS
  1
OBJECT_PTR
  2
CAseDLPNTableRecord
  3
ASE-LPNTableRecord
 90
        1
 91
        3
280
     0
281
     0
  0
CLASS
  1
LAYOUT
  2
AcDbLayout
  3
ObjectDBX Classes
 90
        0
 91
        1
280
     0
281
     0
  0
CLASS
  1
PLOTSETTINGS
  2
AcDbPlotSettings
  3
ObjectDBX Classes
 90
        0
 91
        3
280
     0
281
     0
  0
CLASS
  1
ACDBDICTIONARYWDFLT
  2
AcDbDictionaryWithDefault
  3
ObjectDBX Classes
 90
        0
 91
        3
280
     0
281
     0
  0
CLASS
  1
ACDBPLACEHOLDER
  2
AcDbPlaceHolder
  3
ObjectDBX Classes
 90
        0
 91
        1
280
     0
281
     0
  0
CLASS
  1
VBA_PROJECT
  2
AcDbVbaProject
  3
ObjectDBX Classes
 90
        0
 91
        1
280
     0
281
     0
  0
CLASS
  1
WIPEOUT
  2
AcDbWipeout
  3
WipeOut|AutoCAD Express Tool|expresstools@autodesk.com
 90
      127
 91
        3
280
     0
281
     1
  0
CLASS
  1
WIPEOUTVARIABLES
  2
AcDbWipeoutVariables
  3
WipeOut|AutoCAD Express Tool|expresstools@autodesk.com
 90
        0
 91
        3
280
     0
281
     0
  0
CLASS
  1
RTEXT
  2
RText
  3
RText|AutoCAD Express Tool|expresstools@autodesk.com
 90
        0
 91
        3
280
     0
281
     1
  0
CLASS
  1
ARCALIGNEDTEXT
  2
AcDbArcAlignedText
  3
ATEXT|AutoCAD Express Tool|expresstools@autodesk.com
 90
        0
 91
        3
280
     0
281
     1
  0
ENDSEC
  0
SECTION
  2
TABLES
  0
TABLE
  2
VPORT
  5
7
330
0
100
AcDbSymbolTable
 70
     1
  0
VPORT
  5
15
330
7
100
AcDbSymbolTableRecord
100
AcDbViewportTableRecord
  2
*ACTIVE
 70
     0
 10
0.0
 20
0.0
 11
1.0
 21
1.0
 12
140.8610905784317
 22
15.44313775241636
 13
0.0
 23
0.0
 14
1.0
 24
1.0
 15
0.0
 25
0.0
 16
0.0
 26
0.0
 36
1.0
 17
0.0
 27
0.0
 37
0.0
 40
593.99932
 41
0.688564
 42
50.0
 43
0.0
 44
0.0
 50
0.0
 51
0.0
 71
     0
 72
  2000
 73
     1
 74
     1
 75
     0
 76
     0
 77
     0
 78
     0
281
     0
 65
     0
110
0.0
120
0.0
130
0.0
111
1.0
121
0.0
131
0.0
112
0.0
122
1.0
132
0.0
 79
     0
146
0.0
  0
ENDTAB
  0
TABLE
  2
LTYPE
  5
4
330
0
100
AcDbSymbolTable
 70
    11
  0
LTYPE
  5
11
330
4
100
AcDbSymbolTableRecord
100
AcDbLinetypeTableRecord
  2
ByBlock
 70
     0
  3

 72
    65
 73
     0
 40
0.0
  0
LTYPE
  5
12
330
4
100
AcDbSymbolTableRecord
100
AcDbLinetypeTableRecord
  2
ByLayer
 70
     0
  3

 72
    65
 73
     0
 40
0.0
  0
LTYPE
  5
13
330
4
100
AcDbSymbolTableRecord
100
AcDbLinetypeTableRecord
  2
Continuous
 70
     0
  3
Solid line
 72
    65
 73
     0
 40
0.0
  0
LTYPE
  5
31
330
4
100
AcDbSymbolTableRecord
100
AcDbLinetypeTableRecord
  2
STYLE_01
 70
     0
  3

 72
    65
 73
     2
 40
0.41664
 49
0.20828
 74
     0
 49
-0.20836
 74
     0
  0
LTYPE
  5
32
330
4
100
AcDbSymbolTableRecord
100
AcDbLinetypeTableRecord
  2
STYLE_02
 70
     0
  3

 72
    65
 73
     2
 40
0.6944250000000001
 49
0.48607
 74
     0
 49
-0.2083550000000001
 74
     0
  0
LTYPE
  5
33
330
4
100
AcDbSymbolTableRecord
100
AcDbLinetypeTableRecord
  2
STYLE_03
 70
     0
  3

 72
    65
 73
     2
 40
1.25
 49
1.04164
 74
     0
 49
-0.2083599999999999
 74
     0
  0
LTYPE
  5
34
330
4
100
AcDbSymbolTableRecord
100
AcDbLinetypeTableRecord
  2
STYLE_04
 70
     0
  3

 72
    65
 73
     2
 40
1.52771
 49
1.319425
 74
     0
 49
-0.208285
 74
     0
  0
LTYPE
  5
35
330
4
100
AcDbSymbolTableRecord
100
AcDbLinetypeTableRecord
  2
STYLE_05
 70
     0
  3

 72
    65
 73
     2
 40
0.20828
 49
0.069425
 74
     0
 49
-0.138855
 74
     0
  0
LTYPE
  5
36
330
4
100
AcDbSymbolTableRecord
100
AcDbLinetypeTableRecord
  2
STYLE_06
 70
     0
  3

 72
    65
 73
     4
 40
1.04164
 49
0.625
 74
     0
 49
-0.20828
 74
     0
 49
0.06943
 74
     0
 49
-0.13893
 74
     0
  0
LTYPE
  5
37
330
4
100
AcDbSymbolTableRecord
100
AcDbLinetypeTableRecord
  2
STYLE_07
 70
     0
  3

 72
    65
 73
     6
 40
1.875
 49
0.625
 74
     0
 49
-0.20828
 74
     0
 49
0.6250000000000001
 74
     0
 49
-0.2083599999999999
 74
     0
 49
0.06943
 74
     0
 49
-0.1389299999999999
 74
     0
  0
LTYPE
  5
38
330
4
100
AcDbSymbolTableRecord
100
AcDbLinetypeTableRecord
  2
STYLE_08
 70
     0
  3

 72
    65
 73
     6
 40
1.25
 49
0.625
 74
     0
 49
-0.20828
 74
     0
 49
0.06943
 74
     0
 49
-0.13893
 74
     0
 49
0.0694299999999999
 74
     0
 49
-0.13893
 74
     0
  0
LTYPE
  5
39
330
4
100
AcDbSymbolTableRecord
100
AcDbLinetypeTableRecord
  2
STYLE_09
 70
     0
  3

 72
    65
 73
     4
 40
5.0
 49
3.75
 74
     0
 49
-0.2777849999999998
 74
     0
 49
0.6944300000000003
 74
     0
 49
-0.2777849999999998
 74
     0
  0
LTYPE
  5
3A
330
4
100
AcDbSymbolTableRecord
100
AcDbLinetypeTableRecord
  2
STYLE_10
 70
     0
  3

 72
    65
 73
     6
 40
5.9375
 49
3.75
 74
     0
 49
-0.2777849999999998
 74
     0
 49
0.6944300000000003
 74
     0
 49
-0.2777849999999998
 74
     0
 49
0.625
 74
     0
 49
-0.3125
 74
     0
  0
ENDTAB
  0
TABLE
  2
LAYER
  5
2
330
0
100
AcDbSymbolTable
 70
     4
  0
LAYER
  5
14
330
2
100
AcDbSymbolTableRecord
100
AcDbLayerTableRecord
  2
0
 70
     0
 62
     7
  6
Continuous
370
    -3
390
1D
  0
LAYER
  5
3B
330
2
100
AcDbSymbolTableRecord
100
AcDbLayerTableRecord
  2
一般
 70
     0
 62
     7
  6
Continuous
370
   100
390
1D
  0
LAYER
  5
3C
330
2
100
AcDbSymbolTableRecord
100
AcDbLayerTableRecord
  2
寸法
 70
     0
 62
     7
  6
Continuous
370
   100
390
1D
  0
LAYER
  5
3D
330
2
100
AcDbSymbolTableRecord
100
AcDbLayerTableRecord
  2
Defpoints
 70
     0
 62
     7
  6
Continuous
290
     0
370
    -3
390
1D
  0
ENDTAB
  0
TABLE
  2
STYLE
  5
3
330
0
100
AcDbSymbolTable
 70
     2
  0
STYLE
  5
17
330
3
100
AcDbSymbolTableRecord
100
AcDbTextStyleTableRecord
  2
Standard
 70
     0
 40
0.0
 41
1.0
 50
0.0
 71
     0
 42
0.0
  3
txt
  4
BIGFONT.SHX
  0
STYLE
  5
30
330
3
100
AcDbSymbolTableRecord
100
AcDbTextStyleTableRecord
  2
Calibri (bold)
 70
     0
 40
0.0
 41
1.0
 50
0.0
 71
     0
 42
0.0
  3

  4
Calibri
1001
ACAD
1000
Calibri
1071
 33554432
  0
ENDTAB
  0
TABLE
  2
VIEW
  5
5
330
0
100
AcDbSymbolTable
 70
     0
  0
ENDTAB
  0
TABLE
  2
UCS
  5
6
330
0
100
AcDbSymbolTable
 70
     0
  0
ENDTAB
  0
TABLE
  2
APPID
  5
8
330
0
100
AcDbSymbolTable
 70
     1
  0
APPID
  5
16
330
8
100
AcDbSymbolTableRecord
100
AcDbRegAppTableRecord
  2
ACAD
 70
     0
  0
ENDTAB
  0
TABLE
  2
DIMSTYLE
  5
9
330
0
100
AcDbSymbolTable
 70
     2
100
AcDbDimStyleTable
  0
DIMSTYLE
105
18
330
9
100
AcDbSymbolTableRecord
100
AcDbDimStyleTableRecord
  2
Standard
 70
     0
340
17
  0
DIMSTYLE
105
47
330
9
100
AcDbSymbolTableRecord
100
AcDbDimStyleTableRecord
  2
Arch
 70
     0
  3
<>
  4
[]
 41
4.4896484375
 42
3.175
 43
10.16
 44
6.35
 46
1.5875
 73
     0
 74
     0
 77
     1
 78
    11
140
8.04912109375
141
0.0
143
0.0010936132983377
147
1.5875
171
     3
172
     1
174
     1
179
     2
271
     1
272
     1
276
     2
284
    11
285
     7
286
     7
289
     0
340
30
341
43
342
3E
  0
ENDTAB
  0
TABLE
  2
BLOCK_RECORD
  5
1
330
0
100
AcDbSymbolTable
 70
    14
  0
BLOCK_RECORD
  5
A
330
1
100
AcDbSymbolTableRecord
100
AcDbBlockTableRecord
  2
*MODEL_SPACE
340
20
  0
BLOCK_RECORD
  5
B
330
1
100
AcDbSymbolTableRecord
100
AcDbBlockTableRecord
  2
*PAPER_SPACE
340
21
  0
BLOCK_RECORD
  5
3E
330
1
100
AcDbSymbolTableRecord
100
AcDbBlockTableRecord
  2
VW_SLASH
340
0
  0
BLOCK_RECORD
  5
43
330
1
100
AcDbSymbolTableRecord
100
AcDbBlockTableRecord
  2
VW_FILLEDARROW
340
0
  0
BLOCK_RECORD
  5
24
330
1
100
AcDbSymbolTableRecord
100
AcDbBlockTableRecord
  2
グループ
340
0
102
{BLKREFS
331
6F
102
}
  0
BLOCK_RECORD
  5
25
330
1
100
AcDbSymbolTableRecord
100
AcDbBlockTableRecord
  2
グループ-1
340
0
102
{BLKREFS
331
70
102
}
  0
BLOCK_RECORD
  5
26
330
1
100
AcDbSymbolTableRecord
100
AcDbBlockTableRecord
  2
グループ-2
340
0
102
{BLKREFS
331
135
102
}
  0
BLOCK_RECORD
  5
27
330
1
100
AcDbSymbolTableRecord
100
AcDbBlockTableRecord
  2
グループ-3
340
0
102
{BLKREFS
331
136
102
}
  0
BLOCK_RECORD
  5
28
330
1
100
AcDbSymbolTableRecord
100
AcDbBlockTableRecord
  2
*D6
340
0
  0
BLOCK_RECORD
  5
29
330
1
100
AcDbSymbolTableRecord
100
AcDbBlockTableRecord
  2
*D7
340
0
  0
BLOCK_RECORD
  5
2A
330
1
100
AcDbSymbolTableRecord
100
AcDbBlockTableRecord
  2
*D8
340
0
  0
BLOCK_RECORD
  5
2B
330
1
100
AcDbSymbolTableRecord
100
AcDbBlockTableRecord
  2
*D9
340
0
  0
BLOCK_RECORD
  5
2C
330
1
100
AcDbSymbolTableRecord
100
AcDbBlockTableRecord
  2
グループ-4
340
0
102
{BLKREFS
331
118
102
}
  0
BLOCK_RECORD
  5
2D
330
1
100
AcDbSymbolTableRecord
100
AcDbBlockTableRecord
  2
Drawing Border - Universal
340
0
102
{BLKREFS
331
143
102
}
  0
BLOCK_RECORD
  5
2E
330
1
100
AcDbSymbolTableRecord
100
AcDbBlockTableRecord
  2
*D12
340
0
  0
BLOCK_RECORD
  5
2F
330
1
100
AcDbSymbolTableRecord
100
AcDbBlockTableRecord
  2
*D13
340
0
  0
ENDTAB
  0
ENDSEC
  0
SECTION
  2
BLOCKS
  0
BLOCK
  5
D
330
A
100
AcDbEntity
  8
0
390
1D
100
AcDbBlockBegin
  2
*MODEL_SPACE
 70
     0
 71
     0
 10
0.0
 20
0.0
 30
0.0
  3
*MODEL_SPACE
  1

  0
ENDBLK
  5
E
330
A
100
AcDbEntity
  8
0
390
1D
100
AcDbBlockEnd
  0
BLOCK
  5
F
330
B
100
AcDbEntity
 67
     1
  8
0
390
1D
100
AcDbBlockBegin
  2
*PAPER_SPACE
 70
     0
 71
     0
 10
0.0
 20
0.0
 30
0.0
  3
*PAPER_SPACE
  1

  0
ENDBLK
  5
10
330
B
100
AcDbEntity
 67
     1
  8
0
390
1D
100
AcDbBlockEnd
  0
BLOCK
  5
3F
330
3E
100
AcDbEntity
  8
0
  6
ByBlock
 62
     0
370
    -2
390
1D
100
AcDbBlockBegin
  2
VW_SLASH
 70
     0
 71
     0
 10
0.0
 20
0.0
 30
0.0
  3
VW_SLASH
  1

  0
LINE
  5
40
330
3E
100
AcDbEntity
  8
0
  6
ByBlock
 62
     0
370
    -2
390
1D
100
AcDbLine
 10
0.0
 20
0.0
 30
0.0
 11
-1.0
 21
0.0
 31
0.0
  0
LINE
  5
41
330
3E
100
AcDbEntity
  8
0
  6
ByBlock
 62
     0
370
    20
390
1D
100
AcDbLine
 10
-0.2499387689946005
 20
-0.2499387689946004
 30
0.0
 11
0.2499387689946005
 21
0.2499387689946004
 31
0.0
  0
ENDBLK
  5
42
330
3E
100
AcDbEntity
  8
0
390
1D
100
AcDbBlockEnd
  0
BLOCK
  5
44
330
43
100
AcDbEntity
  8
0
  6
ByBlock
 62
     0
370
    -2
390
1D
100
AcDbBlockBegin
  2
VW_FILLEDARROW
 70
     0
 71
     0
 10
0.0
 20
0.0
 30
0.0
  3
VW_FILLEDARROW
  1

  0
SOLID
  5
45
330
43
100
AcDbEntity
  8
0
 62
     0
370
    -2
390
1D
100
AcDbTrace
 10
0.0
 20
0.0
 30
0.0
 11
-0.70693359375
 21
-0.1894222855477439
 31
0.0
 12
-0.70693359375
 22
0.1894222855477441
 32
0.0
 13
-0.70693359375
 23
0.1894222855477441
 33
0.0
  0
ENDBLK
  5
46
330
43
100
AcDbEntity
  8
0
390
1D
100
AcDbBlockEnd
  0
BLOCK
  5
48
330
24
100
AcDbEntity
  8
一般
390
1D
100
AcDbBlockBegin
  2
グループ
 70
     0
 71
     0
 10
0.0
 20
0.0
 30
0.0
  3
グループ
  1

  0
LINE
  5
49
330
24
100
AcDbEntity
  8
一般
  6
Continuous
 62
     7
370
    25
390
1D
100
AcDbLine
 10
-129.8610905784317
 20
95.55686224758334
 30
0.0
 11
-124.8610905784317
 21
95.55686224758334
 31
0.0
  0
LINE
  5
4A
330
24
100
AcDbEntity
  8
一般
  6
Continuous
 62
     7
370
    25
390
1D
100
AcDbLine
 10
-129.8610905784317
 20
83.55686224758334
 30
0.0
 11
-124.8610905784317
 21
83.55686224758334
 31
0.0
  0
LINE
  5
4B
330
24
100
AcDbEntity
  8
一般
  6
Continuous
 62
     7
370
    25
390
1D
100
AcDbLine
 10
-129.8610905784317
 20
83.55686224758334
 30
0.0
 11
-129.8610905784317
 21
80.55686224758334
 31
0.0
  0
LINE
  5
4C
330
24
100
AcDbEntity
  8
一般
  6
Continuous
 62
     7
370
    25
390
1D
100
AcDbLine
 10
-129.8610905784317
 20
98.55686224758334
 30
0.0
 11
-129.8610905784317
 21
95.55686224758334
 31
0.0
  0
LINE
  5
4D
330
24
100
AcDbEntity
  8
一般
  6
Continuous
 62
     7
370
    25
390
1D
100
AcDbLine
 10
-129.8610905784317
 20
98.55686224758334
 30
0.0
 11
-140.8610905784317
 21
98.55686224758334
 31
0.0
  0
LINE
  5
4E
330
24
100
AcDbEntity
  8
一般
  6
Continuous
 62
     7
370
    25
390
1D
100
AcDbLine
 10
-129.8610905784317
 20
80.55686224758334
 30
0.0
 11
-140.8610905784317
 21
80.55686224758334
 31
0.0
  0
ENDBLK
  5
4F
330
24
100
AcDbEntity
  8
一般
390
1D
100
AcDbBlockEnd
  0
BLOCK
  5
50
330
25
100
AcDbEntity
  8
一般
390
1D
100
AcDbBlockBegin
  2
グループ-1
 70
     0
 71
     0
 10
0.0
 20
0.0
 30
0.0
  3
グループ-1
  1

  0
LINE
  5
51
330
25
100
AcDbEntity
  8
一般
  6
Continuous
 62
     7
370
    25
390
1D
100
AcDbLine
 10
-129.8610905784317
 20
-114.4431377524164
 30
0.0
 11
-124.8610905784317
 21
-114.4431377524164
 31
0.0
  0
LINE
  5
52
330
25
100
AcDbEntity
  8
一般
  6
Continuous
 62
     7
370
    25
390
1D
100
AcDbLine
 10
-129.8610905784317
 20
-126.4431377524162
 30
0.0
 11
-124.8610905784317
 21
-126.4431377524162
 31
0.0
  0
LINE
  5
53
330
25
100
AcDbEntity
  8
一般
  6
Continuous
 62
     7
370
    25
390
1D
100
AcDbLine
 10
-129.8610905784317
 20
-126.4431377524162
 30
0.0
 11
-129.8610905784317
 21
-129.4431377524162
 31
0.0
  0
LINE
  5
54
330
25
100
AcDbEntity
  8
一般
  6
Continuous
 62
     7
370
    25
390
1D
100
AcDbLine
 10
-129.8610905784317
 20
-111.4431377524164
 30
0.0
 11
-129.8610905784317
 21
-114.4431377524164
 31
0.0
  0
LINE
  5
55
330
25
100
AcDbEntity
  8
一般
  6
Continuous
 62
     7
370
    25
390
1D
100
AcDbLine
 10
-129.8610905784317
 20
-111.4431377524164
 30
0.0
 11
-140.8610905784317
 21
-111.4431377524164
 31
0.0
  0
LINE
  5
56
330
25
100
AcDbEntity
  8
一般
  6
Continuous
 62
     7
370
    25
390
1D
100
AcDbLine
 10
-129.8610905784317
 20
-129.4431377524162
 30
0.0
 11
-140.8610905784317
 21
-129.4431377524162
 31
0.0
  0
ENDBLK
  5
57
330
25
100
AcDbEntity
  8
一般
390
1D
100
AcDbBlockEnd
  0
BLOCK
  5
58
330
26
100
AcDbEntity
  8
一般
390
1D
100
AcDbBlockBegin
  2
グループ-2
 70
     0
 71
     0
 10
0.0
 20
0.0
 30
0.0
  3
グループ-2
  1

  0
POLYLINE
  5
59
330
26
100
AcDbEntity
  8
一般
  6
Continuous
 62
     7
370
    25
390
1D
100
AcDb2dPolyline
 66
     1
 10
0.0
 20
0.0
 30
0.0
 70
     1
 75
     5
  0
VERTEX
  5
5A
330
59
100
AcDbEntity
  8
一般
  6
Continuous
 62
     7
370
    25
390
1D
100
AcDbVertex
100
AcDb2dVertex
 10
-140.8610905784317
 20
127.0568622475833
 30
0.0
  0
VERTEX
  5
5B
330
59
100
AcDbEntity
  8
一般
  6
Continuous
 62
     7
370
    25
390
1D
100
AcDbVertex
100
AcDb2dVertex
 10
-130.8610905784317
 20
127.0568622475833
 30
0.0
  0
VERTEX
  5
5C
330
59
100
AcDbEntity
  8
一般
  6
Continuous
 62
     7
370
    25
390
1D
100
AcDbVertex
100
AcDb2dVertex
 10
-130.8610905784317
 20
112.0568622475833
 30
0.0
  0
VERTEX
  5
5D
330
59
100
AcDbEntity
  8
一般
  6
Continuous
 62
     7
370
    25
390
1D
100
AcDbVertex
100
AcDb2dVertex
 10
-140.8610905784317
 20
112.0568622475833
 30
0.0
  0
SEQEND
  5
5E
330
59
100
AcDbEntity
  8
一般
  6
Continuous
 62
     7
370
    25
390
1D
  0
POLYLINE
  5
60
330
26
100
AcDbEntity
  8
一般
  6
Continuous
 62
     7
370
    25
390
1D
100
AcDb2dPolyline
 66
     1
 10
0.0
 20
0.0
 30
0.0
 70
     1
 75
     5
  0
VERTEX
  5
61
330
60
100
AcDbEntity
  8
一般
  6
Continuous
 62
     7
370
    25
390
1D
100
AcDbVertex
100
AcDb2dVertex
 10
-140.8610905784317
 20
-142.9431377524162
 30
0.0
  0
VERTEX
  5
62
330
60
100
AcDbEntity
  8
一般
  6
Continuous
 62
     7
370
    25
390
1D
100
AcDbVertex
100
AcDb2dVertex
 10
-130.8610905784317
 20
-142.9431377524162
 30
0.0
  0
VERTEX
  5
63
330
60
100
AcDbEntity
  8
一般
  6
Continuous
 62
     7
370
    25
390
1D
100
AcDbVertex
100
AcDb2dVertex
 10
-130.8610905784317
 20
-157.9431377524162
 30
0.0
  0
VERTEX
  5
64
330
60
100
AcDbEntity
  8
一般
  6
Continuous
 62
     7
370
    25
390
1D
100
AcDbVertex
100
AcDb2dVertex
 10
-140.8610905784317
 20
-157.9431377524162
 30
0.0
  0
SEQEND
  5
65
330
60
100
AcDbEntity
  8
一般
  6
Continuous
 62
     7
370
    25
390
1D
  0
LINE
  5
67
330
26
100
AcDbEntity
  8
一般
  6
Continuous
 62
     7
370
    25
390
1D
100
AcDbLine
 10
-140.8610905784317
 20
-165.4431377524162
 30
0.0
 11
-140.8610905784317
 21
134.5568622475834
 31
0.0
  0
LINE
  5
68
330
26
100
AcDbEntity
  8
一般
  6
Continuous
 62
     7
370
    25
390
1D
100
AcDbLine
 10
-140.8610905784317
 20
134.5568622475834
 30
0.0
 11
-130.8610905784317
 21
134.5568622475834
 31
0.0
  0
LINE
  5
69
330
26
100
AcDbEntity
  8
一般
  6
Continuous
 62
     7
370
    25
390
1D
100
AcDbLine
 10
-130.8610905784317
 20
134.5568622475834
 30
0.0
 11
-130.8610905784317
 21
102.0568622475833
 31
0.0
  0
LINE
  5
6A
330
26
100
AcDbEntity
  8
一般
  6
Continuous
 62
     7
370
    25
390
1D
100
AcDbLine
 10
-130.8610905784317
 20
102.0568622475833
 30
0.0
 11
-124.8610905784317
 21
102.0568622475833
 31
0.0
  0
LINE
  5
6B
330
26
100
AcDbEntity
  8
一般
  6
Continuous
 62
     7
370
    25
390
1D
100
AcDbLine
 10
-124.8610905784317
 20
-132.9431377524162
 30
0.0
 11
-124.8610905784317
 21
102.0568622475833
 31
0.0
  0
LINE
  5
6C
330
26
100
AcDbEntity
  8
一般
  6
Continuous
 62
     7
370
    25
390
1D
100
AcDbLine
 10
-124.8610905784317
 20
-132.9431377524162
 30
0.0
 11
-130.8610905784317
 21
-132.9431377524162
 31
0.0
  0
LINE
  5
6D
330
26
100
AcDbEntity
  8
一般
  6
Continuous
 62
     7
370
    25
390
1D
100
AcDbLine
 10
-130.8610905784317
 20
-132.9431377524162
 30
0.0
 11
-130.8610905784317
 21
-165.4431377524162
 31
0.0
  0
LINE
  5
6E
330
26
100
AcDbEntity
  8
一般
  6
Continuous
 62
     7
370
    25
390
1D
100
AcDbLine
 10
-140.8610905784317
 20
-165.4431377524162
 30
0.0
 11
-130.8610905784317
 21
-165.4431377524162
 31
0.0
  0
INSERT
  5
6F
330
26
100
AcDbEntity
  8
一般
 62
     7
390
1D
100
AcDbBlockReference
  2
グループ
 10
0.0
 20
0.0
 30
0.0
  0
INSERT
  5
70
330
26
100
AcDbEntity
  8
一般
 62
     7
390
1D
100
AcDbBlockReference
  2
グループ-1
 10
0.0
 20
0.0
 30
0.0
  0
WIPEOUT
  5
71
330
26
100
AcDbEntity
  8
一般
  6
Continuous
 62
     7
370
    18
390
1D
 92
      308
310
3401000002000000A80000000B000000BF83DB4E4FEA5FC0D76F8DA1A3035240000000000000000000000000000000000000000000000000000000000000F03F000000000000F03F0000000000000000000000000000000041634462576970656F757400FFFFFFFF000000000000000000000000000000000000F03F000000
310
0000000000000000000000F03F000000000000000000000000000000000000000074787400424947464F4E542E53485800840000000600000005000000BF83DB4E4FEA5FC0D76F8DA1A30352400000000000000000BF83DB4E4FCA5EC0D76F8DA1A30352400000000000000000BF83DB4E4FCA5EC0D76F8DA1A32353400000
310
000000000000BF83DB4E4FEA5FC0D76F8DA1A32353400000000000000000BF83DB4E4FEA5FC0D76F8DA1A30352400000000000000000
100
AcDbWipeout
 90
        0
 10
-127.6610905784319
 20
72.05686224758334
 30
0.0
 11
4.5
 21
0.0
 31
0.0
 12
0.0
 22
4.5
 32
0.0
 13
1.0
 23
1.0
340
0
 70
     7
280
     1
281
    50
282
    50
283
     0
360
0
 71
     2
 91
        5
 14
-0.5
 24
-0.5
 14
0.1222222222222563
 24
-0.5
 14
0.1222222222222563
 24
0.5
 14
-0.5
 24
0.5
 14
-0.5
 24
-0.5
  0
POLYLINE
  5
72
330
26
100
AcDbEntity
  8
一般
  6
Continuous
 62
     7
370
    18
390
1D
100
AcDb2dPolyline
 66
     1
 10
0.0
 20
0.0
 30
0.0
 70
     1
 75
     5
  0
VERTEX
  5
73
330
72
100
AcDbEntity
  8
一般
  6
Continuous
 62
     7
370
    18
390
1D
100
AcDbVertex
100
AcDb2dVertex
 10
-127.6610905784319
 20
76.55686224758334
 30
0.0
  0
VERTEX
  5
74
330
72
100
AcDbEntity
  8
一般
  6
Continuous
 62
     7
370
    18
390
1D
100
AcDbVertex
100
AcDb2dVertex
 10
-124.8610905784317
 20
76.55686224758334
 30
0.0
  0
VERTEX
  5
75
330
72
100
AcDbEntity
  8
一般
  6
Continuous
 62
     7
370
    18
390
1D
100
AcDbVertex
100
AcDb2dVertex
 10
-124.8610905784317
 20
72.05686224758334
 30
0.0
  0
VERTEX
  5
76
330
72
100
AcDbEntity
  8
一般
  6
Continuous
 62
     7
370
    18
390
1D
100
AcDbVertex
100
AcDb2dVertex
 10
-127.6610905784319
 20
72.05686224758334
 30
0.0
  0
SEQEND
  5
77
330
72
100
AcDbEntity
  8
一般
  6
Continuous
 62
     7
370
    18
390
1D
  0
WIPEOUT
  5
79
330
26
100
AcDbEntity
  8
一般
  6
Continuous
 62
     7
370
    18
390
1D
 92
      308
310
3401000002000000A80000000B000000BF83DB4E4FEA5FC01E90725E5CDC5AC0000000000000000000000000000000000000000000000000000000000000F03F000000000000F03F0000000000000000000000000000000041634462576970656F757400FFFFFFFF000000000000000000000000000000000000F03F000000
310
0000000000000000000000F03F000000000000000000000000000000000000000074787400424947464F4E542E53485800840000000600000005000000BF83DB4E4FEA5FC01E90725E5CDC5AC00000000000000000C383DB4E4FCA5EC01E90725E5CDC5AC00000000000000000C383DB4E4FCA5EC02290725E5CBC59C00000
310
000000000000BF83DB4E4FEA5FC02290725E5CBC59C00000000000000000BF83DB4E4FEA5FC01E90725E5CDC5AC00000000000000000
100
AcDbWipeout
 90
        0
 10
-127.6610905784319
 20
-107.4431377524165
 30
0.0
 11
4.499999999999943
 21
0.0
 31
0.0
 12
0.0
 22
4.499999999999943
 32
0.0
 13
1.0
 23
1.0
340
0
 70
     7
280
     1
281
    50
282
    50
283
     0
360
0
 71
     2
 91
        5
 14
-0.5
 24
-0.5
 14
0.1222222222222642
 24
-0.5
 14
0.1222222222222642
 24
0.5
 14
-0.5
 24
0.5
 14
-0.5
 24
-0.5
  0
POLYLINE
  5
7A
330
26
100
AcDbEntity
  8
一般
  6
Continuous
 62
     7
370
    18
390
1D
100
AcDb2dPolyline
 66
     1
 10
0.0
 20
0.0
 30
0.0
 70
     1
 75
     5
  0
VERTEX
  5
7B
330
7A
100
AcDbEntity
  8
一般
  6
Continuous
 62
     7
370
    18
390
1D
100
AcDbVertex
100
AcDb2dVertex
 10
-127.6610905784319
 20
-102.9431377524166
 30
0.0
  0
VERTEX
  5
7C
330
7A
100
AcDbEntity
  8
一般
  6
Continuous
 62
     7
370
    18
390
1D
100
AcDbVertex
100
AcDb2dVertex
 10
-124.8610905784317
 20
-102.9431377524166
 30
0.0
  0
VERTEX
  5
7D
330
7A
100
AcDbEntity
  8
一般
  6
Continuous
 62
     7
370
    18
390
1D
100
AcDbVertex
100
AcDb2dVertex
 10
-124.8610905784317
 20
-107.4431377524165
 30
0.0
  0
VERTEX
  5
7E
330
7A
100
AcDbEntity
  8
一般
  6
Continuous
 62
     7
370
    18
390
1D
100
AcDbVertex
100
AcDb2dVertex
 10
-127.6610905784319
 20
-107.4431377524165
 30
0.0
  0
SEQEND
  5
7F
330
7A
100
AcDbEntity
  8
一般
  6
Continuous
 62
     7
370
    18
390
1D
  0
LINE
  5
81
330
26
100
AcDbEntity
  8
一般
  6
Continuous
 62
     7
370
    18
390
1D
100
AcDbLine
 10
-140.8610905784317
 20
59.55686224758361
 30
0.0
 11
-124.8610905784317
 21
59.55686224758361
 31
0.0
  0
LINE
  5
82
330
26
100
AcDbEntity
  8
一般
  6
Continuous
 62
     7
370
    18
390
1D
100
AcDbLine
 10
-140.8610905784317
 20
-90.44313775241639
 30
0.0
 11
-124.8610905784317
 21
-90.44313775241639
 31
0.0
  0
ENDBLK
  5
83
330
26
100
AcDbEntity
  8
一般
390
1D
100
AcDbBlockEnd
  0
BLOCK
  5
84
330
27
100
AcDbEntity
  8
一般
390
1D
100
AcDbBlockBegin
  2
グループ-3
 70
     0
 71
     0
 10
0.0
 20
0.0
 30
0.0
  3
グループ-3
  1

  0
CIRCLE
  5
85
330
27
100
AcDbEntity
  8
一般
  6
Continuous
 62
     7
370
    25
390
1D
100
AcDbCircle
 10
94.58371362825245
 20
-15.44313775241667
 30
0.0
 40
117.5000000000002
  0
CIRCLE
  5
86
330
27
100
AcDbEntity
  8
一般
  6
Continuous
 62
     7
370
    25
390
1D
100
AcDbCircle
 10
94.58371362825245
 20
-15.44313775241667
 30
0.0
 40
75.00000000000018
  0
CIRCLE
  5
87
330
27
100
AcDbEntity
  8
一般
  6
Continuous
 62
     7
370
    25
390
1D
100
AcDbCircle
 10
20.33750160366516
 20
58.80307427217154
 30
0.0
 40
5.99999999999999
  0
CIRCLE
  5
88
330
27
100
AcDbEntity
  8
一般
  6
Continuous
 62
     7
370
    25
390
1D
100
AcDbCircle
 10
-10.416286371748
 20
-15.4431377524153
 30
0.0
 40
5.99999999999988
  0
CIRCLE
  5
89
330
27
100
AcDbEntity
  8
一般
  6
Continuous
 62
     7
370
    25
390
1D
100
AcDbCircle
 10
20.33750160366425
 20
-89.6893497770035
 30
0.0
 40
5.999999999999985
  0
CIRCLE
  5
8A
330
27
100
AcDbEntity
  8
一般
  6
Continuous
 62
     7
370
    25
390
1D
100
AcDbCircle
 10
94.583713628252
 20
-120.4431377524166
 30
0.0
 40
6.00000000000002
  0
CIRCLE
  5
8B
330
27
100
AcDbEntity
  8
一般
  6
Continuous
 62
     7
370
    25
390
1D
100
AcDbCircle
 10
168.8299256528399
 20
-89.68934977700486
 30
0.0
 40
6.000000000000248
  0
CIRCLE
  5
8C
330
27
100
AcDbEntity
  8
一般
  6
Continuous
 62
     7
370
    25
390
1D
100
AcDbCircle
 10
199.5837136282521
 20
-15.44313775241667
 30
0.0
 40
6.00000000000033
  0
CIRCLE
  5
8D
330
27
100
AcDbEntity
  8
一般
  6
Continuous
 62
     7
370
    25
390
1D
100
AcDbCircle
 10
168.8299256528412
 20
58.80307427217108
 30
0.0
 40
6.000000000000251
  0
CIRCLE
  5
8E
330
27
100
AcDbEntity
  8
一般
  6
Continuous
 62
     7
370
    25
390
1D
100
AcDbCircle
 10
94.58371362825245
 20
89.55686224758334
 30
0.0
 40
6.000000000000105
  0
CIRCLE
  5
8F
330
27
100
AcDbEntity
  8
一般
  6
STYLE_01
 62
     7
370
    25
390
1D
100
AcDbCircle
 10
20.33750160366516
 20
58.80307427217108
 30
0.0
 40
9.000000000000451
  0
CIRCLE
  5
90
330
27
100
AcDbEntity
  8
一般
  6
STYLE_01
 62
     7
370
    25
390
1D
100
AcDbCircle
 10
-10.41628637174755
 20
-15.44313775241621
 30
0.0
 40
8.99999999999988
  0
CIRCLE
  5
91
330
27
100
AcDbEntity
  8
一般
  6
STYLE_01
 62
     7
370
    25
390
1D
100
AcDbCircle
 10
20.33750160366561
 20
-89.68934977700464
 30
0.0
 40
9.000000000000338
  0
CIRCLE
  5
92
330
27
100
AcDbEntity
  8
一般
  6
STYLE_01
 62
     7
370
    25
390
1D
100
AcDbCircle
 10
94.58371362825245
 20
-120.4431377524163
 30
0.0
 40
8.999999999999769
  0
CIRCLE
  5
93
330
27
100
AcDbEntity
  8
一般
  6
STYLE_01
 62
     7
370
    25
390
1D
100
AcDbCircle
 10
168.8299256528403
 20
-89.68934977700418
 30
0.0
 40
8.999999999999943
  0
CIRCLE
  5
94
330
27
100
AcDbEntity
  8
一般
  6
STYLE_01
 62
     7
370
    25
390
1D
100
AcDbCircle
 10
199.5837136282521
 20
-15.44313775241667
 30
0.0
 40
8.99999999999988
  0
CIRCLE
  5
95
330
27
100
AcDbEntity
  8
一般
  6
STYLE_01
 62
     7
370
    25
390
1D
100
AcDbCircle
 10
168.8299256528399
 20
58.80307427217085
 30
0.0
 40
9.000000000000108
  0
CIRCLE
  5
96
330
27
100
AcDbEntity
  8
一般
  6
STYLE_01
 62
     7
370
    25
390
1D
100
AcDbCircle
 10
94.58371362825245
 20
89.55686224758334
 30
0.0
 40
8.99999999999988
  0
CIRCLE
  5
97
330
27
100
AcDbEntity
  8
一般
  6
Continuous
 62
     7
370
    25
390
1D
100
AcDbCircle
 10
94.58371362825245
 20
-15.44313775241667
 30
0.0
 40
149.9999999999996
  0
CIRCLE
  5
98
330
27
100
AcDbEntity
  8
一般
  6
Continuous
 62
     7
370
    25
390
1D
100
AcDbCircle
 10
-0.8757018319316667
 20
80.01627770776746
 30
0.0
 40
7.500000000000386
  0
CIRCLE
  5
99
330
27
100
AcDbEntity
  8
一般
  6
Continuous
 62
     7
370
    25
390
1D
100
AcDbCircle
 10
-40.41628637174755
 20
-15.44313775241621
 30
0.0
 40
7.500000000000174
  0
CIRCLE
  5
9A
330
27
100
AcDbEntity
  8
一般
  6
Continuous
 62
     7
370
    25
390
1D
100
AcDbCircle
 10
-0.875701831931212
 20
-110.9025532126008
 30
0.0
 40
7.500000000000167
  0
CIRCLE
  5
9B
330
27
100
AcDbEntity
  8
一般
  6
Continuous
 62
     7
370
    25
390
1D
100
AcDbCircle
 10
94.58371362825245
 20
-150.4431377524162
 30
0.0
 40
7.500000000000174
  0
CIRCLE
  5
9C
330
27
100
AcDbEntity
  8
一般
  6
Continuous
 62
     7
370
    25
390
1D
100
AcDbCircle
 10
190.0431290884372
 20
-110.9025532126004
 30
0.0
 40
7.500000000000137
  0
CIRCLE
  5
9D
330
27
100
AcDbEntity
  8
一般
  6
Continuous
 62
     7
370
    25
390
1D
100
AcDbCircle
 10
229.5837136282521
 20
-15.44313775241667
 30
0.0
 40
7.500000000000174
  0
CIRCLE
  5
9E
330
27
100
AcDbEntity
  8
一般
  6
Continuous
 62
     7
370
    25
390
1D
100
AcDbCircle
 10
190.0431290884367
 20
80.01627770776723
 30
0.0
 40
7.499999999999583
  0
CIRCLE
  5
9F
330
27
100
AcDbEntity
  8
一般
  6
Continuous
 62
     7
370
    25
390
1D
100
AcDbCircle
 10
94.58371362825245
 20
119.5568622475833
 30
0.0
 40
7.500000000000174
  0
CIRCLE
  5
A0
330
27
100
AcDbEntity
  8
一般
  6
Continuous
 62
     7
370
    25
390
1D
100
AcDbCircle
 10
94.58371362825245
 20
-15.44313775241667
 30
0.0
 40
92.00000000000017
  0
CIRCLE
  5
A1
330
27
100
AcDbEntity
  8
一般
  6
Continuous
 62
     7
370
    25
390
1D
100
AcDbCircle
 10
94.58371362825245
 20
-15.44313775241667
 30
0.0
 40
87.50000000000014
  0
ENDBLK
  5
A2
330
27
100
AcDbEntity
  8
一般
390
1D
100
AcDbBlockEnd
  0
BLOCK
  5
A3
330
28
100
AcDbEntity
  8
寸法
390
1D
100
AcDbBlockBegin
  2
*D6
 70
     1
 71
     0
 10
0.0
 20
0.0
 30
0.0
  3
*D6
  1

  0
LINE
  5
A4
330
28
100
AcDbEntity
  8
寸法
  6
STYLE_01
 62
     0
370
    -2
390
1D
100
AcDbLine
 10
232.2698042066841
 20
104.9999999999997
 30
0.0
 11
-89.90519579331593
 21
104.9999999999997
 31
0.0
  0
LINE
  5
A5
330
28
100
AcDbEntity
  8
寸法
  6
STYLE_01
 62
     0
370
    -2
390
1D
100
AcDbLine
 10
232.2698042066841
 20
-104.9999999999999
 30
0.0
 11
-89.9051957933159
 21
-104.9999999999999
 31
0.0
  0
LINE
  5
A6
330
28
100
AcDbEntity
  8
寸法
  6
STYLE_01
 62
     0
370
    -2
390
1D
100
AcDbLine
 10
-83.5551957933159
 20
108.1749999999997
 30
0.0
 11
-83.5551957933159
 21
104.9999999999997
 31
0.0
  0
LINE
  5
A7
330
28
100
AcDbEntity
  8
寸法
  6
STYLE_01
 62
     0
370
    -2
390
1D
100
AcDbLine
 10
-83.5551957933159
 20
-104.9999999999999
 30
0.0
 11
-83.5551957933159
 21
-108.1749999999999
 31
0.0
  0
LINE
  5
A8
330
28
100
AcDbEntity
  8
寸法
  6
STYLE_01
 62
     0
370
    -2
390
1D
100
AcDbLine
 10
-83.5551957933159
 20
104.9999999999997
 30
0.0
 11
-83.5551957933159
 21
-104.9999999999999
 31
0.0
  0
LINE
  5
A9
330
28
100
AcDbEntity
  8
寸法
  6
STYLE_01
 62
     0
370
    20
390
1D
100
AcDbLine
 10
-81.31013176304862
 20
102.7549359697324
 30
0.0
 11
-85.80025982358319
 21
107.245064030267
 31
0.0
  0
LINE
  5
AA
330
28
100
AcDbEntity
  8
寸法
  6
STYLE_01
 62
     0
370
    20
390
1D
100
AcDbLine
 10
-85.80025982358319
 20
-102.7549359697327
 30
0.0
 11
-81.31013176304862
 21
-107.2450640302672
 31
0.0
  0
WIPEOUT
  5
AB
330
28
100
AcDbEntity
  8
寸法
  6
STYLE_01
 62
     0
370
    -2
390
1D
 92
      308
310
3401000002000000A80000000B000000BA72B69FBF2859C082E257FBF4EC5C40000000000000000000000000000000000000000000000000000000000000F03F000000000000F03F0000000000000000000000000000000041634462576970656F757400FFFFFFFF000000000000000000000000000000000000F03F000000
310
0000000000000000000000F03F000000000000000000000000000000000000000074787400424947464F4E542E53485800840000000600000005000000BA72B69FBF2859C082E257FBF4EC5C400000000000000000FEB6FA1B2A4D54C082E257FBF4EC5C400000000000000000FEB6FA1B2A4D54C01FCF893F45E460400000
310
000000000000BA72B69FBF2859C01FCF893F45E460400000000000000000BA72B69FBF2859C082E257FBF4EC5C400000000000000000
100
AcDbWipeout
 90
        0
 10
-100.6366957933159
 20
115.7024525030374
 30
0.0
 11
19.4310006459554
 21
0.0
 31
0.0
 12
0.0
 22
19.4310006459554
 32
0.0
 13
1.0
 23
1.0
340
0
 70
     7
280
     1
281
    50
282
    50
283
     0
360
0
 71
     2
 91
        5
 14
0.2973855944071056
 24
6.954528776526043
 14
0.2973855944071056
 24
5.954528776526043
 14
-0.5
 24
5.954528776526043
 14
-0.5
 24
6.954528776526043
 14
0.2973855944071056
 24
6.954528776526043
  0
MTEXT
  5
AC
330
28
100
AcDbEntity
  8
寸法
 62
     0
390
1D
100
AcDbMText
 10
-96.6208168870659
 20
-9.71550032297781
 30
0.0
 40
8.04912109375
 41
0.0
 71
     1
 72
     1
  1
210
  7
Calibri (bold)
 11
0.0
 21
1.0
 31
0.0
 73
     1
 44
1.159596784673362
  0
POINT
  5
AD
330
28
100
AcDbEntity
  8
Defpoints
 62
     0
370
     0
390
1D
100
AcDbPoint
 10
235.4448042066841
 20
-104.9999999999999
 30
0.0
  0
POINT
  5
AE
330
28
100
AcDbEntity
  8
Defpoints
 62
     0
370
     0
390
1D
100
AcDbPoint
 10
235.4448042066841
 20
104.9999999999997
 30
0.0
  0
POINT
  5
AF
330
28
100
AcDbEntity
  8
Defpoints
 62
     0
370
     0
390
1D
100
AcDbPoint
 10
-83.5551957933159
 20
104.9999999999997
 30
0.0
  0
ENDBLK
  5
B0
330
28
100
AcDbEntity
  8
寸法
390
1D
100
AcDbBlockEnd
  0
BLOCK
  5
B1
330
29
100
AcDbEntity
  8
寸法
390
1D
100
AcDbBlockBegin
  2
*D7
 70
     1
 71
     0
 10
0.0
 20
0.0
 30
0.0
  3
*D7
  1

  0
LINE
  5
B2
330
29
100
AcDbEntity
  8
寸法
  6
STYLE_01
 62
     0
370
    -2
390
1D
100
AcDbLine
 10
232.2698042066841
 20
117.4999999999997
 30
0.0
 11
-120.9051957933159
 21
117.4999999999997
 31
0.0
  0
LINE
  5
B3
330
29
100
AcDbEntity
  8
寸法
  6
STYLE_01
 62
     0
370
    -2
390
1D
100
AcDbLine
 10
232.2698042066841
 20
-117.4999999999998
 30
0.0
 11
-120.9051957933159
 21
-117.4999999999998
 31
0.0
  0
LINE
  5
B4
330
29
100
AcDbEntity
  8
寸法
  6
STYLE_01
 62
     0
370
    -2
390
1D
100
AcDbLine
 10
-114.5551957933159
 20
120.6749999999997
 30
0.0
 11
-114.5551957933159
 21
117.4999999999997
 31
0.0
  0
LINE
  5
B5
330
29
100
AcDbEntity
  8
寸法
  6
STYLE_01
 62
     0
370
    -2
390
1D
100
AcDbLine
 10
-114.5551957933159
 20
-117.4999999999998
 30
0.0
 11
-114.5551957933159
 21
-120.6749999999998
 31
0.0
  0
LINE
  5
B6
330
29
100
AcDbEntity
  8
寸法
  6
STYLE_01
 62
     0
370
    -2
390
1D
100
AcDbLine
 10
-114.5551957933159
 20
117.4999999999997
 30
0.0
 11
-114.5551957933159
 21
-117.4999999999998
 31
0.0
  0
LINE
  5
B7
330
29
100
AcDbEntity
  8
寸法
  6
STYLE_01
 62
     0
370
    20
390
1D
100
AcDbLine
 10
-112.3101317630486
 20
115.2549359697324
 30
0.0
 11
-116.8002598235832
 21
119.745064030267
 31
0.0
  0
LINE
  5
B8
330
29
100
AcDbEntity
  8
寸法
  6
STYLE_01
 62
     0
370
    20
390
1D
100
AcDbLine
 10
-116.8002598235832
 20
-115.2549359697325
 30
0.0
 11
-112.3101317630486
 21
-119.7450640302671
 31
0.0
  0
WIPEOUT
  5
B9
330
29
100
AcDbEntity
  8
寸法
  6
STYLE_01
 62
     0
370
    -2
390
1D
 92
      308
310
3401000002000000A80000000B0000005B39DBCF5F7460C086E257FBF4EC5C40000000000000000000000000000000000000000000000000000000000000F03F000000000000F03F0000000000000000000000000000000041634462576970656F757400FFFFFFFF000000000000000000000000000000000000F03F000000
310
0000000000000000000000F03F000000000000000000000000000000000000000074787400424947464F4E542E534858008400000006000000050000005B39DBCF5F7460C086E257FBF4EC5C400000000000000000FAB6FA1B2A0D5CC086E257FBF4EC5C400000000000000000FAB6FA1B2A0D5CC021CF893F45E460400000
310
0000000000005B39DBCF5F7460C021CF893F45E4604000000000000000005B39DBCF5F7460C086E257FBF4EC5C400000000000000000
100
AcDbWipeout
 90
        0
 10
-131.6366957933159
 20
115.7024525030375
 30
0.0
 11
19.4310006459554
 21
0.0
 31
0.0
 12
0.0
 22
19.4310006459554
 32
0.0
 13
1.0
 23
1.0
340
0
 70
     7
280
     1
281
    50
282
    50
283
     0
360
0
 71
     2
 91
        5
 14
0.2973855944071041
 24
6.954528776526043
 14
0.2973855944071041
 24
5.954528776526043
 14
-0.5
 24
5.954528776526043
 14
-0.5
 24
6.954528776526043
 14
0.2973855944071041
 24
6.954528776526043
  0
MTEXT
  5
BA
330
29
100
AcDbEntity
  8
寸法
 62
     0
390
1D
100
AcDbMText
 10
-127.6208168870658
 20
-9.715500322977753
 30
0.0
 40
8.04912109375
 41
0.0
 71
     1
 72
     1
  1
235
  7
Calibri (bold)
 11
0.0
 21
1.0
 31
0.0
 73
     1
 44
1.159596784673362
  0
POINT
  5
BB
330
29
100
AcDbEntity
  8
Defpoints
 62
     0
370
     0
390
1D
100
AcDbPoint
 10
235.4448042066841
 20
-117.4999999999998
 30
0.0
  0
POINT
  5
BC
330
29
100
AcDbEntity
  8
Defpoints
 62
     0
370
     0
390
1D
100
AcDbPoint
 10
235.4448042066841
 20
117.4999999999997
 30
0.0
  0
POINT
  5
BD
330
29
100
AcDbEntity
  8
Defpoints
 62
     0
370
     0
390
1D
100
AcDbPoint
 10
-114.5551957933159
 20
117.4999999999997
 30
0.0
  0
ENDBLK
  5
BE
330
29
100
AcDbEntity
  8
寸法
390
1D
100
AcDbBlockEnd
  0
BLOCK
  5
BF
330
2A
100
AcDbEntity
  8
寸法
390
1D
100
AcDbBlockBegin
  2
*D8
 70
     1
 71
     0
 10
0.0
 20
0.0
 30
0.0
  3
*D8
  1

  0
LINE
  5
C0
330
2A
100
AcDbEntity
  8
寸法
  6
STYLE_01
 62
     0
370
    -2
390
1D
100
AcDbLine
 10
232.2698042066841
 20
134.9999999999997
 30
0.0
 11
-150.9051957933159
 21
134.9999999999997
 31
0.0
  0
LINE
  5
C1
330
2A
100
AcDbEntity
  8
寸法
  6
STYLE_01
 62
     0
370
    -2
390
1D
100
AcDbLine
 10
232.2698042066841
 20
-134.9999999999998
 30
0.0
 11
-150.9051957933159
 21
-134.9999999999998
 31
0.0
  0
LINE
  5
C2
330
2A
100
AcDbEntity
  8
寸法
  6
STYLE_01
 62
     0
370
    -2
390
1D
100
AcDbLine
 10
-144.5551957933159
 20
138.1749999999997
 30
0.0
 11
-144.5551957933159
 21
134.9999999999997
 31
0.0
  0
LINE
  5
C3
330
2A
100
AcDbEntity
  8
寸法
  6
STYLE_01
 62
     0
370
    -2
390
1D
100
AcDbLine
 10
-144.5551957933159
 20
-134.9999999999998
 30
0.0
 11
-144.5551957933159
 21
-138.1749999999998
 31
0.0
  0
LINE
  5
C4
330
2A
100
AcDbEntity
  8
寸法
  6
STYLE_01
 62
     0
370
    -2
390
1D
100
AcDbLine
 10
-144.5551957933159
 20
134.9999999999997
 30
0.0
 11
-144.5551957933159
 21
-134.9999999999998
 31
0.0
  0
LINE
  5
C5
330
2A
100
AcDbEntity
  8
寸法
  6
STYLE_01
 62
     0
370
    20
390
1D
100
AcDbLine
 10
-142.3101317630486
 20
132.7549359697325
 30
0.0
 11
-146.8002598235832
 21
137.245064030267
 31
0.0
  0
LINE
  5
C6
330
2A
100
AcDbEntity
  8
寸法
  6
STYLE_01
 62
     0
370
    20
390
1D
100
AcDbLine
 10
-146.8002598235832
 20
-132.7549359697325
 30
0.0
 11
-142.3101317630486
 21
-137.2450640302671
 31
0.0
  0
WIPEOUT
  5
C7
330
2A
100
AcDbEntity
  8
寸法
  6
STYLE_01
 62
     0
370
    -2
390
1D
 92
      308
310
3401000002000000A80000000B0000005B39DBCF5F3464C086E257FBF4EC5C40000000000000000000000000000000000000000000000000000000000000F03F000000000000F03F0000000000000000000000000000000041634462576970656F757400FFFFFFFF000000000000000000000000000000000000F03F000000
310
0000000000000000000000F03F000000000000000000000000000000000000000074787400424947464F4E542E534858008400000006000000050000005B39DBCF5F3464C086E257FBF4EC5C4000000000000000007D5BFD0D95C661C086E257FBF4EC5C4000000000000000007D5BFD0D95C661C021CF893F45E460400000
310
0000000000005B39DBCF5F3464C021CF893F45E4604000000000000000005B39DBCF5F3464C086E257FBF4EC5C400000000000000000
100
AcDbWipeout
 90
        0
 10
-161.6366957933159
 20
115.7024525030375
 30
0.0
 11
19.4310006459554
 21
0.0
 31
0.0
 12
0.0
 22
19.4310006459554
 32
0.0
 13
1.0
 23
1.0
340
0
 70
     7
280
     1
281
    50
282
    50
283
     0
360
0
 71
     2
 91
        5
 14
0.2973855944071041
 24
6.954528776526043
 14
0.2973855944071041
 24
5.954528776526043
 14
-0.5
 24
5.954528776526043
 14
-0.5
 24
6.954528776526043
 14
0.2973855944071041
 24
6.954528776526043
  0
MTEXT
  5
C8
330
2A
100
AcDbEntity
  8
寸法
 62
     0
390
1D
100
AcDbMText
 10
-157.6208168870658
 20
-9.715500322977753
 30
0.0
 40
8.04912109375
 41
0.0
 71
     1
 72
     1
  1
270
  7
Calibri (bold)
 11
0.0
 21
1.0
 31
0.0
 73
     1
 44
1.159596784673362
  0
POINT
  5
C9
330
2A
100
AcDbEntity
  8
Defpoints
 62
     0
370
     0
390
1D
100
AcDbPoint
 10
235.4448042066841
 20
-134.9999999999998
 30
0.0
  0
POINT
  5
CA
330
2A
100
AcDbEntity
  8
Defpoints
 62
     0
370
     0
390
1D
100
AcDbPoint
 10
235.4448042066841
 20
134.9999999999997
 30
0.0
  0
POINT
  5
CB
330
2A
100
AcDbEntity
  8
Defpoints
 62
     0
370
     0
390
1D
100
AcDbPoint
 10
-144.5551957933159
 20
134.9999999999997
 30
0.0
  0
ENDBLK
  5
CC
330
2A
100
AcDbEntity
  8
寸法
390
1D
100
AcDbBlockEnd
  0
BLOCK
  5
CD
330
2B
100
AcDbEntity
  8
寸法
390
1D
100
AcDbBlockBegin
  2
*D9
 70
     1
 71
     0
 10
0.0
 20
0.0
 30
0.0
  3
*D9
  1

  0
LINE
  5
CE
330
2B
100
AcDbEntity
  8
寸法
  6
STYLE_01
 62
     0
370
    -2
390
1D
100
AcDbLine
 10
232.2698042066841
 20
149.9999999999998
 30
0.0
 11
-181.9051957933159
 21
149.9999999999998
 31
0.0
  0
LINE
  5
CF
330
2B
100
AcDbEntity
  8
寸法
  6
STYLE_01
 62
     0
370
    -2
390
1D
100
AcDbLine
 10
232.2698042066841
 20
-149.9999999999998
 30
0.0
 11
-181.9051957933159
 21
-149.9999999999998
 31
0.0
  0
LINE
  5
D0
330
2B
100
AcDbEntity
  8
寸法
  6
STYLE_01
 62
     0
370
    -2
390
1D
100
AcDbLine
 10
-175.5551957933159
 20
153.1749999999998
 30
0.0
 11
-175.5551957933159
 21
149.9999999999998
 31
0.0
  0
LINE
  5
D1
330
2B
100
AcDbEntity
  8
寸法
  6
STYLE_01
 62
     0
370
    -2
390
1D
100
AcDbLine
 10
-175.5551957933159
 20
-149.9999999999998
 30
0.0
 11
-175.5551957933159
 21
-153.1749999999998
 31
0.0
  0
LINE
  5
D2
330
2B
100
AcDbEntity
  8
寸法
  6
STYLE_01
 62
     0
370
    -2
390
1D
100
AcDbLine
 10
-175.5551957933159
 20
149.9999999999998
 30
0.0
 11
-175.5551957933159
 21
-149.9999999999998
 31
0.0
  0
LINE
  5
D3
330
2B
100
AcDbEntity
  8
寸法
  6
STYLE_01
 62
     0
370
    20
390
1D
100
AcDbLine
 10
-173.3101317630486
 20
147.7549359697325
 30
0.0
 11
-177.8002598235832
 21
152.2450640302671
 31
0.0
  0
LINE
  5
D4
330
2B
100
AcDbEntity
  8
寸法
  6
STYLE_01
 62
     0
370
    20
390
1D
100
AcDbLine
 10
-177.8002598235832
 20
-147.7549359697325
 30
0.0
 11
-173.3101317630486
 21
-152.2450640302671
 31
0.0
  0
WIPEOUT
  5
D5
330
2B
100
AcDbEntity
  8
寸法
  6
STYLE_01
 62
     0
370
    -2
390
1D
 92
      308
310
3401000002000000A80000000B0000005B39DBCF5F1468C08AE257FBF4EC5C40000000000000000000000000000000000000000000000000000000000000F03F000000000000F03F0000000000000000000000000000000041634462576970656F757400FFFFFFFF000000000000000000000000000000000000F03F000000
310
0000000000000000000000F03F000000000000000000000000000000000000000074787400424947464F4E542E534858008400000006000000050000005B39DBCF5F1468C08AE257FBF4EC5C4000000000000000007D5BFD0D95A665C08AE257FBF4EC5C4000000000000000007D5BFD0D95A665C023CF893F45E460400000
310
0000000000005B39DBCF5F1468C023CF893F45E4604000000000000000005B39DBCF5F1468C08AE257FBF4EC5C400000000000000000
100
AcDbWipeout
 90
        0
 10
-192.6366957933159
 20
115.7024525030376
 30
0.0
 11
19.4310006459554
 21
0.0
 31
0.0
 12
0.0
 22
19.4310006459554
 32
0.0
 13
1.0
 23
1.0
340
0
 70
     7
280
     1
281
    50
282
    50
283
     0
360
0
 71
     2
 91
        5
 14
0.2973855944071041
 24
6.954528776526043
 14
0.2973855944071041
 24
5.954528776526043
 14
-0.5
 24
5.954528776526043
 14
-0.5
 24
6.954528776526043
 14
0.2973855944071041
 24
6.954528776526043
  0
MTEXT
  5
D6
330
2B
100
AcDbEntity
  8
寸法
 62
     0
390
1D
100
AcDbMText
 10
-188.6208168870658
 20
-9.715500322977704
 30
0.0
 40
8.04912109375
 41
0.0
 71
     1
 72
     1
  1
300
  7
Calibri (bold)
 11
0.0
 21
1.0
 31
0.0
 73
     1
 44
1.159596784673362
  0
POINT
  5
D7
330
2B
100
AcDbEntity
  8
Defpoints
 62
     0
370
     0
390
1D
100
AcDbPoint
 10
235.4448042066841
 20
-149.9999999999998
 30
0.0
  0
POINT
  5
D8
330
2B
100
AcDbEntity
  8
Defpoints
 62
     0
370
     0
390
1D
100
AcDbPoint
 10
235.4448042066841
 20
149.9999999999998
 30
0.0
  0
POINT
  5
D9
330
2B
100
AcDbEntity
  8
Defpoints
 62
     0
370
     0
390
1D
100
AcDbPoint
 10
-175.5551957933159
 20
149.9999999999998
 30
0.0
  0
ENDBLK
  5
DA
330
2B
100
AcDbEntity
  8
寸法
390
1D
100
AcDbBlockEnd
  0
BLOCK
  5
DB
330
2C
100
AcDbEntity
  8
一般
390
1D
100
AcDbBlockBegin
  2
グループ-4
 70
     0
 71
     0
 10
0.0
 20
0.0
 30
0.0
  3
グループ-4
  1

  0
POLYLINE
  5
DC
330
2C
100
AcDbEntity
  8
一般
  6
Continuous
 62
     7
370
    13
390
1D
100
AcDb2dPolyline
 66
     1
 10
0.0
 20
0.0
 30
0.0
 70
     1
 75
     5
  0
VERTEX
  5
DD
330
DC
100
AcDbEntity
  8
一般
  6
Continuous
 62
     7
370
    13
390
1D
100
AcDbVertex
100
AcDb2dVertex
 10
-419.99916
 20
296.99966
 30
0.0
  0
VERTEX
  5
DE
330
DC
100
AcDbEntity
  8
一般
  6
Continuous
 62
     7
370
    13
390
1D
100
AcDbVertex
100
AcDb2dVertex
 10
419.99916
 20
296.99966
 30
0.0
  0
VERTEX
  5
DF
330
DC
100
AcDbEntity
  8
一般
  6
Continuous
 62
     7
370
    13
390
1D
100
AcDbVertex
100
AcDb2dVertex
 10
419.99916
 20
-296.99966
 30
0.0
  0
VERTEX
  5
E0
330
DC
100
AcDbEntity
  8
一般
  6
Continuous
 62
     7
370
    13
390
1D
100
AcDbVertex
100
AcDb2dVertex
 10
-419.99916
 20
-296.99966
 30
0.0
  0
SEQEND
  5
E1
330
DC
100
AcDbEntity
  8
一般
  6
Continuous
 62
     7
370
    13
390
1D
  0
POLYLINE
  5
E3
330
2C
100
AcDbEntity
  8
一般
  6
Continuous
 62
     7
370
    70
390
1D
100
AcDb2dPolyline
 66
     1
 10
0.0
 20
0.0
 30
0.0
 70
     1
 75
     5
  0
VERTEX
  5
E4
330
E3
100
AcDbEntity
  8
一般
  6
Continuous
 62
     7
370
    70
390
1D
100
AcDbVertex
100
AcDb2dVertex
 10
-379.99924
 20
256.99974
 30
0.0
  0
VERTEX
  5
E5
330
E3
100
AcDbEntity
  8
一般
  6
Continuous
 62
     7
370
    70
390
1D
100
AcDbVertex
100
AcDb2dVertex
 10
379.99924
 20
256.99974
 30
0.0
  0
VERTEX
  5
E6
330
E3
100
AcDbEntity
  8
一般
  6
Continuous
 62
     7
370
    70
390
1D
100
AcDbVertex
100
AcDb2dVertex
 10
379.99924
 20
-256.99974
 30
0.0
  0
VERTEX
  5
E7
330
E3
100
AcDbEntity
  8
一般
  6
Continuous
 62
     7
370
    70
390
1D
100
AcDbVertex
100
AcDb2dVertex
 10
-379.99924
 20
-256.99974
 30
0.0
  0
SEQEND
  5
E8
330
E3
100
AcDbEntity
  8
一般
  6
Continuous
 62
     7
370
    70
390
1D
  0
LINE
  5
EA
330
2C
100
AcDbEntity
  8
一般
  6
Continuous
 62
     7
370
    70
390
1D
100
AcDbLine
 10
-379.99924
 20
256.99974
 30
0.0
 11
-379.99924
 21
276.30374
 31
0.0
  0
LINE
  5
EB
330
2C
100
AcDbEntity
  8
一般
  6
Continuous
 62
     7
370
    70
390
1D
100
AcDbLine
 10
-253.3328266666667
 20
256.99974
 30
0.0
 11
-253.3328266666667
 21
276.30374
 31
0.0
  0
LINE
  5
EC
330
2C
100
AcDbEntity
  8
一般
  6
Continuous
 62
     7
370
    70
390
1D
100
AcDbLine
 10
-126.6664133333334
 20
256.99974
 30
0.0
 11
-126.6664133333334
 21
276.30374
 31
0.0
  0
LINE
  5
ED
330
2C
100
AcDbEntity
  8
一般
  6
Continuous
 62
     7
370
    70
390
1D
100
AcDbLine
 10
-0.0000000000000284
 20
256.99974
 30
0.0
 11
-0.0000000000000284
 21
276.30374
 31
0.0
  0
LINE
  5
EE
330
2C
100
AcDbEntity
  8
一般
  6
Continuous
 62
     7
370
    70
390
1D
100
AcDbLine
 10
126.6664133333333
 20
256.99974
 30
0.0
 11
126.6664133333333
 21
276.30374
 31
0.0
  0
LINE
  5
EF
330
2C
100
AcDbEntity
  8
一般
  6
Continuous
 62
     7
370
    70
390
1D
100
AcDbLine
 10
253.3328266666666
 20
256.99974
 30
0.0
 11
253.3328266666666
 21
276.30374
 31
0.0
  0
LINE
  5
F0
330
2C
100
AcDbEntity
  8
一般
  6
Continuous
 62
     7
370
    70
390
1D
100
AcDbLine
 10
379.9992399999999
 20
256.99974
 30
0.0
 11
379.9992399999999
 21
276.30374
 31
0.0
  0
LINE
  5
F1
330
2C
100
AcDbEntity
  8
一般
  6
Continuous
 62
     7
370
    70
390
1D
100
AcDbLine
 10
-379.99924
 20
-256.99974
 30
0.0
 11
-379.99924
 21
-276.30374
 31
0.0
  0
LINE
  5
F2
330
2C
100
AcDbEntity
  8
一般
  6
Continuous
 62
     7
370
    70
390
1D
100
AcDbLine
 10
-253.3328266666667
 20
-256.99974
 30
0.0
 11
-253.3328266666667
 21
-276.30374
 31
0.0
  0
LINE
  5
F3
330
2C
100
AcDbEntity
  8
一般
  6
Continuous
 62
     7
370
    70
390
1D
100
AcDbLine
 10
-126.6664133333334
 20
-256.99974
 30
0.0
 11
-126.6664133333334
 21
-276.30374
 31
0.0
  0
LINE
  5
F4
330
2C
100
AcDbEntity
  8
一般
  6
Continuous
 62
     7
370
    70
390
1D
100
AcDbLine
 10
-0.0000000000000284
 20
-256.99974
 30
0.0
 11
-0.0000000000000284
 21
-276.30374
 31
0.0
  0
LINE
  5
F5
330
2C
100
AcDbEntity
  8
一般
  6
Continuous
 62
     7
370
    70
390
1D
100
AcDbLine
 10
126.6664133333333
 20
-256.99974
 30
0.0
 11
126.6664133333333
 21
-276.30374
 31
0.0
  0
LINE
  5
F6
330
2C
100
AcDbEntity
  8
一般
  6
Continuous
 62
     7
370
    70
390
1D
100
AcDbLine
 10
253.3328266666666
 20
-256.99974
 30
0.0
 11
253.3328266666666
 21
-276.30374
 31
0.0
  0
LINE
  5
F7
330
2C
100
AcDbEntity
  8
一般
  6
Continuous
 62
     7
370
    70
390
1D
100
AcDbLine
 10
379.9992399999999
 20
-256.99974
 30
0.0
 11
379.9992399999999
 21
-276.30374
 31
0.0
  0
LINE
  5
F8
330
2C
100
AcDbEntity
  8
一般
  6
Continuous
 62
     7
370
    70
390
1D
100
AcDbLine
 10
-379.99924
 20
256.99974
 30
0.0
 11
-399.30324
 21
256.99974
 31
0.0
  0
LINE
  5
F9
330
2C
100
AcDbEntity
  8
一般
  6
Continuous
 62
     7
370
    70
390
1D
100
AcDbLine
 10
-379.99924
 20
128.49987
 30
0.0
 11
-399.30324
 21
128.49987
 31
0.0
  0
LINE
  5
FA
330
2C
100
AcDbEntity
  8
一般
  6
Continuous
 62
     7
370
    70
390
1D
100
AcDbLine
 10
-379.99924
 20
0.0
 30
0.0
 11
-399.30324
 21
0.0
 31
0.0
  0
LINE
  5
FB
330
2C
100
AcDbEntity
  8
一般
  6
Continuous
 62
     7
370
    70
390
1D
100
AcDbLine
 10
-379.99924
 20
-128.49987
 30
0.0
 11
-399.30324
 21
-128.49987
 31
0.0
  0
LINE
  5
FC
330
2C
100
AcDbEntity
  8
一般
  6
Continuous
 62
     7
370
    70
390
1D
100
AcDbLine
 10
-379.99924
 20
-256.99974
 30
0.0
 11
-399.30324
 21
-256.99974
 31
0.0
  0
LINE
  5
FD
330
2C
100
AcDbEntity
  8
一般
  6
Continuous
 62
     7
370
    70
390
1D
100
AcDbLine
 10
379.99924
 20
256.99974
 30
0.0
 11
399.30324
 21
256.99974
 31
0.0
  0
LINE
  5
FE
330
2C
100
AcDbEntity
  8
一般
  6
Continuous
 62
     7
370
    70
390
1D
100
AcDbLine
 10
379.99924
 20
128.49987
 30
0.0
 11
399.30324
 21
128.49987
 31
0.0
  0
LINE
  5
FF
330
2C
100
AcDbEntity
  8
一般
  6
Continuous
 62
     7
370
    70
390
1D
100
AcDbLine
 10
379.99924
 20
0.0
 30
0.0
 11
399.30324
 21
0.0
 31
0.0
  0
LINE
  5
100
330
2C
100
AcDbEntity
  8
一般
  6
Continuous
 62
     7
370
    70
390
1D
100
AcDbLine
 10
379.99924
 20
-128.49987
 30
0.0
 11
399.30324
 21
-128.49987
 31
0.0
  0
LINE
  5
101
330
2C
100
AcDbEntity
  8
一般
  6
Continuous
 62
     7
370
    70
390
1D
100
AcDbLine
 10
379.99924
 20
-256.99974
 30
0.0
 11
399.30324
 21
-256.99974
 31
0.0
  0
MTEXT
  5
102
330
2C
100
AcDbEntity
  8
一般
 62
     7
390
1D
100
AcDbMText
 10
-316.6660333333333
 20
269.69974
 30
0.0
 40
8.04912109375
 41
0.0
 71
     5
 72
     1
  1
1
  7
Calibri (bold)
 73
     1
 44
1.159596784673362
  0
MTEXT
  5
103
330
2C
100
AcDbEntity
  8
一般
 62
     7
390
1D
100
AcDbMText
 10
-316.6660333333333
 20
-269.69974
 30
0.0
 40
8.04912109375
 41
0.0
 71
     5
 72
     1
  1
1
  7
Calibri (bold)
 73
     1
 44
1.159596784673362
  0
MTEXT
  5
104
330
2C
100
AcDbEntity
  8
一般
 62
     7
390
1D
100
AcDbMText
 10
-189.99962
 20
269.69974
 30
0.0
 40
8.04912109375
 41
0.0
 71
     5
 72
     1
  1
2
  7
Calibri (bold)
 73
     1
 44
1.159596784673362
  0
MTEXT
  5
105
330
2C
100
AcDbEntity
  8
一般
 62
     7
390
1D
100
AcDbMText
 10
-189.99962
 20
-269.69974
 30
0.0
 40
8.04912109375
 41
0.0
 71
     5
 72
     1
  1
2
  7
Calibri (bold)
 73
     1
 44
1.159596784673362
  0
MTEXT
  5
106
330
2C
100
AcDbEntity
  8
一般
 62
     7
390
1D
100
AcDbMText
 10
-63.33320666666667
 20
269.69974
 30
0.0
 40
8.04912109375
 41
0.0
 71
     5
 72
     1
  1
3
  7
Calibri (bold)
 73
     1
 44
1.159596784673362
  0
MTEXT
  5
107
330
2C
100
AcDbEntity
  8
一般
 62
     7
390
1D
100
AcDbMText
 10
-63.33320666666667
 20
-269.69974
 30
0.0
 40
8.04912109375
 41
0.0
 71
     5
 72
     1
  1
3
  7
Calibri (bold)
 73
     1
 44
1.159596784673362
  0
MTEXT
  5
108
330
2C
100
AcDbEntity
  8
一般
 62
     7
390
1D
100
AcDbMText
 10
63.33320666666665
 20
269.69974
 30
0.0
 40
8.04912109375
 41
0.0
 71
     5
 72
     1
  1
4
  7
Calibri (bold)
 73
     1
 44
1.159596784673362
  0
MTEXT
  5
109
330
2C
100
AcDbEntity
  8
一般
 62
     7
390
1D
100
AcDbMText
 10
63.33320666666665
 20
-269.69974
 30
0.0
 40
8.04912109375
 41
0.0
 71
     5
 72
     1
  1
4
  7
Calibri (bold)
 73
     1
 44
1.159596784673362
  0
MTEXT
  5
10A
330
2C
100
AcDbEntity
  8
一般
 62
     7
390
1D
100
AcDbMText
 10
189.99962
 20
269.69974
 30
0.0
 40
8.04912109375
 41
0.0
 71
     5
 72
     1
  1
5
  7
Calibri (bold)
 73
     1
 44
1.159596784673362
  0
MTEXT
  5
10B
330
2C
100
AcDbEntity
  8
一般
 62
     7
390
1D
100
AcDbMText
 10
189.99962
 20
-269.69974
 30
0.0
 40
8.04912109375
 41
0.0
 71
     5
 72
     1
  1
5
  7
Calibri (bold)
 73
     1
 44
1.159596784673362
  0
MTEXT
  5
10C
330
2C
100
AcDbEntity
  8
一般
 62
     7
390
1D
100
AcDbMText
 10
316.6660333333333
 20
269.69974
 30
0.0
 40
8.04912109375
 41
0.0
 71
     5
 72
     1
  1
6
  7
Calibri (bold)
 73
     1
 44
1.159596784673362
  0
MTEXT
  5
10D
330
2C
100
AcDbEntity
  8
一般
 62
     7
390
1D
100
AcDbMText
 10
316.6660333333333
 20
-269.69974
 30
0.0
 40
8.04912109375
 41
0.0
 71
     5
 72
     1
  1
6
  7
Calibri (bold)
 73
     1
 44
1.159596784673362
  0
MTEXT
  5
10E
330
2C
100
AcDbEntity
  8
一般
 62
     7
390
1D
100
AcDbMText
 10
-392.69924
 20
192.749805
 30
0.0
 40
8.04912109375
 41
0.0
 71
     5
 72
     1
  1
A
  7
Calibri (bold)
 73
     1
 44
1.159596784673362
  0
MTEXT
  5
10F
330
2C
100
AcDbEntity
  8
一般
 62
     7
390
1D
100
AcDbMText
 10
392.69924
 20
192.749805
 30
0.0
 40
8.04912109375
 41
0.0
 71
     5
 72
     1
  1
A
  7
Calibri (bold)
 73
     1
 44
1.159596784673362
  0
MTEXT
  5
110
330
2C
100
AcDbEntity
  8
一般
 62
     7
390
1D
100
AcDbMText
 10
-392.69924
 20
64.24993500000002
 30
0.0
 40
8.04912109375
 41
0.0
 71
     5
 72
     1
  1
B
  7
Calibri (bold)
 73
     1
 44
1.159596784673362
  0
MTEXT
  5
111
330
2C
100
AcDbEntity
  8
一般
 62
     7
390
1D
100
AcDbMText
 10
392.69924
 20
64.24993500000002
 30
0.0
 40
8.04912109375
 41
0.0
 71
     5
 72
     1
  1
B
  7
Calibri (bold)
 73
     1
 44
1.159596784673362
  0
MTEXT
  5
112
330
2C
100
AcDbEntity
  8
一般
 62
     7
390
1D
100
AcDbMText
 10
-392.69924
 20
-64.249935
 30
0.0
 40
8.04912109375
 41
0.0
 71
     5
 72
     1
  1
C
  7
Calibri (bold)
 73
     1
 44
1.159596784673362
  0
MTEXT
  5
113
330
2C
100
AcDbEntity
  8
一般
 62
     7
390
1D
100
AcDbMText
 10
392.69924
 20
-64.249935
 30
0.0
 40
8.04912109375
 41
0.0
 71
     5
 72
     1
  1
C
  7
Calibri (bold)
 73
     1
 44
1.159596784673362
  0
MTEXT
  5
114
330
2C
100
AcDbEntity
  8
一般
 62
     7
390
1D
100
AcDbMText
 10
-392.69924
 20
-192.749805
 30
0.0
 40
8.04912109375
 41
0.0
 71
     5
 72
     1
  1
D
  7
Calibri (bold)
 73
     1
 44
1.159596784673362
  0
MTEXT
  5
115
330
2C
100
AcDbEntity
  8
一般
 62
     7
390
1D
100
AcDbMText
 10
392.69924
 20
-192.749805
 30
0.0
 40
8.04912109375
 41
0.0
 71
     5
 72
     1
  1
D
  7
Calibri (bold)
 73
     1
 44
1.159596784673362
  0
ENDBLK
  5
116
330
2C
100
AcDbEntity
  8
一般
390
1D
100
AcDbBlockEnd
  0
BLOCK
  5
117
330
2D
100
AcDbEntity
  8
一般
390
1D
100
AcDbBlockBegin
  2
Drawing Border - Universal
 70
     0
 71
     0
 10
0.0
 20
0.0
 30
0.0
  3
Drawing Border - Universal
  1

  0
INSERT
  5
118
330
2D
100
AcDbEntity
  8
一般
 62
     7
390
1D
100
AcDbBlockReference
  2
グループ-4
 10
0.0
 20
0.0
 30
0.0
  0
ENDBLK
  5
119
330
2D
100
AcDbEntity
  8
一般
390
1D
100
AcDbBlockEnd
  0
BLOCK
  5
11A
330
2E
100
AcDbEntity
  8
寸法
390
1D
100
AcDbBlockBegin
  2
*D12
 70
     1
 71
     0
 10
0.0
 20
0.0
 30
0.0
  3
*D12
  1

  0
LINE
  5
11B
330
2E
100
AcDbEntity
  8
寸法
  6
STYLE_01
 62
     0
370
    -2
390
1D
100
AcDbLine
 10
0.0
 20
-153.1749999999998
 30
0.0
 11
0.0
 21
-230.9068622475836
 31
0.0
  0
LINE
  5
11C
330
2E
100
AcDbEntity
  8
寸法
  6
STYLE_01
 62
     0
370
    -2
390
1D
100
AcDbLine
 10
15.99999999999996
 20
-120.6749999999998
 30
0.0
 11
15.99999999999996
 21
-230.9068622475836
 31
0.0
  0
LINE
  5
11D
330
2E
100
AcDbEntity
  8
寸法
  6
STYLE_01
 62
     0
370
    -2
390
1D
100
AcDbLine
 10
-3.175000000000011
 20
-224.5568622475836
 30
0.0
 11
0.0
 21
-224.5568622475836
 31
0.0
  0
LINE
  5
11E
330
2E
100
AcDbEntity
  8
寸法
  6
STYLE_01
 62
     0
370
    -2
390
1D
100
AcDbLine
 10
15.99999999999996
 20
-224.5568622475836
 30
0.0
 11
19.17499999999995
 21
-224.5568622475836
 31
0.0
  0
LINE
  5
11F
330
2E
100
AcDbEntity
  8
寸法
  6
STYLE_01
 62
     0
370
    -2
390
1D
100
AcDbLine
 10
0.0
 20
-224.5568622475836
 30
0.0
 11
15.99999999999996
 21
-224.5568622475836
 31
0.0
  0
LINE
  5
120
330
2E
100
AcDbEntity
  8
寸法
  6
STYLE_01
 62
     0
370
    20
390
1D
100
AcDbLine
 10
2.245064030267287
 20
-222.3117982173163
 30
0.0
 11
-2.245064030267287
 21
-226.8019262778509
 31
0.0
  0
LINE
  5
121
330
2E
100
AcDbEntity
  8
寸法
  6
STYLE_01
 62
     0
370
    20
390
1D
100
AcDbLine
 10
13.75493596973267
 20
-226.8019262778509
 30
0.0
 11
18.24506403026724
 21
-222.3117982173163
 31
0.0
  0
MTEXT
  5
122
330
2E
100
AcDbEntity
  8
寸法
 62
     0
390
1D
100
AcDbMText
 10
1.522999784681502
 20
-209.9037411538336
 30
0.0
 40
8.04912109375
 41
0.0
 71
     1
 72
     1
  1
16
  7
Calibri (bold)
 73
     1
 44
1.159596784673362
  0
POINT
  5
123
330
2E
100
AcDbEntity
  8
Defpoints
 62
     0
370
     0
390
1D
100
AcDbPoint
 10
15.99999999999996
 20
-117.4999999999998
 30
0.0
  0
POINT
  5
124
330
2E
100
AcDbEntity
  8
Defpoints
 62
     0
370
     0
390
1D
100
AcDbPoint
 10
0.0
 20
-149.9999999999998
 30
0.0
  0
POINT
  5
125
330
2E
100
AcDbEntity
  8
Defpoints
 62
     0
370
     0
390
1D
100
AcDbPoint
 10
0.0
 20
-224.5568622475836
 30
0.0
  0
ENDBLK
  5
126
330
2E
100
AcDbEntity
  8
寸法
390
1D
100
AcDbBlockEnd
  0
BLOCK
  5
127
330
2F
100
AcDbEntity
  8
寸法
390
1D
100
AcDbBlockBegin
  2
*D13
 70
     1
 71
     0
 10
0.0
 20
0.0
 30
0.0
  3
*D13
  1

  0
LINE
  5
128
330
2F
100
AcDbEntity
  8
寸法
  6
STYLE_01
 62
     0
370
    -2
390
1D
100
AcDbLine
 10
232.2698042066841
 20
74.99999999999991
 30
0.0
 11
-61.35000000000005
 21
74.99999999999991
 31
0.0
  0
LINE
  5
129
330
2F
100
AcDbEntity
  8
寸法
  6
STYLE_01
 62
     0
370
    -2
390
1D
100
AcDbLine
 10
232.2698042066841
 20
-75.00000000000045
 30
0.0
 11
-61.35000000000002
 21
-75.00000000000045
 31
0.0
  0
LINE
  5
12A
330
2F
100
AcDbEntity
  8
寸法
  6
STYLE_01
 62
     0
370
    -2
390
1D
100
AcDbLine
 10
-55.00000000000003
 20
78.1749999999999
 30
0.0
 11
-55.00000000000003
 21
74.99999999999991
 31
0.0
  0
LINE
  5
12B
330
2F
100
AcDbEntity
  8
寸法
  6
STYLE_01
 62
     0
370
    -2
390
1D
100
AcDbLine
 10
-55.00000000000003
 20
-75.00000000000045
 30
0.0
 11
-55.00000000000003
 21
-78.17500000000045
 31
0.0
  0
LINE
  5
12C
330
2F
100
AcDbEntity
  8
寸法
  6
STYLE_01
 62
     0
370
    -2
390
1D
100
AcDbLine
 10
-55.00000000000003
 20
74.99999999999991
 30
0.0
 11
-55.00000000000003
 21
-75.00000000000045
 31
0.0
  0
LINE
  5
12D
330
2F
100
AcDbEntity
  8
寸法
  6
STYLE_01
 62
     0
370
    20
390
1D
100
AcDbLine
 10
-52.75493596973274
 20
72.75493596973263
 30
0.0
 11
-57.24506403026732
 21
77.2450640302672
 31
0.0
  0
LINE
  5
12E
330
2F
100
AcDbEntity
  8
寸法
  6
STYLE_01
 62
     0
370
    20
390
1D
100
AcDbLine
 10
-57.24506403026732
 20
-72.75493596973317
 30
0.0
 11
-52.75493596973274
 21
-77.24506403026774
 31
0.0
  0
WIPEOUT
  5
12F
330
2F
100
AcDbEntity
  8
寸法
  6
STYLE_01
 62
     0
370
    -2
390
1D
 92
      308
310
3401000002000000A80000000B0000008C4160E5D06A52C077E257FBF4EC5C40000000000000000000000000000000000000000000000000000000000000F03F000000000000F03F0000000000000000000000000000000041634462576970656F757400FFFFFFFF000000000000000000000000000000000000F03F000000
310
0000000000000000000000F03F000000000000000000000000000000000000000074787400424947464F4E542E534858008400000006000000050000008C4160E5D06A52C077E257FBF4EC5C400000000000000000A10B49C3761E4BC077E257FBF4EC5C400000000000000000A10B49C3761E4BC019CF893F45E460400000
310
0000000000008C4160E5D06A52C019CF893F45E4604000000000000000008C4160E5D06A52C077E257FBF4EC5C400000000000000000
100
AcDbWipeout
 90
        0
 10
-73.66900000000004
 20
115.7024525030373
 30
0.0
 11
19.4310006459554
 21
0.0
 31
0.0
 12
0.0
 22
19.4310006459554
 32
0.0
 13
1.0
 23
1.0
340
0
 70
     7
280
     1
281
    50
282
    50
283
     0
360
0
 71
     2
 91
        5
 14
0.2973855944071056
 24
6.954528776526043
 14
0.2973855944071056
 24
5.954528776526043
 14
-0.5
 24
5.954528776526043
 14
-0.5
 24
6.954528776526043
 14
0.2973855944071056
 24
6.954528776526043
  0
MTEXT
  5
130
330
2F
100
AcDbEntity
  8
寸法
 62
     0
390
1D
100
AcDbMText
 10
-69.65312109375003
 20
-9.715500322977974
 30
0.0
 40
8.04912109375
 41
0.0
 71
     1
 72
     1
  1
150
  7
Calibri (bold)
 11
0.0
 21
1.0
 31
0.0
 73
     1
 44
1.159596784673362
  0
POINT
  5
131
330
2F
100
AcDbEntity
  8
Defpoints
 62
     0
370
     0
390
1D
100
AcDbPoint
 10
235.4448042066841
 20
-75.00000000000045
 30
0.0
  0
POINT
  5
132
330
2F
100
AcDbEntity
  8
Defpoints
 62
     0
370
     0
390
1D
100
AcDbPoint
 10
235.4448042066841
 20
74.99999999999991
 30
0.0
  0
POINT
  5
133
330
2F
100
AcDbEntity
  8
Defpoints
 62
     0
370
     0
390
1D
100
AcDbPoint
 10
-55.00000000000003
 20
74.99999999999991
 30
0.0
  0
ENDBLK
  5
134
330
2F
100
AcDbEntity
  8
寸法
390
1D
100
AcDbBlockEnd
  0
ENDSEC
  0
SECTION
  2
ENTITIES
  0
INSERT
  5
135
330
A
100
AcDbEntity
  8
一般
 62
     7
390
1D
100
AcDbBlockReference
  2
グループ-2
 10
140.8610905784317
 20
15.44313775241639
 30
0.0
  0
INSERT
  5
136
330
A
100
AcDbEntity
  8
一般
 62
     7
390
1D
100
AcDbBlockReference
  2
グループ-3
 10
140.8610905784317
 20
15.44313775241639
 30
0.0
  0
DIMENSION
  5
137
330
A
100
AcDbEntity
  8
寸法
  6
STYLE_01
 62
     7
370
    18
390
1D
100
AcDbDimension
  2
*D6
 10
-83.5551957933159
 20
104.9999999999997
 30
0.0
 11
-83.5551957933159
 21
-0.0000000000000995
 31
0.0
 70
    32
 71
     5
 42
-1.0
  3
Arch
100
AcDbAlignedDimension
 13
235.4448042066841
 23
-104.9999999999999
 33
0.0
 14
235.4448042066841
 24
104.9999999999997
 34
0.0
 50
90.0
100
AcDbRotatedDimension
1001
ACAD
1000
DSTYLE
1002
{
1070
   279
1070
     2
1070
   340
1005
30
1002
}
  0
DIMENSION
  5
138
330
A
100
AcDbEntity
  8
寸法
  6
STYLE_01
 62
     7
370
    18
390
1D
100
AcDbDimension
  2
*D7
 10
-114.5551957933159
 20
117.4999999999997
 30
0.0
 11
-114.5551957933159
 21
-0.0000000000000426
 31
0.0
 70
    32
 71
     5
 42
-1.0
  3
Arch
100
AcDbAlignedDimension
 13
235.4448042066841
 23
-117.4999999999998
 33
0.0
 14
235.4448042066841
 24
117.4999999999997
 34
0.0
 50
90.0
100
AcDbRotatedDimension
1001
ACAD
1000
DSTYLE
1002
{
1070
   279
1070
     2
1070
   340
1005
30
1002
}
  0
DIMENSION
  5
139
330
A
100
AcDbEntity
  8
寸法
  6
STYLE_01
 62
     7
370
    18
390
1D
100
AcDbDimension
  2
*D8
 10
-144.5551957933159
 20
134.9999999999997
 30
0.0
 11
-144.5551957933159
 21
-0.0000000000000426
 31
0.0
 70
    32
 71
     5
 42
-1.0
  3
Arch
100
AcDbAlignedDimension
 13
235.4448042066841
 23
-134.9999999999998
 33
0.0
 14
235.4448042066841
 24
134.9999999999997
 34
0.0
 50
90.0
100
AcDbRotatedDimension
1001
ACAD
1000
DSTYLE
1002
{
1070
   279
1070
     2
1070
   340
1005
30
1002
}
  0
DIMENSION
  5
13A
330
A
100
AcDbEntity
  8
寸法
  6
STYLE_01
 62
     7
370
    18
390
1D
100
AcDbDimension
  2
*D9
 10
-175.5551957933159
 20
149.9999999999998
 30
0.0
 11
-175.5551957933159
 21
0.0
 31
0.0
 70
    32
 71
     5
 42
-1.0
  3
Arch
100
AcDbAlignedDimension
 13
235.4448042066841
 23
-149.9999999999998
 33
0.0
 14
235.4448042066841
 24
149.9999999999998
 34
0.0
 50
90.0
100
AcDbRotatedDimension
1001
ACAD
1000
DSTYLE
1002
{
1070
   279
1070
     2
1070
   340
1005
30
1002
}
  0
WIPEOUT
  5
13B
330
A
100
AcDbEntity
  8
一般
  6
Continuous
 62
     7
370
    18
390
1D
 92
      308
310
3401000002000000A80000000B000000C8CFFC70B07075407D726D6AEFFC6F40000000000000000000000000000000000000000000000000000000000000F03F000000000000F03F0000000000000000000000000000000041634462576970656F757400FFFFFFFF000000000000000000000000000000000000F03F000000
310
0000000000000000000000F03F000000000000000000000000000000000000000074787400424947464F4E542E53485800840000000600000005000000C8CFFC70B07075407D726D6AEFFC6F4000000000000000007E300889DDE87E407D726D6AEFFC6F4000000000000000007E300889DDE87E40F51942CDA47679400000
310
000000000000C8CFFC70B0707540F51942CDA47679400000000000000000C8CFFC70B07075407D726D6AEFFC6F400000000000000000
100
AcDbWipeout
 90
        0
 10
343.0430765033202
 20
255.9042255532876
 30
0.0
 11
151.5110092586941
 21
0.0
 31
0.0
 12
0.0
 22
151.5110092586941
 32
0.0
 13
1.0
 23
1.0
340
0
 70
     7
280
     1
281
    50
282
    50
283
     0
360
0
 71
     2
 91
        5
 14
-0.5
 24
1.327781119270832
 14
0.4999999999999998
 24
1.327781119270832
 14
0.4999999999999998
 24
1.123254727745777
 14
-0.5
 24
1.123254727745777
 14
-0.5
 24
1.327781119270832
  0
MTEXT
  5
13C
330
A
100
AcDbEntity
  8
一般
 62
     7
390
1D
100
AcDbMText
 10
343.0430765033202
 20
157.4583938210223
 30
0.0
 40
8.04912109375
 41
0.0
 71
     1
 72
     1
  1
8-φ12\P(裏) 8-φ18 ザグリ（深11mm）
  7
Calibri (bold)
 73
     1
 44
1.159596784673362
  0
LINE
  5
13D
330
A
100
AcDbEntity
  8
一般
  6
STYLE_07
 62
     7
370
    18
390
1D
100
AcDbLine
 10
244.4448042066841
 20
104.9999999999997
 30
0.0
 11
329.4448042066842
 21
146.7272727272723
 31
0.0
  0
WIPEOUT
  5
13E
330
A
100
AcDbEntity
  8
一般
  6
Continuous
 62
     7
370
    18
390
1D
 92
      308
310
3401000002000000A80000000B00000038A142880D657840900591E0EAE12140000000000000000000000000000000000000000000000000000000000000F03F000000000000F03F0000000000000000000000000000000041634462576970656F757400FFFFFFFF000000000000000000000000000000000000F03F000000
310
0000000000000000000000F03F000000000000000000000000000000000000000074787400424947464F4E542E5348580084000000060000000500000038A142880D657840900591E0EAE1214000000000000000006679C54D2E697A40900591E0EAE1214000000000000000006679C54D2E697A40D0023BE4809944400000
310
00000000000038A142880D657840D0023BE480994440000000000000000038A142880D657840900591E0EAE121400000000000000000
100
AcDbWipeout
 90
        0
 10
390.3158037760472
 20
8.941245095923279
 30
0.0
 11
32.25800086127387
 21
0.0
 31
0.0
 12
0.0
 22
32.25800086127387
 32
0.0
 13
1.0
 23
1.0
340
0
 70
     7
280
     1
281
    50
282
    50
283
     0
360
0
 71
     2
 91
        5
 14
-0.5
 24
4.387964209728231
 14
0.5000000000000009
 24
4.387964209728231
 14
0.5000000000000009
 24
3.9076492619225
 14
-0.5
 24
3.9076492619225
 14
-0.5
 24
4.387964209728231
  0
MTEXT
  5
13F
330
A
100
AcDbEntity
  8
一般
 62
     7
390
1D
100
AcDbMText
 10
390.3158037760472
 20
-104.998586636342
 30
0.0
 40
8.04912109375
 41
0.0
 71
     1
 72
     1
  1
8-φ15
  7
Calibri (bold)
 73
     1
 44
1.159596784673362
  0
LINE
  5
140
330
A
100
AcDbEntity
  8
一般
  6
STYLE_06
 62
     7
370
    18
390
1D
100
AcDbLine
 10
338.4042196668688
 20
-95.45941546018396
 30
0.0
 11
382.4245119367765
 21
-107.7297077300917
 31
0.0
  0
WIPEOUT
  5
141
330
A
100
AcDbEntity
  8
一般
  6
Continuous
 62
     7
370
    18
390
1D
 92
      308
310
3401000002000000A80000000B00000069E5F729C4F165C0882CC282C8DE7540000000000000000000000000000000000000000000000000000000000000F03F000000000000F03F0000000000000000000000000000000041634462576970656F757400FFFFFFFF000000000000000000000000000000000000F03F000000
310
0000000000000000000000F03F000000000000000000000000000000000000000074787400424947464F4E542E5348580084000000060000000500000069E5F729C4F165C0882CC282C8DE75400000000000000000E81F096F1A8D30C0882CC282C8DE75400000000000000000E81F096F1A8D30C03E8DCDF0D8CE7F400000
310
00000000000069E5F729C4F165C03E8DCDF0D8CE7F40000000000000000069E5F729C4F165C0882CC282C8DE75400000000000000000
100
AcDbWipeout
 90
        0
 10
-175.555195793316
 20
349.9239528260155
 30
0.0
 11
159.0040111965603
 21
0.0
 31
0.0
 12
0.0
 22
159.0040111965603
 32
0.0
 13
1.0
 23
1.0
340
0
 70
     7
280
     1
281
    50
282
    50
283
     0
360
0
 71
     2
 91
        5
 14
-0.5
 24
1.288772257266982
 14
0.5
 24
1.288772257266982
 14
0.5
 24
1.191328174671818
 14
-0.5
 24
1.191328174671818
 14
-0.5
 24
1.288772257266982
  0
MTEXT
  5
142
330
A
100
AcDbEntity
  8
一般
 62
     7
390
1D
100
AcDbMText
 10
-175.555195793316
 20
235.9841210937502
 30
0.0
 40
8.04912109375
 41
0.0
 71
     1
 72
     1
  1
I. VF200 - VG150 変換フランジ
  7
Calibri (bold)
 73
     1
 44
1.159596784673362
  0
INSERT
  5
143
330
A
100
AcDbEntity
  8
一般
 62
     7
390
1D
100
AcDbBlockReference
  2
Drawing Border - Universal
 10
140.8610905784317
 20
15.44313775241639
 30
0.0
  0
DIMENSION
  5
144
330
A
100
AcDbEntity
  8
寸法
  6
STYLE_01
 62
     7
370
    18
390
1D
100
AcDbDimension
  2
*D12
 10
0.0
 20
-224.5568622475836
 30
0.0
 11
7.999999999999972
 21
-224.5568622475836
 31
0.0
 70
    32
 71
     5
 42
-1.0
  3
Arch
100
AcDbAlignedDimension
 13
15.99999999999996
 23
-117.4999999999998
 33
0.0
 14
0.0
 24
-149.9999999999998
 34
0.0
100
AcDbRotatedDimension
1001
ACAD
1000
DSTYLE
1002
{
1070
   279
1070
     2
1070
   340
1005
30
1070
   147
1040
3.175
1002
}
  0
DIMENSION
  5
145
330
A
100
AcDbEntity
  8
寸法
  6
STYLE_01
 62
     7
370
    18
390
1D
100
AcDbDimension
  2
*D13
 10
-55.00000000000003
 20
74.99999999999991
 30
0.0
 11
-55.00000000000003
 21
-0.0000000000002771
 31
0.0
 70
    32
 71
     5
 42
-1.0
  3
Arch
100
AcDbAlignedDimension
 13
235.4448042066841
 23
-75.00000000000045
 33
0.0
 14
235.4448042066841
 24
74.99999999999991
 34
0.0
 50
90.0
100
AcDbRotatedDimension
1001
ACAD
1000
DSTYLE
1002
{
1070
   279
1070
     2
1070
   340
1005
30
1070
   147
1040
3.175
1002
}
  0
ENDSEC
  0
SECTION
  2
OBJECTS
  0
DICTIONARY
  5
19
330
0
100
AcDbDictionary
281
     1
  3
ACAD_GROUP
350
1A
  3
ACAD_LAYOUT
350
1E
  3
ACAD_MLINESTYLE
350
1B
  3
ACAD_PLOTSETTINGS
350
22
  3
ACAD_PLOTSTYLENAME
350
1F
  3
ACAD_WIPEOUT_VARS
350
23
  0
DICTIONARY
  5
1A
102
{ACAD_REACTORS
330
19
102
}
330
19
100
AcDbDictionary
281
     1
  0
DICTIONARY
  5
1E
102
{ACAD_REACTORS
330
19
102
}
330
19
100
AcDbDictionary
281
     1
  3
Layout1
350
21
  3
Model
350
20
  0
DICTIONARY
  5
1B
102
{ACAD_REACTORS
330
19
102
}
330
19
100
AcDbDictionary
281
     1
  3
Standard
350
1C
  0
DICTIONARY
  5
22
102
{ACAD_REACTORS
330
19
102
}
330
19
100
AcDbDictionary
281
     1
  0
ACDBDICTIONARYWDFLT
  5
1F
102
{ACAD_REACTORS
330
19
102
}
330
19
100
AcDbDictionary
281
     1
  3
Normal
350
1D
100
AcDbDictionaryWithDefault
340
1D
  0
WIPEOUTVARIABLES
  5
23
330
19
100
AcDbWipeoutVariables
 70
     0
  0
LAYOUT
  5
21
102
{ACAD_REACTORS
330
1E
102
}
330
1E
100
AcDbPlotSettings
  1

  2

  4

  6

 40
0.0
 41
0.0
 42
0.0
 43
0.0
 44
0.0
 45
0.0
 46
0.0
 47
0.0
 48
0.0
 49
0.0
140
0.0
141
0.0
142
1.0
143
1.0
 70
     0
 72
     0
 73
     0
 74
     0
  7

 75
     0
 76
     0
 77
     2
 78
   300
147
1.0
148
0.0
149
0.0
100
AcDbLayout
  1
Layout1
 70
     0
 71
     0
 10
0.0
 20
0.0
 11
0.0
 21
0.0
 12
0.0
 22
0.0
 32
0.0
 14
0.0
 24
0.0
 34
0.0
 15
0.0
 25
0.0
 35
0.0
146
0.0
 13
0.0
 23
0.0
 33
0.0
 16
0.0
 26
0.0
 36
0.0
 17
0.0
 27
0.0
 37
0.0
 76
     0
330
B
  0
LAYOUT
  5
20
102
{ACAD_REACTORS
330
1E
102
}
330
1E
100
AcDbPlotSettings
  1

  2

  4

  6

 40
0.0
 41
0.0
 42
0.0
 43
0.0
 44
0.0
 45
0.0
 46
0.0
 47
0.0
 48
0.0
 49
0.0
140
0.0
141
0.0
142
1.0
143
1.0
 70
  1024
 72
     0
 73
     0
 74
     0
  7

 75
     0
 76
     0
 77
     2
 78
   300
147
1.0
148
0.0
149
0.0
100
AcDbLayout
  1
Model
 70
     0
 71
     0
 10
0.0
 20
0.0
 11
0.0
 21
0.0
 12
0.0
 22
0.0
 32
0.0
 14
0.0
 24
0.0
 34
0.0
 15
0.0
 25
0.0
 35
0.0
146
0.0
 13
0.0
 23
0.0
 33
0.0
 16
0.0
 26
0.0
 36
0.0
 17
0.0
 27
0.0
 37
0.0
 76
     0
330
A
  0
MLINESTYLE
  5
1C
102
{ACAD_REACTORS
330
1B
102
}
330
1B
100
AcDbMlineStyle
  2
Standard
 70
     0
  3

 62
     0
 51
90.0
 52
90.0
 71
     2
 49
0.5
 62
   256
  6
BYLAYER
 49
-0.5
 62
   256
  6
BYLAYER
  0
ACDBPLACEHOLDER
  5
1D
102
{ACAD_REACTORS
330
1F
102
}
330
1F
  0
ENDSEC
  0
EOF
