  0
SECTION
  2
HEADER
  9
$ACADVER
  1
AC1018
  9
$ACADMAINTVER
 70
     0
  9
$DWGCODEPAGE
  3
ANSI_932
  9
$INSBASE
 10
0.0
 20
0.0
 30
0.0
  9
$EXTMIN
 10
-635.9987399999999
 20
-427.49949
 30
-6.300152499999999
  9
$EXTMAX
 10
623.9987399999999
 20
463.4994899999998
 30
6.300152499999999
  9
$LIMMIN
 10
0.0
 20
0.0
  9
$LIMMAX
 10
0.0
 20
0.0
  9
$ORTHOMODE
 70
     0
  9
$REGENMODE
 70
     1
  9
$FILLMODE
 70
     1
  9
$QTEXTMODE
 70
     0
  9
$MIRRTEXT
 70
     1
  9
$LTSCALE
 40
15.24
  9
$ATTMODE
 70
     1
  9
$TEXTSIZE
 40
0.2
  9
$TRACEWID
 40
1.0
  9
$TEXTSTYLE
  7
Standard
  9
$CLAYER
  8
一般
  9
$CELTYPE
  6
Continuous
  9
$CECOLOR
 62
   256
  9
$CELTSCALE
 40
1.0
  9
$DISPSILH
 70
     0
  9
$DIMSCALE
 40
1.0
  9
$DIMASZ
 40
6.734472656249999
  9
$DIMEXO
 40
4.762499999999999
  9
$DIMDLI
 40
10.16
  9
$DIMRND
 40
0.0
  9
$DIMDLE
 40
1.5875
  9
$DIMEXE
 40
9.524999999999999
  9
$DIMTP
 40
0.0
  9
$DIMTM
 40
0.0
  9
$DIMTXT
 40
12.073681640625
  9
$DIMCEN
 40
0.0
  9
$DIMTSZ
 40
0.0
  9
$DIMTOL
 70
     0
  9
$DIMLIM
 70
     0
  9
$DIMTIH
 70
     0
  9
$DIMTOH
 70
     0
  9
$DIMSE1
 70
     0
  9
$DIMSE2
 70
     0
  9
$DIMTAD
 70
     1
  9
$DIMZIN
 70
    11
  9
$DIMBLK
  1
VW_SLASH
  9
$DIMASO
 70
     1
  9
$DIMSHO
 70
     1
  9
$DIMPOST
  1
<>
  9
$DIMAPOST
  1
[]
  9
$DIMALT
 70
     0
  9
$DIMALTD
 70
     3
  9
$DIMALTF
 40
0.0010936132983377
  9
$DIMLFAC
 40
1.0
  9
$DIMTOFL
 70
     1
  9
$DIMTVP
 40
0.0
  9
$DIMTIX
 70
     1
  9
$DIMSOXD
 70
     0
  9
$DIMSAH
 70
     0
  9
$DIMBLK1
  1

  9
$DIMBLK2
  1

  9
$DIMSTYLE
  2
Arch
  9
$DIMCLRD
 70
     0
  9
$DIMCLRE
 70
     0
  9
$DIMCLRT
 70
     0
  9
$DIMTFAC
 40
1.0
  9
$DIMGAP
 40
1.5875
  9
$DIMJUST
 70
     0
  9
$DIMSD1
 70
     0
  9
$DIMSD2
 70
     0
  9
$DIMTOLJ
 70
     1
  9
$DIMTZIN
 70
    11
  9
$DIMALTZ
 70
     7
  9
$DIMALTTZ
 70
     7
  9
$DIMUPT
 70
     0
  9
$DIMDEC
 70
     1
  9
$DIMTDEC
 70
     1
  9
$DIMALTU
 70
     2
  9
$DIMALTTD
 70
     2
  9
$DIMTXSTY
  7
Calibri (bold)
  9
$DIMAUNIT
 70
     0
  9
$DIMADEC
 70
     2
  9
$DIMALTRND
 40
0.0
  9
$DIMAZIN
 70
     0
  9
$DIMDSEP
 70
    46
  9
$DIMATFIT
 70
     0
  9
$DIMFRAC
 70
     2
  9
$DIMLDRBLK
  1

  9
$DIMLUNIT
 70
     2
  9
$DIMLWD
 70
    -2
  9
$DIMLWE
 70
    -2
  9
$DIMTMOVE
 70
     0
  9
$LUNITS
 70
     2
  9
$LUPREC
 70
     4
  9
$SKETCHINC
 40
0.1
  9
$FILLETRAD
 40
0.0
  9
$AUNITS
 70
     0
  9
$AUPREC
 70
     0
  9
$MENU
  1
acad
  9
$ELEVATION
 40
0.0
  9
$PELEVATION
 40
0.0
  9
$THICKNESS
 40
0.0
  9
$LIMCHECK
 70
     0
  9
$CHAMFERA
 40
0.0
  9
$CHAMFERB
 40
0.0
  9
$CHAMFERC
 40
0.0
  9
$CHAMFERD
 40
0.0
  9
$SKPOLY
 70
     0
  9
$TDCREATE
 40
2447893.375
  9
$TDUCREATE
 40
0.0
  9
$TDUPDATE
 40
2447893.375
  9
$TDUUPDATE
 40
0.0
  9
$TDINDWG
 40
0.0
  9
$TDUSRTIMER
 40
0.0
  9
$USRTIMER
 70
     1
  9
$ANGBASE
 50
0.0
  9
$ANGDIR
 70
     0
  9
$PDMODE
 70
     1
  9
$PDSIZE
 40
-2.0
  9
$PLINEWID
 40
0.0
  9
$SPLFRAME
 70
     0
  9
$SPLINETYPE
 70
     6
  9
$SPLINESEGS
 70
     8
  9
$HANDSEED
  5
127
  9
$SURFTAB1
 70
     6
  9
$SURFTAB2
 70
     6
  9
$SURFTYPE
 70
     6
  9
$SURFU
 70
     6
  9
$SURFV
 70
     6
  9
$UCSBASE
  2

  9
$UCSNAME
  2

  9
$UCSORG
 10
0.0
 20
0.0
 30
0.0
  9
$UCSXDIR
 10
1.0
 20
0.0
 30
0.0
  9
$UCSYDIR
 10
0.0
 20
1.0
 30
0.0
  9
$UCSORTHOREF
  2

  9
$UCSORTHOVIEW
 70
     0
  9
$UCSORGTOP
 10
0.0
 20
0.0
 30
0.0
  9
$UCSORGBOTTOM
 10
0.0
 20
0.0
 30
0.0
  9
$UCSORGLEFT
 10
0.0
 20
0.0
 30
0.0
  9
$UCSORGRIGHT
 10
0.0
 20
0.0
 30
0.0
  9
$UCSORGFRONT
 10
0.0
 20
0.0
 30
0.0
  9
$UCSORGBACK
 10
0.0
 20
0.0
 30
0.0
  9
$PUCSBASE
  2

  9
$PUCSNAME
  2

  9
$PUCSORG
 10
0.0
 20
0.0
 30
0.0
  9
$PUCSXDIR
 10
1.0
 20
0.0
 30
0.0
  9
$PUCSYDIR
 10
0.0
 20
1.0
 30
0.0
  9
$PUCSORTHOREF
  2

  9
$PUCSORTHOVIEW
 70
     0
  9
$PUCSORGTOP
 10
0.0
 20
0.0
 30
0.0
  9
$PUCSORGBOTTOM
 10
0.0
 20
0.0
 30
0.0
  9
$PUCSORGLEFT
 10
0.0
 20
0.0
 30
0.0
  9
$PUCSORGRIGHT
 10
0.0
 20
0.0
 30
0.0
  9
$PUCSORGFRONT
 10
0.0
 20
0.0
 30
0.0
  9
$PUCSORGBACK
 10
0.0
 20
0.0
 30
0.0
  9
$USERI1
 70
     0
  9
$USERI2
 70
     0
  9
$USERI3
 70
     0
  9
$USERI4
 70
     0
  9
$USERI5
 70
     0
  9
$USERR1
 40
0.0
  9
$USERR2
 40
0.0
  9
$USERR3
 40
0.0
  9
$USERR4
 40
0.0
  9
$USERR5
 40
0.0
  9
$WORLDVIEW
 70
     1
  9
$SHADEDGE
 70
     3
  9
$SHADEDIF
 70
    70
  9
$TILEMODE
 70
     1
  9
$MAXACTVP
 70
    64
  9
$PINSBASE
 10
0.0
 20
0.0
 30
0.0
  9
$PLIMCHECK
 70
     0
  9
$PEXTMIN
 10
1.000000000000000E+20
 20
1.000000000000000E+20
 30
1.000000000000000E+20
  9
$PEXTMAX
 10
-1.000000000000000E+20
 20
-1.000000000000000E+20
 30
-1.000000000000000E+20
  9
$PLIMMIN
 10
0.0
 20
0.0
  9
$PLIMMAX
 10
12.0
 20
9.0
  9
$UNITMODE
 70
     0
  9
$VISRETAIN
 70
     0
  9
$PLINEGEN
 70
     1
  9
$PSLTSCALE
 70
     0
  9
$TREEDEPTH
 70
  3020
  9
$CMLSTYLE
  2
Standard
  9
$CMLJUST
 70
     0
  9
$CMLSCALE
 40
1.0
  9
$PROXYGRAPHICS
 70
     0
  9
$MEASUREMENT
 70
     1
  9
$CELWEIGHT
370
     0
  9
$ENDCAPS
280
     0
  9
$JOINSTYLE
280
     0
  9
$LWDISPLAY
290
     1
  9
$INSUNITS
 70
     4
  9
$HYPERLINKBASE
  1

  9
$STYLESHEET
  1

  9
$XEDIT
290
     1
  9
$CEPSNTYPE
380
     0
  9
$PSTYLEMODE
290
     1
  9
$FINGERPRINTGUID
  2

  9
$VERSIONGUID
  2

  9
$EXTNAMES
290
     1
  9
$PSVPSCALE
 40
0.0
  9
$OLESTARTUP
290
     0
  9
$SORTENTS
280
   127
  9
$INDEXCTL
280
     0
  9
$HIDETEXT
280
     1
  9
$XCLIPFRAME
290
     0
  9
$HALOGAP
280
     0
  9
$OBSCOLOR
 70
   257
  9
$OBSLTYPE
280
     0
  9
$INTERSECTIONDISPLAY
280
     0
  9
$INTERSECTIONCOLOR
 70
   257
  9
$DIMASSOC
280
     2
  9
$PROJECTNAME
  1

  0
ENDSEC
  0
SECTION
  2
CLASSES
  0
CLASS
  1
LWPOLYLINE
  2
AcDbPolyline
  3
AutoCAD 2000
 90
        0
 91
        1
280
     0
281
     1
  0
CLASS
  1
IMAGE
  2
AcDbRasterImage
  3
ISM
 90
      127
 91
        4
280
     0
281
     1
  0
CLASS
  1
OLE2FRAME
  2
AcDbOle2Frame
  3
AutoCAD 2000
 90
        0
 91
        1
280
     0
281
     1
  0
CLASS
  1
HATCH
  2
AcDbHatch
  3
AutoCAD 2000
 90
        0
 91
        1
280
     0
281
     1
  0
CLASS
  1
DICTIONARYVAR
  2
AcDbDictionaryVar
  3
ObjectDBX Classes
 90
        0
 91
        3
280
     0
281
     0
  0
CLASS
  1
RASTERVARIABLES
  2
AcDbRasterVariables
  3
ISM
 90
        0
 91
        3
280
     0
281
     0
  0
CLASS
  1
IMAGEDEF
  2
AcDbRasterImageDef
  3
ISM
 90
        0
 91
        3
280
     0
281
     0
  0
CLASS
  1
IMAGEDEF_REACTOR
  2
AcDbRasterImageDefReactor
  3
ISM
 90
        1
 91
        3
280
     0
281
     0
  0
CLASS
  1
IDBUFFER
  2
AcDbIdBuffer
  3
ObjectDBX Classes
 90
        0
 91
        3
280
     0
281
     0
  0
CLASS
  1
SPATIAL_FILTER
  2
AcDbSpatialFilter
  3
ObjectDBX Classes
 90
        0
 91
        3
280
     0
281
     0
  0
CLASS
  1
XRECORD
  2
AcDbXrecord
  3
AutoCAD 2000
 90
        0
 91
        1
280
     0
281
     0
  0
CLASS
  1
SORTENTSTABLE
  2
AcDbSortentsTable
  3
ObjectDBX Classes
 90
        0
 91
        3
280
     0
281
     0
  0
CLASS
  1
LAYER_INDEX
  2
AcDbLayerIndex
  3
ObjectDBX Classes
 90
        0
 91
        3
280
     0
281
     0
  0
CLASS
  1
SPATIAL_INDEX
  2
AcDbSpatialIndex
  3
AutoCAD 2000
 90
        0
 91
        3
280
     0
281
     0
  0
CLASS
  1
OBJECT_PTR
  2
CAseDLPNTableRecord
  3
ASE-LPNTableRecord
 90
        1
 91
        3
280
     0
281
     0
  0
CLASS
  1
LAYOUT
  2
AcDbLayout
  3
ObjectDBX Classes
 90
        0
 91
        1
280
     0
281
     0
  0
CLASS
  1
PLOTSETTINGS
  2
AcDbPlotSettings
  3
ObjectDBX Classes
 90
        0
 91
        3
280
     0
281
     0
  0
CLASS
  1
ACDBDICTIONARYWDFLT
  2
AcDbDictionaryWithDefault
  3
ObjectDBX Classes
 90
        0
 91
        3
280
     0
281
     0
  0
CLASS
  1
ACDBPLACEHOLDER
  2
AcDbPlaceHolder
  3
ObjectDBX Classes
 90
        0
 91
        1
280
     0
281
     0
  0
CLASS
  1
VBA_PROJECT
  2
AcDbVbaProject
  3
ObjectDBX Classes
 90
        0
 91
        1
280
     0
281
     0
  0
CLASS
  1
WIPEOUT
  2
AcDbWipeout
  3
WipeOut|AutoCAD Express Tool|expresstools@autodesk.com
 90
      127
 91
        3
280
     0
281
     1
  0
CLASS
  1
WIPEOUTVARIABLES
  2
AcDbWipeoutVariables
  3
WipeOut|AutoCAD Express Tool|expresstools@autodesk.com
 90
        0
 91
        3
280
     0
281
     0
  0
CLASS
  1
RTEXT
  2
RText
  3
RText|AutoCAD Express Tool|expresstools@autodesk.com
 90
        0
 91
        3
280
     0
281
     1
  0
CLASS
  1
ARCALIGNEDTEXT
  2
AcDbArcAlignedText
  3
ATEXT|AutoCAD Express Tool|expresstools@autodesk.com
 90
        0
 91
        3
280
     0
281
     1
  0
ENDSEC
  0
SECTION
  2
TABLES
  0
TABLE
  2
VPORT
  5
7
330
0
100
AcDbSymbolTable
 70
     1
  0
VPORT
  5
15
330
7
100
AcDbSymbolTableRecord
100
AcDbViewportTableRecord
  2
*ACTIVE
 70
     0
 10
0.0
 20
0.0
 11
1.0
 21
1.0
 12
-6.0
 22
17.99999999999989
 13
0.0
 23
0.0
 14
1.0
 24
1.0
 15
0.0
 25
0.0
 16
0.0
 26
0.0
 36
1.0
 17
0.0
 27
0.0
 37
0.0
 40
890.9989799999998
 41
0.688564
 42
50.0
 43
0.0
 44
0.0
 50
0.0
 51
0.0
 71
     0
 72
  2000
 73
     1
 74
     1
 75
     0
 76
     0
 77
     0
 78
     0
281
     0
 65
     0
110
0.0
120
0.0
130
0.0
111
1.0
121
0.0
131
0.0
112
0.0
122
1.0
132
0.0
 79
     0
146
0.0
  0
ENDTAB
  0
TABLE
  2
LTYPE
  5
4
330
0
100
AcDbSymbolTable
 70
    11
  0
LTYPE
  5
11
330
4
100
AcDbSymbolTableRecord
100
AcDbLinetypeTableRecord
  2
ByBlock
 70
     0
  3

 72
    65
 73
     0
 40
0.0
  0
LTYPE
  5
12
330
4
100
AcDbSymbolTableRecord
100
AcDbLinetypeTableRecord
  2
ByLayer
 70
     0
  3

 72
    65
 73
     0
 40
0.0
  0
LTYPE
  5
13
330
4
100
AcDbSymbolTableRecord
100
AcDbLinetypeTableRecord
  2
Continuous
 70
     0
  3
Solid line
 72
    65
 73
     0
 40
0.0
  0
LTYPE
  5
33
330
4
100
AcDbSymbolTableRecord
100
AcDbLinetypeTableRecord
  2
STYLE_01
 70
     0
  3

 72
    65
 73
     2
 40
0.41664
 49
0.20828
 74
     0
 49
-0.20836
 74
     0
  0
LTYPE
  5
34
330
4
100
AcDbSymbolTableRecord
100
AcDbLinetypeTableRecord
  2
STYLE_02
 70
     0
  3

 72
    65
 73
     2
 40
0.6944250000000001
 49
0.48607
 74
     0
 49
-0.2083550000000001
 74
     0
  0
LTYPE
  5
35
330
4
100
AcDbSymbolTableRecord
100
AcDbLinetypeTableRecord
  2
STYLE_03
 70
     0
  3

 72
    65
 73
     2
 40
1.25
 49
1.04164
 74
     0
 49
-0.2083599999999999
 74
     0
  0
LTYPE
  5
36
330
4
100
AcDbSymbolTableRecord
100
AcDbLinetypeTableRecord
  2
STYLE_04
 70
     0
  3

 72
    65
 73
     2
 40
1.52771
 49
1.319425
 74
     0
 49
-0.208285
 74
     0
  0
LTYPE
  5
37
330
4
100
AcDbSymbolTableRecord
100
AcDbLinetypeTableRecord
  2
STYLE_05
 70
     0
  3

 72
    65
 73
     2
 40
0.20828
 49
0.069425
 74
     0
 49
-0.138855
 74
     0
  0
LTYPE
  5
38
330
4
100
AcDbSymbolTableRecord
100
AcDbLinetypeTableRecord
  2
STYLE_06
 70
     0
  3

 72
    65
 73
     4
 40
1.04164
 49
0.625
 74
     0
 49
-0.20828
 74
     0
 49
0.06943
 74
     0
 49
-0.13893
 74
     0
  0
LTYPE
  5
39
330
4
100
AcDbSymbolTableRecord
100
AcDbLinetypeTableRecord
  2
STYLE_07
 70
     0
  3

 72
    65
 73
     6
 40
1.875
 49
0.625
 74
     0
 49
-0.20828
 74
     0
 49
0.6250000000000001
 74
     0
 49
-0.2083599999999999
 74
     0
 49
0.06943
 74
     0
 49
-0.1389299999999999
 74
     0
  0
LTYPE
  5
3A
330
4
100
AcDbSymbolTableRecord
100
AcDbLinetypeTableRecord
  2
STYLE_08
 70
     0
  3

 72
    65
 73
     6
 40
1.25
 49
0.625
 74
     0
 49
-0.20828
 74
     0
 49
0.06943
 74
     0
 49
-0.13893
 74
     0
 49
0.0694299999999999
 74
     0
 49
-0.13893
 74
     0
  0
LTYPE
  5
3B
330
4
100
AcDbSymbolTableRecord
100
AcDbLinetypeTableRecord
  2
STYLE_09
 70
     0
  3

 72
    65
 73
     4
 40
5.0
 49
3.75
 74
     0
 49
-0.2777849999999998
 74
     0
 49
0.6944300000000003
 74
     0
 49
-0.2777849999999998
 74
     0
  0
LTYPE
  5
3C
330
4
100
AcDbSymbolTableRecord
100
AcDbLinetypeTableRecord
  2
STYLE_10
 70
     0
  3

 72
    65
 73
     6
 40
5.9375
 49
3.75
 74
     0
 49
-0.2777849999999998
 74
     0
 49
0.6944300000000003
 74
     0
 49
-0.2777849999999998
 74
     0
 49
0.625
 74
     0
 49
-0.3125
 74
     0
  0
ENDTAB
  0
TABLE
  2
LAYER
  5
2
330
0
100
AcDbSymbolTable
 70
     4
  0
LAYER
  5
14
330
2
100
AcDbSymbolTableRecord
100
AcDbLayerTableRecord
  2
0
 70
     0
 62
     7
  6
Continuous
370
    -3
390
1D
  0
LAYER
  5
3D
330
2
100
AcDbSymbolTableRecord
100
AcDbLayerTableRecord
  2
一般
 70
     0
 62
     7
  6
Continuous
370
   100
390
1D
  0
LAYER
  5
3E
330
2
100
AcDbSymbolTableRecord
100
AcDbLayerTableRecord
  2
寸法
 70
     0
 62
     7
  6
Continuous
370
   100
390
1D
  0
LAYER
  5
3F
330
2
100
AcDbSymbolTableRecord
100
AcDbLayerTableRecord
  2
Defpoints
 70
     0
 62
     7
  6
Continuous
290
     0
370
    -3
390
1D
  0
ENDTAB
  0
TABLE
  2
STYLE
  5
3
330
0
100
AcDbSymbolTable
 70
     2
  0
STYLE
  5
17
330
3
100
AcDbSymbolTableRecord
100
AcDbTextStyleTableRecord
  2
Standard
 70
     0
 40
0.0
 41
1.0
 50
0.0
 71
     0
 42
0.0
  3
txt
  4
BIGFONT.SHX
  0
STYLE
  5
32
330
3
100
AcDbSymbolTableRecord
100
AcDbTextStyleTableRecord
  2
Calibri (bold)
 70
     0
 40
0.0
 41
1.0
 50
0.0
 71
     0
 42
0.0
  3

  4
Calibri
1001
ACAD
1000
Calibri
1071
 33554432
  0
ENDTAB
  0
TABLE
  2
VIEW
  5
5
330
0
100
AcDbSymbolTable
 70
     0
  0
ENDTAB
  0
TABLE
  2
UCS
  5
6
330
0
100
AcDbSymbolTable
 70
     0
  0
ENDTAB
  0
TABLE
  2
APPID
  5
8
330
0
100
AcDbSymbolTable
 70
     1
  0
APPID
  5
16
330
8
100
AcDbSymbolTableRecord
100
AcDbRegAppTableRecord
  2
ACAD
 70
     0
  0
ENDTAB
  0
TABLE
  2
DIMSTYLE
  5
9
330
0
100
AcDbSymbolTable
 70
     2
100
AcDbDimStyleTable
  0
DIMSTYLE
105
18
330
9
100
AcDbSymbolTableRecord
100
AcDbDimStyleTableRecord
  2
Standard
 70
     0
340
17
  0
DIMSTYLE
105
49
330
9
100
AcDbSymbolTableRecord
100
AcDbDimStyleTableRecord
  2
Arch
 70
     0
  3
<>
  4
[]
 41
6.734472656249999
 42
4.762499999999999
 43
10.16
 44
9.524999999999999
 46
1.5875
 73
     0
 74
     0
 77
     1
 78
    11
140
12.073681640625
141
0.0
143
0.0010936132983377
147
1.5875
171
     3
172
     1
174
     1
179
     2
271
     1
272
     1
276
     2
284
    11
285
     7
286
     7
289
     0
340
32
341
45
342
40
  0
ENDTAB
  0
TABLE
  2
BLOCK_RECORD
  5
1
330
0
100
AcDbSymbolTable
 70
    16
  0
BLOCK_RECORD
  5
A
330
1
100
AcDbSymbolTableRecord
100
AcDbBlockTableRecord
  2
*MODEL_SPACE
340
20
  0
BLOCK_RECORD
  5
B
330
1
100
AcDbSymbolTableRecord
100
AcDbBlockTableRecord
  2
*PAPER_SPACE
340
21
  0
BLOCK_RECORD
  5
40
330
1
100
AcDbSymbolTableRecord
100
AcDbBlockTableRecord
  2
VW_SLASH
340
0
  0
BLOCK_RECORD
  5
45
330
1
100
AcDbSymbolTableRecord
100
AcDbBlockTableRecord
  2
VW_FILLEDARROW
340
0
  0
BLOCK_RECORD
  5
24
330
1
100
AcDbSymbolTableRecord
100
AcDbBlockTableRecord
  2
グループ
340
0
102
{BLKREFS
331
117
102
}
  0
BLOCK_RECORD
  5
25
330
1
100
AcDbSymbolTableRecord
100
AcDbBlockTableRecord
  2
グループ-1
340
0
102
{BLKREFS
331
AC
102
}
  0
BLOCK_RECORD
  5
26
330
1
100
AcDbSymbolTableRecord
100
AcDbBlockTableRecord
  2
グループ-2
340
0
102
{BLKREFS
331
AE
102
}
  0
BLOCK_RECORD
  5
27
330
1
100
AcDbSymbolTableRecord
100
AcDbBlockTableRecord
  2
グループ-3
340
0
102
{BLKREFS
331
B0
102
}
  0
BLOCK_RECORD
  5
28
330
1
100
AcDbSymbolTableRecord
100
AcDbBlockTableRecord
  2
グループ-4
340
0
102
{BLKREFS
331
B2
102
}
  0
BLOCK_RECORD
  5
29
330
1
100
AcDbSymbolTableRecord
100
AcDbBlockTableRecord
  2
グループ-5
340
0
102
{BLKREFS
331
B4
102
}
  0
BLOCK_RECORD
  5
2A
330
1
100
AcDbSymbolTableRecord
100
AcDbBlockTableRecord
  2
グループ-6
340
0
102
{BLKREFS
331
B6
102
}
  0
BLOCK_RECORD
  5
2B
330
1
100
AcDbSymbolTableRecord
100
AcDbBlockTableRecord
  2
グループ-7
340
0
102
{BLKREFS
331
B8
102
}
  0
BLOCK_RECORD
  5
2C
330
1
100
AcDbSymbolTableRecord
100
AcDbBlockTableRecord
  2
グループ-8
340
0
102
{BLKREFS
331
BA
102
}
  0
BLOCK_RECORD
  5
2D
330
1
100
AcDbSymbolTableRecord
100
AcDbBlockTableRecord
  2
グループ-9
340
0
102
{BLKREFS
331
118
102
}
  0
BLOCK_RECORD
  5
2E
330
1
100
AcDbSymbolTableRecord
100
AcDbBlockTableRecord
  2
グループ-10
340
0
102
{BLKREFS
331
F9
102
}
  0
BLOCK_RECORD
  5
2F
330
1
100
AcDbSymbolTableRecord
100
AcDbBlockTableRecord
  2
Drawing Border - Universal
340
0
102
{BLKREFS
331
119
102
}
  0
BLOCK_RECORD
  5
30
330
1
100
AcDbSymbolTableRecord
100
AcDbBlockTableRecord
  2
*D14
340
0
  0
BLOCK_RECORD
  5
31
330
1
100
AcDbSymbolTableRecord
100
AcDbBlockTableRecord
  2
*D15
340
0
  0
ENDTAB
  0
ENDSEC
  0
SECTION
  2
BLOCKS
  0
BLOCK
  5
D
330
A
100
AcDbEntity
  8
0
390
1D
100
AcDbBlockBegin
  2
*MODEL_SPACE
 70
     0
 71
     0
 10
0.0
 20
0.0
 30
0.0
  3
*MODEL_SPACE
  1

  0
ENDBLK
  5
E
330
A
100
AcDbEntity
  8
0
390
1D
100
AcDbBlockEnd
  0
BLOCK
  5
F
330
B
100
AcDbEntity
 67
     1
  8
0
390
1D
100
AcDbBlockBegin
  2
*PAPER_SPACE
 70
     0
 71
     0
 10
0.0
 20
0.0
 30
0.0
  3
*PAPER_SPACE
  1

  0
ENDBLK
  5
10
330
B
100
AcDbEntity
 67
     1
  8
0
390
1D
100
AcDbBlockEnd
  0
BLOCK
  5
41
330
40
100
AcDbEntity
  8
0
  6
ByBlock
 62
     0
370
    -2
390
1D
100
AcDbBlockBegin
  2
VW_SLASH
 70
     0
 71
     0
 10
0.0
 20
0.0
 30
0.0
  3
VW_SLASH
  1

  0
LINE
  5
42
330
40
100
AcDbEntity
  8
0
  6
ByBlock
 62
     0
370
    -2
390
1D
100
AcDbLine
 10
0.0
 20
0.0
 30
0.0
 11
-1.0
 21
0.0
 31
0.0
  0
LINE
  5
43
330
40
100
AcDbEntity
  8
0
  6
ByBlock
 62
     0
370
    20
390
1D
100
AcDbLine
 10
-0.1666258459964003
 20
-0.1666258459964003
 30
0.0
 11
0.1666258459964003
 21
0.1666258459964003
 31
0.0
  0
ENDBLK
  5
44
330
40
100
AcDbEntity
  8
0
390
1D
100
AcDbBlockEnd
  0
BLOCK
  5
46
330
45
100
AcDbEntity
  8
0
  6
ByBlock
 62
     0
370
    -2
390
1D
100
AcDbBlockBegin
  2
VW_FILLEDARROW
 70
     0
 71
     0
 10
0.0
 20
0.0
 30
0.0
  3
VW_FILLEDARROW
  1

  0
SOLID
  5
47
330
45
100
AcDbEntity
  8
0
 62
     0
370
    -2
390
1D
100
AcDbTrace
 10
0.0
 20
0.0
 30
0.0
 11
-0.4712890624999999
 21
-0.1262815236984959
 31
0.0
 12
-0.4712890624999999
 22
0.126281523698496
 32
0.0
 13
-0.4712890624999999
 23
0.126281523698496
 33
0.0
  0
ENDBLK
  5
48
330
45
100
AcDbEntity
  8
0
390
1D
100
AcDbBlockEnd
  0
BLOCK
  5
4A
330
24
100
AcDbEntity
  8
一般
390
1D
100
AcDbBlockBegin
  2
グループ
 70
     0
 71
     0
 10
0.0
 20
0.0
 30
0.0
  3
グループ
  1

  0
CIRCLE
  5
4B
330
24
100
AcDbEntity
  8
一般
  6
Continuous
 62
     7
370
    25
390
1D
100
AcDbCircle
 10
283.6898685013496
 20
2.032253539356518
 30
0.0
 40
74.99999999999979
  0
CIRCLE
  5
4C
330
24
100
AcDbEntity
  8
一般
  6
Continuous
 62
     7
370
    18
390
1D
100
AcDbCircle
 10
283.6898685013496
 20
2.032253539356518
 30
0.0
 40
199.9999999999999
  0
CIRCLE
  5
4D
330
24
100
AcDbEntity
  8
一般
  6
Continuous
 62
     7
370
    18
390
1D
100
AcDbCircle
 10
152.8751139818383
 20
132.8470080588679
 30
0.0
 40
9.500000000000085
  0
CIRCLE
  5
4E
330
24
100
AcDbEntity
  8
一般
  6
Continuous
 62
     7
370
    18
390
1D
100
AcDbCircle
 10
104.9935906378716
 20
49.91377688332282
 30
0.0
 40
9.500000000000066
  0
CIRCLE
  5
4F
330
24
100
AcDbEntity
  8
一般
  6
Continuous
 62
     7
370
    18
390
1D
100
AcDbCircle
 10
104.9935906378716
 20
-45.84926980460986
 30
0.0
 40
9.500000000000002
  0
CIRCLE
  5
50
330
24
100
AcDbEntity
  8
一般
  6
Continuous
 62
     7
370
    18
390
1D
100
AcDbCircle
 10
152.8751139818383
 20
-128.7825009801547
 30
0.0
 40
9.499999999999977
  0
CIRCLE
  5
51
330
24
100
AcDbEntity
  8
一般
  6
Continuous
 62
     7
370
    18
390
1D
100
AcDbCircle
 10
235.8083451573835
 20
-176.664024324121
 30
0.0
 40
9.499999999999984
  0
CIRCLE
  5
52
330
24
100
AcDbEntity
  8
一般
  6
Continuous
 62
     7
370
    18
390
1D
100
AcDbCircle
 10
331.5713918453159
 20
-176.6640243241211
 30
0.0
 40
9.500000000000057
  0
CIRCLE
  5
53
330
24
100
AcDbEntity
  8
一般
  6
Continuous
 62
     7
370
    18
390
1D
100
AcDbCircle
 10
414.5046230208608
 20
-128.7825009801547
 30
0.0
 40
9.500000000000057
  0
CIRCLE
  5
54
330
24
100
AcDbEntity
  8
一般
  6
Continuous
 62
     7
370
    18
390
1D
100
AcDbCircle
 10
462.3861463648271
 20
-45.84926980460997
 30
0.0
 40
9.499999999999952
  0
CIRCLE
  5
55
330
24
100
AcDbEntity
  8
一般
  6
Continuous
 62
     7
370
    18
390
1D
100
AcDbCircle
 10
462.3861463648272
 20
49.91377688332275
 30
0.0
 40
9.50000000000005
  0
CIRCLE
  5
56
330
24
100
AcDbEntity
  8
一般
  6
Continuous
 62
     7
370
    18
390
1D
100
AcDbCircle
 10
414.5046230208608
 20
132.8470080588679
 30
0.0
 40
9.500000000000002
  0
CIRCLE
  5
57
330
24
100
AcDbEntity
  8
一般
  6
Continuous
 62
     7
370
    18
390
1D
100
AcDbCircle
 10
331.571391845316
 20
180.7285314028342
 30
0.0
 40
9.499999999999984
  0
CIRCLE
  5
58
330
24
100
AcDbEntity
  8
一般
  6
Continuous
 62
     7
370
    18
390
1D
100
AcDbCircle
 10
235.8083451573836
 20
180.7285314028342
 30
0.0
 40
9.499999999999924
  0
ENDBLK
  5
59
330
24
100
AcDbEntity
  8
一般
390
1D
100
AcDbBlockEnd
  0
BLOCK
  5
5A
330
25
100
AcDbEntity
  8
寸法
390
1D
100
AcDbBlockBegin
  2
グループ-1
 70
     0
 71
     0
 10
0.0
 20
0.0
 30
0.0
  3
グループ-1
  1

  0
LINE
  5
5B
330
25
100
AcDbEntity
  8
一般
  6
Continuous
 62
     7
370
    18
390
1D
100
AcDbLine
 10
-342.2488882854345
 20
50.76119939292028
 30
0.0
 11
-339.8188484899162
 21
56.62783442436695
 31
0.0
  0
LINE
  5
5C
330
25
100
AcDbEntity
  8
一般
  6
Continuous
 62
     7
370
    18
390
1D
100
AcDbLine
 10
-338.1005508719521
 20
52.47949701088445
 30
0.0
 11
-343.9671859033987
 21
54.90953680640278
 31
0.0
  0
LINE
  5
5D
330
25
100
AcDbEntity
  8
一般
  6
Continuous
 62
     7
370
    18
390
1D
100
AcDbLine
 10
-344.5449888796251
 20
45.21792219785259
 30
0.0
 11
-342.856398234314
 21
49.29454063505863
 31
0.0
  0
LINE
  5
5E
330
25
100
AcDbEntity
  8
一般
  6
Continuous
 62
     7
370
    18
390
1D
100
AcDbLine
 10
-339.2113385410366
 20
58.09449318222861
 30
0.0
 11
-337.5227478957257
 21
62.17111161943468
 31
0.0
  0
LINE
  5
5F
330
25
100
AcDbEntity
  8
一般
  6
Continuous
 62
     7
370
    18
390
1D
100
AcDbLine
 10
-349.5104630984663
 20
57.20563740059331
 30
0.0
 11
-345.4338446612604
 21
55.51704675528234
 31
0.0
  0
LINE
  5
60
330
25
100
AcDbEntity
  8
一般
  6
Continuous
 62
     7
370
    18
390
1D
100
AcDbLine
 10
-336.6338921140904
 20
51.87198706200487
 30
0.0
 11
-332.5572736768843
 21
50.18339641669392
 31
0.0
  0
ENDBLK
  5
61
330
25
100
AcDbEntity
  8
寸法
390
1D
100
AcDbBlockEnd
  0
BLOCK
  5
62
330
26
100
AcDbEntity
  8
寸法
390
1D
100
AcDbBlockBegin
  2
グループ-2
 70
     0
 71
     0
 10
0.0
 20
0.0
 30
0.0
  3
グループ-2
  1

  0
LINE
  5
63
330
26
100
AcDbEntity
  8
一般
  6
Continuous
 62
     7
370
    18
390
1D
100
AcDbLine
 10
-339.8188484899162
 20
-52.56332734565389
 30
0.0
 11
-342.2488882854346
 21
-46.69669231420728
 31
0.0
  0
LINE
  5
64
330
26
100
AcDbEntity
  8
一般
  6
Continuous
 62
     7
370
    18
390
1D
100
AcDbLine
 10
-338.1005508719521
 20
-48.41498993217143
 30
0.0
 11
-343.9671859033987
 21
-50.84502972768973
 31
0.0
  0
LINE
  5
65
330
26
100
AcDbEntity
  8
一般
  6
Continuous
 62
     7
370
    18
390
1D
100
AcDbLine
 10
-337.5227478957257
 20
-58.10660454072157
 30
0.0
 11
-339.2113385410366
 21
-54.02998610351553
 31
0.0
  0
LINE
  5
66
330
26
100
AcDbEntity
  8
一般
  6
Continuous
 62
     7
370
    18
390
1D
100
AcDbLine
 10
-342.8563982343141
 20
-45.2300335563456
 30
0.0
 11
-344.5449888796251
 21
-41.15341511913956
 31
0.0
  0
LINE
  5
67
330
26
100
AcDbEntity
  8
一般
  6
Continuous
 62
     7
370
    18
390
1D
100
AcDbLine
 10
-349.5104630984664
 20
-53.14113032188025
 30
0.0
 11
-345.4338446612604
 21
-51.4525396765693
 31
0.0
  0
LINE
  5
68
330
26
100
AcDbEntity
  8
一般
  6
Continuous
 62
     7
370
    18
390
1D
100
AcDbLine
 10
-336.6338921140904
 20
-47.80747998329185
 30
0.0
 11
-332.5572736768844
 21
-46.11888933798091
 31
0.0
  0
ENDBLK
  5
69
330
26
100
AcDbEntity
  8
寸法
390
1D
100
AcDbBlockEnd
  0
BLOCK
  5
6A
330
27
100
AcDbEntity
  8
寸法
390
1D
100
AcDbBlockBegin
  2
グループ-3
 70
     0
 71
     0
 10
0.0
 20
0.0
 30
0.0
  3
グループ-3
  1

  0
LINE
  5
6B
330
27
100
AcDbEntity
  8
一般
  6
Continuous
 62
     7
370
    18
390
1D
100
AcDbLine
 10
-265.0390773522152
 20
-123.9065032474263
 30
0.0
 11
-270.9057123836619
 21
-121.476463451908
 31
0.0
  0
LINE
  5
6C
330
27
100
AcDbEntity
  8
一般
  6
Continuous
 62
     7
370
    18
390
1D
100
AcDbLine
 10
-266.7573749701794
 20
-119.7581658339438
 30
0.0
 11
-269.1874147656977
 21
-125.6248008653904
 31
0.0
  0
LINE
  5
6D
330
27
100
AcDbEntity
  8
一般
  6
Continuous
 62
     7
370
    18
390
1D
100
AcDbLine
 10
-259.4958001571474
 20
-126.2026038416168
 30
0.0
 11
-263.5724185943535
 21
-124.5140131963059
 31
0.0
  0
LINE
  5
6E
330
27
100
AcDbEntity
  8
一般
  6
Continuous
 62
     7
370
    18
390
1D
100
AcDbLine
 10
-272.3723711415236
 20
-120.8689535030284
 30
0.0
 11
-276.4489895787297
 21
-119.1803628577174
 31
0.0
  0
LINE
  5
6F
330
27
100
AcDbEntity
  8
一般
  6
Continuous
 62
     7
370
    18
390
1D
100
AcDbLine
 10
-271.4835153598883
 20
-131.1680780604582
 30
0.0
 11
-269.7949247145773
 21
-127.0914596232521
 31
0.0
  0
LINE
  5
70
330
27
100
AcDbEntity
  8
一般
  6
Continuous
 62
     7
370
    18
390
1D
100
AcDbLine
 10
-266.1498650212998
 20
-118.2915070760821
 30
0.0
 11
-264.4612743759888
 21
-114.2148886388761
 31
0.0
  0
ENDBLK
  5
71
330
27
100
AcDbEntity
  8
寸法
390
1D
100
AcDbBlockEnd
  0
BLOCK
  5
72
330
28
100
AcDbEntity
  8
寸法
390
1D
100
AcDbBlockBegin
  2
グループ-4
 70
     0
 71
     0
 10
0.0
 20
0.0
 30
0.0
  3
グループ-4
  1

  0
LINE
  5
73
330
28
100
AcDbEntity
  8
一般
  6
Continuous
 62
     7
370
    18
390
1D
100
AcDbLine
 10
-161.7145506136406
 20
-121.476463451908
 30
0.0
 11
-167.5811856450872
 21
-123.9065032474263
 31
0.0
  0
LINE
  5
74
330
28
100
AcDbEntity
  8
一般
  6
Continuous
 62
     7
370
    18
390
1D
100
AcDbLine
 10
-165.862888027123
 20
-119.7581658339438
 30
0.0
 11
-163.4328482316047
 21
-125.6248008653905
 31
0.0
  0
LINE
  5
75
330
28
100
AcDbEntity
  8
一般
  6
Continuous
 62
     7
370
    18
390
1D
100
AcDbLine
 10
-156.1712734185728
 20
-119.1803628577174
 30
0.0
 11
-160.2478918557789
 21
-120.8689535030284
 31
0.0
  0
LINE
  5
76
330
28
100
AcDbEntity
  8
一般
  6
Continuous
 62
     7
370
    18
390
1D
100
AcDbLine
 10
-169.0478444029489
 20
-124.5140131963059
 30
0.0
 11
-173.1244628401549
 21
-126.2026038416168
 31
0.0
  0
LINE
  5
77
330
28
100
AcDbEntity
  8
一般
  6
Continuous
 62
     7
370
    18
390
1D
100
AcDbLine
 10
-161.1367476374142
 20
-131.1680780604582
 30
0.0
 11
-162.8253382827251
 21
-127.0914596232521
 31
0.0
  0
LINE
  5
78
330
28
100
AcDbEntity
  8
一般
  6
Continuous
 62
     7
370
    18
390
1D
100
AcDbLine
 10
-166.4703979760026
 20
-118.2915070760821
 30
0.0
 11
-168.1589886213136
 21
-114.2148886388761
 31
0.0
  0
ENDBLK
  5
79
330
28
100
AcDbEntity
  8
寸法
390
1D
100
AcDbBlockEnd
  0
BLOCK
  5
7A
330
29
100
AcDbEntity
  8
寸法
390
1D
100
AcDbBlockBegin
  2
グループ-5
 70
     0
 71
     0
 10
0.0
 20
0.0
 30
0.0
  3
グループ-5
  1

  0
LINE
  5
7B
330
29
100
AcDbEntity
  8
一般
  6
Continuous
 62
     7
370
    18
390
1D
100
AcDbLine
 10
-90.3713747118681
 20
-46.69669231420738
 30
0.0
 11
-92.80141450738637
 21
-52.56332734565399
 31
0.0
  0
LINE
  5
7C
330
29
100
AcDbEntity
  8
一般
  6
Continuous
 62
     7
370
    18
390
1D
100
AcDbLine
 10
-94.51971212535057
 20
-48.41498993217153
 30
0.0
 11
-88.65307709390387
 21
-50.84502972768983
 31
0.0
  0
LINE
  5
7D
330
29
100
AcDbEntity
  8
一般
  6
Continuous
 62
     7
370
    18
390
1D
100
AcDbLine
 10
-88.07527411767751
 20
-41.15341511913967
 30
0.0
 11
-89.76386476298848
 21
-45.23003355634572
 31
0.0
  0
LINE
  5
7E
330
29
100
AcDbEntity
  8
一般
  6
Continuous
 62
     7
370
    18
390
1D
100
AcDbLine
 10
-93.40892445626596
 20
-54.02998610351565
 30
0.0
 11
-95.09751510157696
 21
-58.10660454072168
 31
0.0
  0
LINE
  5
7F
330
29
100
AcDbEntity
  8
一般
  6
Continuous
 62
     7
370
    18
390
1D
100
AcDbLine
 10
-83.1097998988362
 20
-53.14113032188035
 30
0.0
 11
-87.18641833604222
 21
-51.4525396765694
 31
0.0
  0
LINE
  5
80
330
29
100
AcDbEntity
  8
一般
  6
Continuous
 62
     7
370
    18
390
1D
100
AcDbLine
 10
-95.98637088321226
 20
-47.80747998329195
 30
0.0
 11
-100.0629893204183
 21
-46.11888933798101
 31
0.0
  0
ENDBLK
  5
81
330
29
100
AcDbEntity
  8
寸法
390
1D
100
AcDbBlockEnd
  0
BLOCK
  5
82
330
2A
100
AcDbEntity
  8
寸法
390
1D
100
AcDbBlockBegin
  2
グループ-6
 70
     0
 71
     0
 10
0.0
 20
0.0
 30
0.0
  3
グループ-6
  1

  0
LINE
  5
83
330
2A
100
AcDbEntity
  8
一般
  6
Continuous
 62
     7
370
    18
390
1D
100
AcDbLine
 10
-92.80141450738631
 20
56.62783442436686
 30
0.0
 11
-90.37137471186804
 21
50.76119939292019
 31
0.0
  0
LINE
  5
84
330
2A
100
AcDbEntity
  8
一般
  6
Continuous
 62
     7
370
    18
390
1D
100
AcDbLine
 10
-94.51971212535054
 20
52.47949701088435
 30
0.0
 11
-88.65307709390382
 21
54.90953680640268
 31
0.0
  0
LINE
  5
85
330
2A
100
AcDbEntity
  8
一般
  6
Continuous
 62
     7
370
    18
390
1D
100
AcDbLine
 10
-95.0975151015769
 20
62.17111161943458
 30
0.0
 11
-93.40892445626591
 21
58.09449318222851
 31
0.0
  0
LINE
  5
86
330
2A
100
AcDbEntity
  8
一般
  6
Continuous
 62
     7
370
    18
390
1D
100
AcDbLine
 10
-89.76386476298842
 20
49.29454063505853
 30
0.0
 11
-88.07527411767745
 21
45.2179221978525
 31
0.0
  0
LINE
  5
87
330
2A
100
AcDbEntity
  8
一般
  6
Continuous
 62
     7
370
    18
390
1D
100
AcDbLine
 10
-83.10979989883612
 20
57.20563740059323
 30
0.0
 11
-87.1864183360422
 21
55.51704675528226
 31
0.0
  0
LINE
  5
88
330
2A
100
AcDbEntity
  8
一般
  6
Continuous
 62
     7
370
    18
390
1D
100
AcDbLine
 10
-95.9863708832122
 20
51.87198706200479
 30
0.0
 11
-100.0629893204183
 21
50.18339641669382
 31
0.0
  0
ENDBLK
  5
89
330
2A
100
AcDbEntity
  8
寸法
390
1D
100
AcDbBlockEnd
  0
BLOCK
  5
8A
330
2B
100
AcDbEntity
  8
寸法
390
1D
100
AcDbBlockBegin
  2
グループ-7
 70
     0
 71
     0
 10
0.0
 20
0.0
 30
0.0
  3
グループ-7
  1

  0
LINE
  5
8B
330
2B
100
AcDbEntity
  8
一般
  6
Continuous
 62
     7
370
    18
390
1D
100
AcDbLine
 10
-167.5811856450871
 20
127.9710103261394
 30
0.0
 11
-161.7145506136405
 21
125.5409705306211
 31
0.0
  0
LINE
  5
8C
330
2B
100
AcDbEntity
  8
一般
  6
Continuous
 62
     7
370
    18
390
1D
100
AcDbLine
 10
-165.8628880271229
 20
123.822672912657
 30
0.0
 11
-163.4328482316046
 21
129.6893079441036
 31
0.0
  0
LINE
  5
8D
330
2B
100
AcDbEntity
  8
一般
  6
Continuous
 62
     7
370
    18
390
1D
100
AcDbLine
 10
-173.1244628401548
 20
130.26711092033
 30
0.0
 11
-169.0478444029488
 21
128.578520275019
 31
0.0
  0
LINE
  5
8E
330
2B
100
AcDbEntity
  8
一般
  6
Continuous
 62
     7
370
    18
390
1D
100
AcDbLine
 10
-160.2478918557788
 20
124.9334605817415
 30
0.0
 11
-156.1712734185728
 21
123.2448699364306
 31
0.0
  0
LINE
  5
8F
330
2B
100
AcDbEntity
  8
一般
  6
Continuous
 62
     7
370
    18
390
1D
100
AcDbLine
 10
-161.1367476374141
 20
135.2325851391713
 30
0.0
 11
-162.8253382827251
 21
131.1559667019653
 31
0.0
  0
LINE
  5
90
330
2B
100
AcDbEntity
  8
一般
  6
Continuous
 62
     7
370
    18
390
1D
100
AcDbLine
 10
-166.4703979760025
 20
122.3560141547953
 30
0.0
 11
-168.1589886213135
 21
118.2793957175892
 31
0.0
  0
ENDBLK
  5
91
330
2B
100
AcDbEntity
  8
寸法
390
1D
100
AcDbBlockEnd
  0
BLOCK
  5
92
330
2C
100
AcDbEntity
  8
寸法
390
1D
100
AcDbBlockBegin
  2
グループ-8
 70
     0
 71
     0
 10
0.0
 20
0.0
 30
0.0
  3
グループ-8
  1

  0
LINE
  5
93
330
2C
100
AcDbEntity
  8
一般
  6
Continuous
 62
     7
370
    18
390
1D
100
AcDbLine
 10
-270.9057123836618
 20
125.5409705306212
 30
0.0
 11
-265.0390773522151
 21
127.9710103261395
 31
0.0
  0
LINE
  5
94
330
2C
100
AcDbEntity
  8
一般
  6
Continuous
 62
     7
370
    18
390
1D
100
AcDbLine
 10
-266.7573749701793
 20
123.822672912657
 30
0.0
 11
-269.1874147656976
 21
129.6893079441037
 31
0.0
  0
LINE
  5
95
330
2C
100
AcDbEntity
  8
一般
  6
Continuous
 62
     7
370
    18
390
1D
100
AcDbLine
 10
-276.4489895787296
 20
123.2448699364306
 30
0.0
 11
-272.3723711415235
 21
124.9334605817416
 31
0.0
  0
LINE
  5
96
330
2C
100
AcDbEntity
  8
一般
  6
Continuous
 62
     7
370
    18
390
1D
100
AcDbLine
 10
-263.5724185943535
 20
128.5785202750191
 30
0.0
 11
-259.4958001571473
 21
130.26711092033
 31
0.0
  0
LINE
  5
97
330
2C
100
AcDbEntity
  8
一般
  6
Continuous
 62
     7
370
    18
390
1D
100
AcDbLine
 10
-271.4835153598882
 20
135.2325851391714
 30
0.0
 11
-269.7949247145772
 21
131.1559667019653
 31
0.0
  0
LINE
  5
98
330
2C
100
AcDbEntity
  8
一般
  6
Continuous
 62
     7
370
    18
390
1D
100
AcDbLine
 10
-266.1498650212997
 20
122.3560141547953
 30
0.0
 11
-264.4612743759888
 21
118.2793957175893
 31
0.0
  0
ENDBLK
  5
99
330
2C
100
AcDbEntity
  8
寸法
390
1D
100
AcDbBlockEnd
  0
BLOCK
  5
9A
330
2D
100
AcDbEntity
  8
一般
390
1D
100
AcDbBlockBegin
  2
グループ-9
 70
     0
 71
     0
 10
0.0
 20
0.0
 30
0.0
  3
グループ-9
  1

  0
CIRCLE
  5
9B
330
2D
100
AcDbEntity
  8
一般
  6
Continuous
 62
     7
370
    25
390
1D
100
AcDbCircle
 10
-216.310131498651
 20
2.032253539356526
 30
0.0
 40
75.00000000000077
  0
CIRCLE
  5
9C
330
2D
100
AcDbEntity
  8
一般
  6
Continuous
 62
     7
370
    25
390
1D
100
AcDbCircle
 10
-216.310131498651
 20
2.032253539356526
 30
0.0
 40
92.00000000000064
  0
CIRCLE
  5
9D
330
2D
100
AcDbEntity
  8
一般
  6
Continuous
 62
     7
370
    25
390
1D
100
AcDbCircle
 10
-216.310131498651
 20
2.032253539356526
 30
0.0
 40
87.50000000000044
  0
CIRCLE
  5
9E
330
2D
100
AcDbEntity
  8
一般
  6
Continuous
 62
     7
370
    18
390
1D
100
AcDbCircle
 10
-216.310131498651
 20
2.032253539356526
 30
0.0
 40
200.0000000000003
  0
CIRCLE
  5
9F
330
2D
100
AcDbEntity
  8
一般
  6
Continuous
 62
     7
370
    18
390
1D
100
AcDbCircle
 10
-347.1248860181629
 20
132.8470080588679
 30
0.0
 40
9.499999999999945
  0
CIRCLE
  5
A0
330
2D
100
AcDbEntity
  8
一般
  6
Continuous
 62
     7
370
    18
390
1D
100
AcDbCircle
 10
-395.0064093621289
 20
49.91377688332283
 30
0.0
 40
9.499999999999961
  0
CIRCLE
  5
A1
330
2D
100
AcDbEntity
  8
一般
  6
Continuous
 62
     7
370
    18
390
1D
100
AcDbCircle
 10
-395.0064093621289
 20
-45.84926980460986
 30
0.0
 40
9.499999999999961
  0
CIRCLE
  5
A2
330
2D
100
AcDbEntity
  8
一般
  6
Continuous
 62
     7
370
    18
390
1D
100
AcDbCircle
 10
-347.124886018163
 20
-128.7825009801547
 30
0.0
 40
9.499999999999973
  0
CIRCLE
  5
A3
330
2D
100
AcDbEntity
  8
一般
  6
Continuous
 62
     7
370
    18
390
1D
100
AcDbCircle
 10
-264.1916548426177
 20
-176.664024324121
 30
0.0
 40
9.500000000000027
  0
CIRCLE
  5
A4
330
2D
100
AcDbEntity
  8
一般
  6
Continuous
 62
     7
370
    18
390
1D
100
AcDbCircle
 10
-168.4286081546846
 20
-176.6640243241211
 30
0.0
 40
9.49999999999999
  0
CIRCLE
  5
A5
330
2D
100
AcDbEntity
  8
一般
  6
Continuous
 62
     7
370
    18
390
1D
100
AcDbCircle
 10
-85.4953769791396
 20
-128.7825009801547
 30
0.0
 40
9.500000000000043
  0
CIRCLE
  5
A6
330
2D
100
AcDbEntity
  8
一般
  6
Continuous
 62
     7
370
    18
390
1D
100
AcDbCircle
 10
-37.6138536351737
 20
-45.84926980460997
 30
0.0
 40
9.49999999999992
  0
CIRCLE
  5
A7
330
2D
100
AcDbEntity
  8
一般
  6
Continuous
 62
     7
370
    18
390
1D
100
AcDbCircle
 10
-37.61385363517364
 20
49.91377688332275
 30
0.0
 40
9.499999999999943
  0
CIRCLE
  5
A8
330
2D
100
AcDbEntity
  8
一般
  6
Continuous
 62
     7
370
    18
390
1D
100
AcDbCircle
 10
-85.49537697913966
 20
132.8470080588679
 30
0.0
 40
9.500000000000002
  0
CIRCLE
  5
A9
330
2D
100
AcDbEntity
  8
一般
  6
Continuous
 62
     7
370
    18
390
1D
100
AcDbCircle
 10
-168.4286081546845
 20
180.7285314028342
 30
0.0
 40
9.500000000000005
  0
CIRCLE
  5
AA
330
2D
100
AcDbEntity
  8
一般
  6
Continuous
 62
     7
370
    18
390
1D
100
AcDbCircle
 10
-264.1916548426177
 20
180.7285314028342
 30
0.0
 40
9.500000000000012
  0
CIRCLE
  5
AB
330
2D
100
AcDbEntity
  8
一般
  6
Continuous
 62
     7
370
    25
390
1D
100
AcDbCircle
 10
-341.0338683876753
 20
53.69451690864361
 30
0.0
 40
5.999999999999951
  0
INSERT
  5
AC
330
2D
100
AcDbEntity
  8
寸法
 62
     7
390
1D
100
AcDbBlockReference
  2
グループ-1
 10
0.0
 20
0.0
 30
0.0
  0
CIRCLE
  5
AD
330
2D
100
AcDbEntity
  8
一般
  6
Continuous
 62
     7
370
    25
390
1D
100
AcDbCircle
 10
-341.0338683876754
 20
-49.63000982993059
 30
0.0
 40
5.999999999999972
  0
INSERT
  5
AE
330
2D
100
AcDbEntity
  8
寸法
 62
     7
390
1D
100
AcDbBlockReference
  2
グループ-2
 10
0.0
 20
0.0
 30
0.0
  0
CIRCLE
  5
AF
330
2D
100
AcDbEntity
  8
一般
  6
Continuous
 62
     7
370
    25
390
1D
100
AcDbCircle
 10
-267.9723948679385
 20
-122.6914833496671
 30
0.0
 40
6.000000000000004
  0
INSERT
  5
B0
330
2D
100
AcDbEntity
  8
寸法
 62
     7
390
1D
100
AcDbBlockReference
  2
グループ-3
 10
0.0
 20
0.0
 30
0.0
  0
CIRCLE
  5
B1
330
2D
100
AcDbEntity
  8
一般
  6
Continuous
 62
     7
370
    25
390
1D
100
AcDbCircle
 10
-164.6478681293639
 20
-122.6914833496672
 30
0.0
 40
6.000000000000028
  0
INSERT
  5
B2
330
2D
100
AcDbEntity
  8
寸法
 62
     7
390
1D
100
AcDbBlockReference
  2
グループ-4
 10
0.0
 20
0.0
 30
0.0
  0
CIRCLE
  5
B3
330
2D
100
AcDbEntity
  8
一般
  6
Continuous
 62
     7
370
    25
390
1D
100
AcDbCircle
 10
-91.5863946096272
 20
-49.63000982993069
 30
0.0
 40
6.000000000000017
  0
INSERT
  5
B4
330
2D
100
AcDbEntity
  8
寸法
 62
     7
390
1D
100
AcDbBlockReference
  2
グループ-5
 10
0.0
 20
0.0
 30
0.0
  0
CIRCLE
  5
B5
330
2D
100
AcDbEntity
  8
一般
  6
Continuous
 62
     7
370
    25
390
1D
100
AcDbCircle
 10
-91.58639460962715
 20
53.69451690864351
 30
0.0
 40
6.000000000000083
  0
INSERT
  5
B6
330
2D
100
AcDbEntity
  8
寸法
 62
     7
390
1D
100
AcDbBlockReference
  2
グループ-6
 10
0.0
 20
0.0
 30
0.0
  0
CIRCLE
  5
B7
330
2D
100
AcDbEntity
  8
一般
  6
Continuous
 62
     7
370
    25
390
1D
100
AcDbCircle
 10
-164.6478681293638
 20
126.7559904283803
 30
0.0
 40
5.999999999999976
  0
INSERT
  5
B8
330
2D
100
AcDbEntity
  8
寸法
 62
     7
390
1D
100
AcDbBlockReference
  2
グループ-7
 10
0.0
 20
0.0
 30
0.0
  0
CIRCLE
  5
B9
330
2D
100
AcDbEntity
  8
一般
  6
Continuous
 62
     7
370
    25
390
1D
100
AcDbCircle
 10
-267.9723948679385
 20
126.7559904283803
 30
0.0
 40
5.999999999999987
  0
INSERT
  5
BA
330
2D
100
AcDbEntity
  8
寸法
 62
     7
390
1D
100
AcDbBlockReference
  2
グループ-8
 10
0.0
 20
0.0
 30
0.0
  0
ENDBLK
  5
BB
330
2D
100
AcDbEntity
  8
一般
390
1D
100
AcDbBlockEnd
  0
BLOCK
  5
BC
330
2E
100
AcDbEntity
  8
一般
390
1D
100
AcDbBlockBegin
  2
グループ-10
 70
     0
 71
     0
 10
0.0
 20
0.0
 30
0.0
  3
グループ-10
  1

  0
POLYLINE
  5
BD
330
2E
100
AcDbEntity
  8
一般
  6
Continuous
 62
     7
370
    13
390
1D
100
AcDb2dPolyline
 66
     1
 10
0.0
 20
0.0
 30
0.0
 70
     1
 75
     5
  0
VERTEX
  5
BE
330
BD
100
AcDbEntity
  8
一般
  6
Continuous
 62
     7
370
    13
390
1D
100
AcDbVertex
100
AcDb2dVertex
 10
-629.9987399999999
 20
445.4994899999999
 30
0.0
  0
VERTEX
  5
BF
330
BD
100
AcDbEntity
  8
一般
  6
Continuous
 62
     7
370
    13
390
1D
100
AcDbVertex
100
AcDb2dVertex
 10
629.9987399999999
 20
445.4994899999999
 30
0.0
  0
VERTEX
  5
C0
330
BD
100
AcDbEntity
  8
一般
  6
Continuous
 62
     7
370
    13
390
1D
100
AcDbVertex
100
AcDb2dVertex
 10
629.9987399999999
 20
-445.4994899999999
 30
0.0
  0
VERTEX
  5
C1
330
BD
100
AcDbEntity
  8
一般
  6
Continuous
 62
     7
370
    13
390
1D
100
AcDbVertex
100
AcDb2dVertex
 10
-629.9987399999999
 20
-445.4994899999999
 30
0.0
  0
SEQEND
  5
C2
330
BD
100
AcDbEntity
  8
一般
  6
Continuous
 62
     7
370
    13
390
1D
  0
POLYLINE
  5
C4
330
2E
100
AcDbEntity
  8
一般
  6
Continuous
 62
     7
370
    70
390
1D
100
AcDb2dPolyline
 66
     1
 10
0.0
 20
0.0
 30
0.0
 70
     1
 75
     5
  0
VERTEX
  5
C5
330
C4
100
AcDbEntity
  8
一般
  6
Continuous
 62
     7
370
    70
390
1D
100
AcDbVertex
100
AcDb2dVertex
 10
-569.9988599999999
 20
385.49961
 30
0.0
  0
VERTEX
  5
C6
330
C4
100
AcDbEntity
  8
一般
  6
Continuous
 62
     7
370
    70
390
1D
100
AcDbVertex
100
AcDb2dVertex
 10
569.9988599999999
 20
385.49961
 30
0.0
  0
VERTEX
  5
C7
330
C4
100
AcDbEntity
  8
一般
  6
Continuous
 62
     7
370
    70
390
1D
100
AcDbVertex
100
AcDb2dVertex
 10
569.9988599999999
 20
-385.49961
 30
0.0
  0
VERTEX
  5
C8
330
C4
100
AcDbEntity
  8
一般
  6
Continuous
 62
     7
370
    70
390
1D
100
AcDbVertex
100
AcDb2dVertex
 10
-569.9988599999999
 20
-385.49961
 30
0.0
  0
SEQEND
  5
C9
330
C4
100
AcDbEntity
  8
一般
  6
Continuous
 62
     7
370
    70
390
1D
  0
LINE
  5
CB
330
2E
100
AcDbEntity
  8
一般
  6
Continuous
 62
     7
370
    70
390
1D
100
AcDbLine
 10
-569.9988599999999
 20
385.49961
 30
0.0
 11
-569.9988599999999
 21
414.45561
 31
0.0
  0
LINE
  5
CC
330
2E
100
AcDbEntity
  8
一般
  6
Continuous
 62
     7
370
    70
390
1D
100
AcDbLine
 10
-379.99924
 20
385.49961
 30
0.0
 11
-379.99924
 21
414.45561
 31
0.0
  0
LINE
  5
CD
330
2E
100
AcDbEntity
  8
一般
  6
Continuous
 62
     7
370
    70
390
1D
100
AcDbLine
 10
-189.99962
 20
385.49961
 30
0.0
 11
-189.99962
 21
414.45561
 31
0.0
  0
LINE
  5
CE
330
2E
100
AcDbEntity
  8
一般
  6
Continuous
 62
     7
370
    70
390
1D
100
AcDbLine
 10
-0.0000000000001137
 20
385.49961
 30
0.0
 11
-0.0000000000001137
 21
414.45561
 31
0.0
  0
LINE
  5
CF
330
2E
100
AcDbEntity
  8
一般
  6
Continuous
 62
     7
370
    70
390
1D
100
AcDbLine
 10
189.9996199999998
 20
385.49961
 30
0.0
 11
189.9996199999998
 21
414.45561
 31
0.0
  0
LINE
  5
D0
330
2E
100
AcDbEntity
  8
一般
  6
Continuous
 62
     7
370
    70
390
1D
100
AcDbLine
 10
379.9992399999998
 20
385.49961
 30
0.0
 11
379.9992399999998
 21
414.45561
 31
0.0
  0
LINE
  5
D1
330
2E
100
AcDbEntity
  8
一般
  6
Continuous
 62
     7
370
    70
390
1D
100
AcDbLine
 10
569.9988599999997
 20
385.49961
 30
0.0
 11
569.9988599999997
 21
414.45561
 31
0.0
  0
LINE
  5
D2
330
2E
100
AcDbEntity
  8
一般
  6
Continuous
 62
     7
370
    70
390
1D
100
AcDbLine
 10
-569.9988599999999
 20
-385.49961
 30
0.0
 11
-569.9988599999999
 21
-414.45561
 31
0.0
  0
LINE
  5
D3
330
2E
100
AcDbEntity
  8
一般
  6
Continuous
 62
     7
370
    70
390
1D
100
AcDbLine
 10
-379.99924
 20
-385.49961
 30
0.0
 11
-379.99924
 21
-414.45561
 31
0.0
  0
LINE
  5
D4
330
2E
100
AcDbEntity
  8
一般
  6
Continuous
 62
     7
370
    70
390
1D
100
AcDbLine
 10
-189.99962
 20
-385.49961
 30
0.0
 11
-189.99962
 21
-414.45561
 31
0.0
  0
LINE
  5
D5
330
2E
100
AcDbEntity
  8
一般
  6
Continuous
 62
     7
370
    70
390
1D
100
AcDbLine
 10
-0.0000000000001137
 20
-385.49961
 30
0.0
 11
-0.0000000000001137
 21
-414.45561
 31
0.0
  0
LINE
  5
D6
330
2E
100
AcDbEntity
  8
一般
  6
Continuous
 62
     7
370
    70
390
1D
100
AcDbLine
 10
189.9996199999998
 20
-385.49961
 30
0.0
 11
189.9996199999998
 21
-414.45561
 31
0.0
  0
LINE
  5
D7
330
2E
100
AcDbEntity
  8
一般
  6
Continuous
 62
     7
370
    70
390
1D
100
AcDbLine
 10
379.9992399999998
 20
-385.49961
 30
0.0
 11
379.9992399999998
 21
-414.45561
 31
0.0
  0
LINE
  5
D8
330
2E
100
AcDbEntity
  8
一般
  6
Continuous
 62
     7
370
    70
390
1D
100
AcDbLine
 10
569.9988599999997
 20
-385.49961
 30
0.0
 11
569.9988599999997
 21
-414.45561
 31
0.0
  0
LINE
  5
D9
330
2E
100
AcDbEntity
  8
一般
  6
Continuous
 62
     7
370
    70
390
1D
100
AcDbLine
 10
-569.9988599999999
 20
385.49961
 30
0.0
 11
-598.9548599999999
 21
385.49961
 31
0.0
  0
LINE
  5
DA
330
2E
100
AcDbEntity
  8
一般
  6
Continuous
 62
     7
370
    70
390
1D
100
AcDbLine
 10
-569.9988599999999
 20
192.749805
 30
0.0
 11
-598.9548599999999
 21
192.749805
 31
0.0
  0
LINE
  5
DB
330
2E
100
AcDbEntity
  8
一般
  6
Continuous
 62
     7
370
    70
390
1D
100
AcDbLine
 10
-569.9988599999999
 20
0.0
 30
0.0
 11
-598.9548599999999
 21
0.0
 31
0.0
  0
LINE
  5
DC
330
2E
100
AcDbEntity
  8
一般
  6
Continuous
 62
     7
370
    70
390
1D
100
AcDbLine
 10
-569.9988599999999
 20
-192.749805
 30
0.0
 11
-598.9548599999999
 21
-192.749805
 31
0.0
  0
LINE
  5
DD
330
2E
100
AcDbEntity
  8
一般
  6
Continuous
 62
     7
370
    70
390
1D
100
AcDbLine
 10
-569.9988599999999
 20
-385.49961
 30
0.0
 11
-598.9548599999999
 21
-385.49961
 31
0.0
  0
LINE
  5
DE
330
2E
100
AcDbEntity
  8
一般
  6
Continuous
 62
     7
370
    70
390
1D
100
AcDbLine
 10
569.9988599999999
 20
385.49961
 30
0.0
 11
598.9548599999999
 21
385.49961
 31
0.0
  0
LINE
  5
DF
330
2E
100
AcDbEntity
  8
一般
  6
Continuous
 62
     7
370
    70
390
1D
100
AcDbLine
 10
569.9988599999999
 20
192.749805
 30
0.0
 11
598.9548599999999
 21
192.749805
 31
0.0
  0
LINE
  5
E0
330
2E
100
AcDbEntity
  8
一般
  6
Continuous
 62
     7
370
    70
390
1D
100
AcDbLine
 10
569.9988599999999
 20
0.0
 30
0.0
 11
598.9548599999999
 21
0.0
 31
0.0
  0
LINE
  5
E1
330
2E
100
AcDbEntity
  8
一般
  6
Continuous
 62
     7
370
    70
390
1D
100
AcDbLine
 10
569.9988599999999
 20
-192.749805
 30
0.0
 11
598.9548599999999
 21
-192.749805
 31
0.0
  0
LINE
  5
E2
330
2E
100
AcDbEntity
  8
一般
  6
Continuous
 62
     7
370
    70
390
1D
100
AcDbLine
 10
569.9988599999999
 20
-385.49961
 30
0.0
 11
598.9548599999999
 21
-385.49961
 31
0.0
  0
MTEXT
  5
E3
330
2E
100
AcDbEntity
  8
一般
 62
     7
390
1D
100
AcDbMText
 10
-474.99905
 20
404.54961
 30
0.0
 40
12.073681640625
 41
0.0
 71
     5
 72
     1
  1
1
  7
Calibri (bold)
 73
     1
 44
1.159596784673362
  0
MTEXT
  5
E4
330
2E
100
AcDbEntity
  8
一般
 62
     7
390
1D
100
AcDbMText
 10
-474.99905
 20
-404.5496099999999
 30
0.0
 40
12.073681640625
 41
0.0
 71
     5
 72
     1
  1
1
  7
Calibri (bold)
 73
     1
 44
1.159596784673362
  0
MTEXT
  5
E5
330
2E
100
AcDbEntity
  8
一般
 62
     7
390
1D
100
AcDbMText
 10
-284.99943
 20
404.54961
 30
0.0
 40
12.073681640625
 41
0.0
 71
     5
 72
     1
  1
2
  7
Calibri (bold)
 73
     1
 44
1.159596784673362
  0
MTEXT
  5
E6
330
2E
100
AcDbEntity
  8
一般
 62
     7
390
1D
100
AcDbMText
 10
-284.99943
 20
-404.5496099999999
 30
0.0
 40
12.073681640625
 41
0.0
 71
     5
 72
     1
  1
2
  7
Calibri (bold)
 73
     1
 44
1.159596784673362
  0
MTEXT
  5
E7
330
2E
100
AcDbEntity
  8
一般
 62
     7
390
1D
100
AcDbMText
 10
-94.99981000000008
 20
404.54961
 30
0.0
 40
12.073681640625
 41
0.0
 71
     5
 72
     1
  1
3
  7
Calibri (bold)
 73
     1
 44
1.159596784673362
  0
MTEXT
  5
E8
330
2E
100
AcDbEntity
  8
一般
 62
     7
390
1D
100
AcDbMText
 10
-94.99981000000008
 20
-404.5496099999999
 30
0.0
 40
12.073681640625
 41
0.0
 71
     5
 72
     1
  1
3
  7
Calibri (bold)
 73
     1
 44
1.159596784673362
  0
MTEXT
  5
E9
330
2E
100
AcDbEntity
  8
一般
 62
     7
390
1D
100
AcDbMText
 10
94.99980999999985
 20
404.54961
 30
0.0
 40
12.073681640625
 41
0.0
 71
     5
 72
     1
  1
4
  7
Calibri (bold)
 73
     1
 44
1.159596784673362
  0
MTEXT
  5
EA
330
2E
100
AcDbEntity
  8
一般
 62
     7
390
1D
100
AcDbMText
 10
94.99980999999985
 20
-404.5496099999999
 30
0.0
 40
12.073681640625
 41
0.0
 71
     5
 72
     1
  1
4
  7
Calibri (bold)
 73
     1
 44
1.159596784673362
  0
MTEXT
  5
EB
330
2E
100
AcDbEntity
  8
一般
 62
     7
390
1D
100
AcDbMText
 10
284.9994299999998
 20
404.54961
 30
0.0
 40
12.073681640625
 41
0.0
 71
     5
 72
     1
  1
5
  7
Calibri (bold)
 73
     1
 44
1.159596784673362
  0
MTEXT
  5
EC
330
2E
100
AcDbEntity
  8
一般
 62
     7
390
1D
100
AcDbMText
 10
284.9994299999998
 20
-404.5496099999999
 30
0.0
 40
12.073681640625
 41
0.0
 71
     5
 72
     1
  1
5
  7
Calibri (bold)
 73
     1
 44
1.159596784673362
  0
MTEXT
  5
ED
330
2E
100
AcDbEntity
  8
一般
 62
     7
390
1D
100
AcDbMText
 10
474.9990499999997
 20
404.54961
 30
0.0
 40
12.073681640625
 41
0.0
 71
     5
 72
     1
  1
6
  7
Calibri (bold)
 73
     1
 44
1.159596784673362
  0
MTEXT
  5
EE
330
2E
100
AcDbEntity
  8
一般
 62
     7
390
1D
100
AcDbMText
 10
474.9990499999997
 20
-404.5496099999999
 30
0.0
 40
12.073681640625
 41
0.0
 71
     5
 72
     1
  1
6
  7
Calibri (bold)
 73
     1
 44
1.159596784673362
  0
MTEXT
  5
EF
330
2E
100
AcDbEntity
  8
一般
 62
     7
390
1D
100
AcDbMText
 10
-589.0488599999999
 20
289.1247075
 30
0.0
 40
12.073681640625
 41
0.0
 71
     5
 72
     1
  1
A
  7
Calibri (bold)
 73
     1
 44
1.159596784673362
  0
MTEXT
  5
F0
330
2E
100
AcDbEntity
  8
一般
 62
     7
390
1D
100
AcDbMText
 10
589.0488599999998
 20
289.1247075
 30
0.0
 40
12.073681640625
 41
0.0
 71
     5
 72
     1
  1
A
  7
Calibri (bold)
 73
     1
 44
1.159596784673362
  0
MTEXT
  5
F1
330
2E
100
AcDbEntity
  8
一般
 62
     7
390
1D
100
AcDbMText
 10
-589.0488599999999
 20
96.37490250000002
 30
0.0
 40
12.073681640625
 41
0.0
 71
     5
 72
     1
  1
B
  7
Calibri (bold)
 73
     1
 44
1.159596784673362
  0
MTEXT
  5
F2
330
2E
100
AcDbEntity
  8
一般
 62
     7
390
1D
100
AcDbMText
 10
589.0488599999998
 20
96.37490250000002
 30
0.0
 40
12.073681640625
 41
0.0
 71
     5
 72
     1
  1
B
  7
Calibri (bold)
 73
     1
 44
1.159596784673362
  0
MTEXT
  5
F3
330
2E
100
AcDbEntity
  8
一般
 62
     7
390
1D
100
AcDbMText
 10
-589.0488599999999
 20
-96.37490249999996
 30
0.0
 40
12.073681640625
 41
0.0
 71
     5
 72
     1
  1
C
  7
Calibri (bold)
 73
     1
 44
1.159596784673362
  0
MTEXT
  5
F4
330
2E
100
AcDbEntity
  8
一般
 62
     7
390
1D
100
AcDbMText
 10
589.0488599999998
 20
-96.37490249999996
 30
0.0
 40
12.073681640625
 41
0.0
 71
     5
 72
     1
  1
C
  7
Calibri (bold)
 73
     1
 44
1.159596784673362
  0
MTEXT
  5
F5
330
2E
100
AcDbEntity
  8
一般
 62
     7
390
1D
100
AcDbMText
 10
-589.0488599999999
 20
-289.1247074999999
 30
0.0
 40
12.073681640625
 41
0.0
 71
     5
 72
     1
  1
D
  7
Calibri (bold)
 73
     1
 44
1.159596784673362
  0
MTEXT
  5
F6
330
2E
100
AcDbEntity
  8
一般
 62
     7
390
1D
100
AcDbMText
 10
589.0488599999998
 20
-289.1247074999999
 30
0.0
 40
12.073681640625
 41
0.0
 71
     5
 72
     1
  1
D
  7
Calibri (bold)
 73
     1
 44
1.159596784673362
  0
ENDBLK
  5
F7
330
2E
100
AcDbEntity
  8
一般
390
1D
100
AcDbBlockEnd
  0
BLOCK
  5
F8
330
2F
100
AcDbEntity
  8
一般
390
1D
100
AcDbBlockBegin
  2
Drawing Border - Universal
 70
     0
 71
     0
 10
0.0
 20
0.0
 30
0.0
  3
Drawing Border - Universal
  1

  0
INSERT
  5
F9
330
2F
100
AcDbEntity
  8
一般
 62
     7
390
1D
100
AcDbBlockReference
  2
グループ-10
 10
0.0
 20
0.0
 30
0.0
  0
ENDBLK
  5
FA
330
2F
100
AcDbEntity
  8
一般
390
1D
100
AcDbBlockEnd
  0
BLOCK
  5
FB
330
30
100
AcDbEntity
  8
寸法
390
1D
100
AcDbBlockBegin
  2
*D14
 70
     1
 71
     0
 10
0.0
 20
0.0
 30
0.0
  3
*D14
  1

  0
LINE
  5
FC
330
30
100
AcDbEntity
  8
寸法
  6
STYLE_01
 62
     0
370
    -2
390
1D
100
AcDbLine
 10
272.9273685013496
 20
220.0322535393563
 30
0.0
 11
-529.525
 21
220.0322535393563
 31
0.0
  0
LINE
  5
FD
330
30
100
AcDbEntity
  8
寸法
  6
STYLE_01
 62
     0
370
    -2
390
1D
100
AcDbLine
 10
272.9273685013496
 20
-179.9677464606435
 30
0.0
 11
-529.525
 21
-179.9677464606435
 31
0.0
  0
LINE
  5
FE
330
30
100
AcDbEntity
  8
寸法
  6
STYLE_01
 62
     0
370
    -2
390
1D
100
AcDbLine
 10
-520.0
 20
224.7947535393563
 30
0.0
 11
-520.0
 21
220.0322535393563
 31
0.0
  0
LINE
  5
FF
330
30
100
AcDbEntity
  8
寸法
  6
STYLE_01
 62
     0
370
    -2
390
1D
100
AcDbLine
 10
-520.0
 20
-179.9677464606435
 30
0.0
 11
-520.0
 21
-184.7302464606435
 31
0.0
  0
LINE
  5
100
330
30
100
AcDbEntity
  8
寸法
  6
STYLE_01
 62
     0
370
    -2
390
1D
100
AcDbLine
 10
-520.0
 20
220.0322535393563
 30
0.0
 11
-520.0
 21
-179.9677464606435
 31
0.0
  0
LINE
  5
101
330
30
100
AcDbEntity
  8
寸法
  6
STYLE_01
 62
     0
370
    20
390
1D
100
AcDbLine
 10
-516.6324039545991
 20
216.6646574939554
 30
0.0
 11
-523.3675960454009
 21
223.3998495847572
 31
0.0
  0
LINE
  5
102
330
30
100
AcDbEntity
  8
寸法
  6
STYLE_01
 62
     0
370
    20
390
1D
100
AcDbLine
 10
-523.3675960454009
 20
-176.6001504152426
 30
0.0
 11
-516.6324039545991
 21
-183.3353425060445
 31
0.0
  0
WIPEOUT
  5
103
330
30
100
AcDbEntity
  8
寸法
  6
STYLE_01
 62
     0
370
    -2
390
1D
 92
      308
310
3401000002000000A80000000B0000004A0C022B072081C0C27B9AC67E8A32C0000000000000000000000000000000000000000000000000000000000000F03F000000000000F03F0000000000000000000000000000000041634462576970656F757400FFFFFFFF000000000000000000000000000000000000F03F000000
310
0000000000000000000000F03F000000000000000000000000000000000000000074787400424947464F4E542E534858008400000006000000050000004A0C022B072081C0C27B9AC67E8A32C0000000000000000017D94E22DB3680C0C27B9AC67E8A32C0000000000000000017D94E22DB3680C044D5979F043625400000
310
0000000000004A0C022B072081C044D5979F0436254000000000000000004A0C022B072081C0C27B9AC67E8A32C00000000000000000
100
AcDbWipeout
 90
        0
 10
-548.0035
 20
-18.54099694511002
 30
0.0
 11
29.1465009689331
 21
0.0
 31
0.0
 12
0.0
 22
29.1465009689331
 32
0.0
 13
1.0
 23
1.0
340
0
 70
     7
280
     1
281
    50
282
    50
283
     0
360
0
 71
     2
 91
        5
 14
0.2973855944071052
 24
-0.3234264560806521
 14
0.2973855944071052
 24
-1.323426456080652
 14
-0.5
 24
-1.323426456080652
 14
-0.5
 24
-0.3234264560806521
 14
0.2973855944071052
 24
-0.3234264560806521
  0
MTEXT
  5
104
330
30
100
AcDbEntity
  8
寸法
 62
     0
390
1D
100
AcDbMText
 10
-541.979681640625
 20
5.459003054889854
 30
0.0
 40
12.073681640625
 41
0.0
 71
     1
 72
     1
  1
400
  7
Calibri (bold)
 11
0.0
 21
1.0
 31
0.0
 73
     1
 44
1.159596784673362
  0
POINT
  5
105
330
30
100
AcDbEntity
  8
Defpoints
 62
     0
370
     0
390
1D
100
AcDbPoint
 10
277.6898685013496
 20
-179.9677464606435
 30
0.0
  0
POINT
  5
106
330
30
100
AcDbEntity
  8
Defpoints
 62
     0
370
     0
390
1D
100
AcDbPoint
 10
277.6898685013496
 20
220.0322535393563
 30
0.0
  0
POINT
  5
107
330
30
100
AcDbEntity
  8
Defpoints
 62
     0
370
     0
390
1D
100
AcDbPoint
 10
-520.0
 20
220.0322535393563
 30
0.0
  0
ENDBLK
  5
108
330
30
100
AcDbEntity
  8
寸法
390
1D
100
AcDbBlockEnd
  0
BLOCK
  5
109
330
31
100
AcDbEntity
  8
寸法
390
1D
100
AcDbBlockBegin
  2
*D15
 70
     1
 71
     0
 10
0.0
 20
0.0
 30
0.0
  3
*D15
  1

  0
LINE
  5
10A
330
31
100
AcDbEntity
  8
寸法
  6
STYLE_01
 62
     0
370
    -2
390
1D
100
AcDbLine
 10
272.9273685013496
 20
95.03225353935618
 30
0.0
 11
-479.525
 21
95.03225353935618
 31
0.0
  0
LINE
  5
10B
330
31
100
AcDbEntity
  8
寸法
  6
STYLE_01
 62
     0
370
    -2
390
1D
100
AcDbLine
 10
272.9273685013496
 20
-54.9677464606434
 30
0.0
 11
-479.525
 21
-54.9677464606434
 31
0.0
  0
LINE
  5
10C
330
31
100
AcDbEntity
  8
寸法
  6
STYLE_01
 62
     0
370
    -2
390
1D
100
AcDbLine
 10
-470.0
 20
99.79475353935618
 30
0.0
 11
-470.0
 21
95.03225353935618
 31
0.0
  0
LINE
  5
10D
330
31
100
AcDbEntity
  8
寸法
  6
STYLE_01
 62
     0
370
    -2
390
1D
100
AcDbLine
 10
-470.0
 20
-54.9677464606434
 30
0.0
 11
-470.0
 21
-59.7302464606434
 31
0.0
  0
LINE
  5
10E
330
31
100
AcDbEntity
  8
寸法
  6
STYLE_01
 62
     0
370
    -2
390
1D
100
AcDbLine
 10
-470.0
 20
95.03225353935618
 30
0.0
 11
-470.0
 21
-54.9677464606434
 31
0.0
  0
LINE
  5
10F
330
31
100
AcDbEntity
  8
寸法
  6
STYLE_01
 62
     0
370
    20
390
1D
100
AcDbLine
 10
-466.6324039545991
 20
91.66465749395525
 30
0.0
 11
-473.3675960454009
 21
98.3998495847571
 31
0.0
  0
LINE
  5
110
330
31
100
AcDbEntity
  8
寸法
  6
STYLE_01
 62
     0
370
    20
390
1D
100
AcDbLine
 10
-473.3675960454009
 20
-51.60015041524247
 30
0.0
 11
-466.6324039545991
 21
-58.33534250604433
 31
0.0
  0
WIPEOUT
  5
111
330
31
100
AcDbEntity
  8
寸法
  6
STYLE_01
 62
     0
370
    -2
390
1D
 92
      308
310
3401000002000000A80000000B000000931804560E207FC0C67B9AC67E8A32C0000000000000000000000000000000000000000000000000000000000000F03F000000000000F03F0000000000000000000000000000000041634462576970656F757400FFFFFFFF000000000000000000000000000000000000F03F000000
310
0000000000000000000000F03F000000000000000000000000000000000000000074787400424947464F4E542E53485800840000000600000005000000931804560E207FC0C67B9AC67E8A32C000000000000000002DB29D44B64D7DC0C67B9AC67E8A32C000000000000000002DB29D44B64D7DC03CD5979F043625400000
310
000000000000931804560E207FC03CD5979F043625400000000000000000931804560E207FC0C67B9AC67E8A32C00000000000000000
100
AcDbWipeout
 90
        0
 10
-498.0035
 20
-18.54099694511003
 30
0.0
 11
29.1465009689331
 21
0.0
 31
0.0
 12
0.0
 22
29.1465009689331
 32
0.0
 13
1.0
 23
1.0
340
0
 70
     7
280
     1
281
    50
282
    50
283
     0
360
0
 71
     2
 91
        5
 14
0.2973855944071052
 24
-0.3234264560806521
 14
0.2973855944071052
 24
-1.323426456080652
 14
-0.5
 24
-1.323426456080652
 14
-0.5
 24
-0.3234264560806521
 14
0.2973855944071052
 24
-0.3234264560806521
  0
MTEXT
  5
112
330
31
100
AcDbEntity
  8
寸法
 62
     0
390
1D
100
AcDbMText
 10
-491.979681640625
 20
5.459003054889839
 30
0.0
 40
12.073681640625
 41
0.0
 71
     1
 72
     1
  1
150
  7
Calibri (bold)
 11
0.0
 21
1.0
 31
0.0
 73
     1
 44
1.159596784673362
  0
POINT
  5
113
330
31
100
AcDbEntity
  8
Defpoints
 62
     0
370
     0
390
1D
100
AcDbPoint
 10
277.6898685013496
 20
-54.9677464606434
 30
0.0
  0
POINT
  5
114
330
31
100
AcDbEntity
  8
Defpoints
 62
     0
370
     0
390
1D
100
AcDbPoint
 10
277.6898685013496
 20
95.03225353935618
 30
0.0
  0
POINT
  5
115
330
31
100
AcDbEntity
  8
Defpoints
 62
     0
370
     0
390
1D
100
AcDbPoint
 10
-470.0
 20
95.03225353935618
 30
0.0
  0
ENDBLK
  5
116
330
31
100
AcDbEntity
  8
寸法
390
1D
100
AcDbBlockEnd
  0
ENDSEC
  0
SECTION
  2
ENTITIES
  0
INSERT
  5
117
330
A
100
AcDbEntity
  8
一般
 62
     7
390
1D
100
AcDbBlockReference
  2
グループ
 10
-6.0
 20
17.99999999999987
 30
0.0
  0
INSERT
  5
118
330
A
100
AcDbEntity
  8
一般
 62
     7
390
1D
100
AcDbBlockReference
  2
グループ-9
 10
-6.0
 20
17.99999999999987
 30
0.0
  0
INSERT
  5
119
330
A
100
AcDbEntity
  8
一般
 62
     7
390
1D
100
AcDbBlockReference
  2
Drawing Border - Universal
 10
-6.0
 20
17.99999999999987
 30
0.0
  0
WIPEOUT
  5
11A
330
A
100
AcDbEntity
  8
一般
  6
Continuous
 62
     7
370
    18
390
1D
 92
      308
310
3401000002000000A80000000B00000000000000004880C0528D976E12867240000000000000000000000000000000000000000000000000000000000000F03F000000000000F03F0000000000000000000000000000000041634462576970656F757400FFFFFFFF000000000000000000000000000000000000F03F000000
310
0000000000000000000000F03F000000000000000000000000000000000000000074787400424947464F4E542E5348580084000000060000000500000000000000004880C0528D976E128672400000000000000000000000588D496EC0528D976E128672400000000000000000000000588D496EC0A9C64BE1A5F881400000
310
00000000000000000000004880C0A9C64BE1A5F88140000000000000000000000000004880C0528D976E128672400000000000000000
100
AcDbWipeout
 90
        0
 10
-521.0
 20
296.3795000000001
 30
0.0
 11
278.7014961242676
 21
0.0
 31
0.0
 12
0.0
 22
278.7014961242676
 32
0.0
 13
1.0
 23
1.0
340
0
 70
     7
280
     1
281
    50
282
    50
283
     0
360
0
 71
     2
 91
        5
 14
-0.5
 24
0.4138863610933084
 14
0.5
 24
0.4138863610933084
 14
0.5
 24
0.3304960660170406
 14
-0.5
 24
0.3304960660170406
 14
-0.5
 24
0.4138863610933084
  0
MTEXT
  5
11B
330
A
100
AcDbEntity
  8
一般
 62
     7
390
1D
100
AcDbMText
 10
-521.0
 20
337.596681640625
 30
0.0
 40
12.073681640625
 41
0.0
 71
     1
 72
     1
  1
J.VG200(V175)-VF300 変換フランジ
  7
Calibri (bold)
 73
     1
 44
1.159596784673362
  0
DIMENSION
  5
11C
330
A
100
AcDbEntity
  8
寸法
  6
STYLE_01
 62
     7
370
    18
390
1D
100
AcDbDimension
  2
*D14
 10
-520.0
 20
220.0322535393563
 30
0.0
 11
-520.0
 21
20.0322535393564
 31
0.0
 70
    32
 71
     5
 42
-1.0
  3
Arch
100
AcDbAlignedDimension
 13
277.6898685013496
 23
-179.9677464606435
 33
0.0
 14
277.6898685013496
 24
220.0322535393563
 34
0.0
 50
90.0
100
AcDbRotatedDimension
1001
ACAD
1000
DSTYLE
1002
{
1070
   279
1070
     2
1070
   340
1005
32
1070
   147
1040
4.762499999999999
1002
}
  0
DIMENSION
  5
11D
330
A
100
AcDbEntity
  8
寸法
  6
STYLE_01
 62
     7
370
    18
390
1D
100
AcDbDimension
  2
*D15
 10
-470.0
 20
95.03225353935618
 30
0.0
 11
-470.0
 21
20.03225353935639
 31
0.0
 70
    32
 71
     5
 42
-1.0
  3
Arch
100
AcDbAlignedDimension
 13
277.6898685013496
 23
-54.9677464606434
 33
0.0
 14
277.6898685013496
 24
95.03225353935618
 34
0.0
 50
90.0
100
AcDbRotatedDimension
1001
ACAD
1000
DSTYLE
1002
{
1070
   279
1070
     2
1070
   340
1005
32
1070
   147
1040
4.762499999999999
1002
}
  0
MTEXT
  5
11E
330
A
100
AcDbEntity
  8
一般
 62
     7
390
1D
100
AcDbMText
 10
32.00000000000001
 20
290.3795
 30
0.0
 40
12.073681640625
 41
0.0
 71
     5
 72
     1
  1
12 - φ19  PCD370（振分け）
  7
Calibri (bold)
 73
     1
 44
1.159596784673362
  0
MTEXT
  5
11F
330
A
100
AcDbEntity
  8
一般
 62
     7
390
1D
100
AcDbMText
 10
21.69060450189459
 20
-219.6205
 30
0.0
 40
12.073681640625
 41
0.0
 71
     5
 72
     1
  1
8 - M12 深さ10mm PCD270 （振分け）
  7
Calibri (bold)
 73
     1
 44
1.159596784673362
  0
LINE
  5
120
330
A
100
AcDbEntity
  8
一般
  6
STYLE_06
 62
     7
370
    18
390
1D
100
AcDbLine
 10
-168.3150376398033
 20
206.0
 30
0.0
 11
-77.0
 21
276.0
 31
0.0
  0
LINE
  5
121
330
A
100
AcDbEntity
  8
一般
  6
STYLE_06
 62
     7
370
    18
390
1D
100
AcDbLine
 10
225.1357861961611
 20
207.0
 30
0.0
 11
149.0
 21
276.0
 31
0.0
  0
LINE
  5
122
330
A
100
AcDbEntity
  8
一般
  6
STYLE_06
 62
     7
370
    18
390
1D
100
AcDbLine
 10
-167.9810429600697
 20
-111.1297688418553
 30
0.0
 11
-129.6715090433756
 21
-208.0
 31
0.0
  0
MTEXT
  5
123
330
A
100
AcDbEntity
  8
一般
 62
     7
390
1D
100
AcDbMText
 10
-114.0
 20
-277.1739384248461
 30
0.0
 40
12.073681640625
 41
0.0
 71
     5
 72
     1
  1
Oリング溝  :  V175
  7
Calibri (bold)
 73
     1
 44
1.159596784673362
  0
LINE
  5
124
330
A
100
AcDbEntity
  8
一般
  6
STYLE_06
 62
     7
370
    18
390
1D
100
AcDbLine
 10
-222.310131498651
 20
-71.96774646064424
 30
0.0
 11
-191.0
 21
-266.0
 31
0.0
  0
MTEXT
  5
125
330
A
100
AcDbEntity
  8
一般
 62
     7
390
1D
100
AcDbMText
 10
-444.0
 20
190.3795
 30
0.0
 40
12.073681640625
 41
0.0
 71
     5
 72
     1
  1
（　表　）
  7
Calibri (bold)
 73
     1
 44
1.159596784673362
  0
MTEXT
  5
126
330
A
100
AcDbEntity
  8
一般
 62
     7
390
1D
100
AcDbMText
 10
69.63826418826143
 20
190.3795
 30
0.0
 40
12.073681640625
 41
0.0
 71
     5
 72
     1
  1
（　裏　）
  7
Calibri (bold)
 73
     1
 44
1.159596784673362
  0
ENDSEC
  0
SECTION
  2
OBJECTS
  0
DICTIONARY
  5
19
330
0
100
AcDbDictionary
281
     1
  3
ACAD_GROUP
350
1A
  3
ACAD_LAYOUT
350
1E
  3
ACAD_MLINESTYLE
350
1B
  3
ACAD_PLOTSETTINGS
350
22
  3
ACAD_PLOTSTYLENAME
350
1F
  3
ACAD_WIPEOUT_VARS
350
23
  0
DICTIONARY
  5
1A
102
{ACAD_REACTORS
330
19
102
}
330
19
100
AcDbDictionary
281
     1
  0
DICTIONARY
  5
1E
102
{ACAD_REACTORS
330
19
102
}
330
19
100
AcDbDictionary
281
     1
  3
Layout1
350
21
  3
Model
350
20
  0
DICTIONARY
  5
1B
102
{ACAD_REACTORS
330
19
102
}
330
19
100
AcDbDictionary
281
     1
  3
Standard
350
1C
  0
DICTIONARY
  5
22
102
{ACAD_REACTORS
330
19
102
}
330
19
100
AcDbDictionary
281
     1
  0
ACDBDICTIONARYWDFLT
  5
1F
102
{ACAD_REACTORS
330
19
102
}
330
19
100
AcDbDictionary
281
     1
  3
Normal
350
1D
100
AcDbDictionaryWithDefault
340
1D
  0
WIPEOUTVARIABLES
  5
23
330
19
100
AcDbWipeoutVariables
 70
     0
  0
LAYOUT
  5
21
102
{ACAD_REACTORS
330
1E
102
}
330
1E
100
AcDbPlotSettings
  1

  2

  4

  6

 40
0.0
 41
0.0
 42
0.0
 43
0.0
 44
0.0
 45
0.0
 46
0.0
 47
0.0
 48
0.0
 49
0.0
140
0.0
141
0.0
142
1.0
143
1.0
 70
     0
 72
     0
 73
     0
 74
     0
  7

 75
     0
 76
     0
 77
     2
 78
   300
147
1.0
148
0.0
149
0.0
100
AcDbLayout
  1
Layout1
 70
     0
 71
     0
 10
0.0
 20
0.0
 11
0.0
 21
0.0
 12
0.0
 22
0.0
 32
0.0
 14
0.0
 24
0.0
 34
0.0
 15
0.0
 25
0.0
 35
0.0
146
0.0
 13
0.0
 23
0.0
 33
0.0
 16
0.0
 26
0.0
 36
0.0
 17
0.0
 27
0.0
 37
0.0
 76
     0
330
B
  0
LAYOUT
  5
20
102
{ACAD_REACTORS
330
1E
102
}
330
1E
100
AcDbPlotSettings
  1

  2

  4

  6

 40
0.0
 41
0.0
 42
0.0
 43
0.0
 44
0.0
 45
0.0
 46
0.0
 47
0.0
 48
0.0
 49
0.0
140
0.0
141
0.0
142
1.0
143
1.0
 70
  1024
 72
     0
 73
     0
 74
     0
  7

 75
     0
 76
     0
 77
     2
 78
   300
147
1.0
148
0.0
149
0.0
100
AcDbLayout
  1
Model
 70
     0
 71
     0
 10
0.0
 20
0.0
 11
0.0
 21
0.0
 12
0.0
 22
0.0
 32
0.0
 14
0.0
 24
0.0
 34
0.0
 15
0.0
 25
0.0
 35
0.0
146
0.0
 13
0.0
 23
0.0
 33
0.0
 16
0.0
 26
0.0
 36
0.0
 17
0.0
 27
0.0
 37
0.0
 76
     0
330
A
  0
MLINESTYLE
  5
1C
102
{ACAD_REACTORS
330
1B
102
}
330
1B
100
AcDbMlineStyle
  2
Standard
 70
     0
  3

 62
     0
 51
90.0
 52
90.0
 71
     2
 49
0.5
 62
   256
  6
BYLAYER
 49
-0.5
 62
   256
  6
BYLAYER
  0
ACDBPLACEHOLDER
  5
1D
102
{ACAD_REACTORS
330
1F
102
}
330
1F
  0
ENDSEC
  0
EOF
