  0
SECTION
  2
HEADER
  9
$ACADVER
  1
AC1018
  9
$ACADMAINTVER
 70
     0
  9
$DWGCODEPAGE
  3
ANSI_932
  9
$INSBASE
 10
0.0
 20
0.0
 30
0.0
  9
$EXTMIN
 10
-1415.616613342464
 20
-781.7689852141966
 30
-10.50025416666667
  9
$EXTMAX
 10
684.3791866575356
 20
703.2293147858036
 30
10.50025416666667
  9
$LIMMIN
 10
0.0
 20
0.0
  9
$LIMMAX
 10
0.0
 20
0.0
  9
$ORTHOMODE
 70
     0
  9
$REGENMODE
 70
     1
  9
$FILLMODE
 70
     1
  9
$QTEXTMODE
 70
     0
  9
$MIRRTEXT
 70
     1
  9
$LTSCALE
 40
25.4
  9
$ATTMODE
 70
     1
  9
$TEXTSIZE
 40
0.2
  9
$TRACEWID
 40
1.0
  9
$TEXTSTYLE
  7
Standard
  9
$CLAYER
  8
寸法
  9
$CELTYPE
  6
Continuous
  9
$CECOLOR
 62
   256
  9
$CELTSCALE
 40
1.0
  9
$DISPSILH
 70
     0
  9
$DIMSCALE
 40
1.0
  9
$DIMASZ
 40
11.22412109375
  9
$DIMEXO
 40
7.9375
  9
$DIMDLI
 40
10.16
  9
$DIMRND
 40
0.0
  9
$DIMDLE
 40
1.5875
  9
$DIMEXE
 40
15.875
  9
$DIMTP
 40
0.0
  9
$DIMTM
 40
0.0
  9
$DIMTXT
 40
20.122802734375
  9
$DIMCEN
 40
0.0
  9
$DIMTSZ
 40
0.0
  9
$DIMTOL
 70
     0
  9
$DIMLIM
 70
     0
  9
$DIMTIH
 70
     0
  9
$DIMTOH
 70
     0
  9
$DIMSE1
 70
     0
  9
$DIMSE2
 70
     0
  9
$DIMTAD
 70
     1
  9
$DIMZIN
 70
    11
  9
$DIMBLK
  1
VW_SLASH
  9
$DIMASO
 70
     1
  9
$DIMSHO
 70
     1
  9
$DIMPOST
  1
<>
  9
$DIMAPOST
  1
[]
  9
$DIMALT
 70
     0
  9
$DIMALTD
 70
     3
  9
$DIMALTF
 40
0.0010936132983377
  9
$DIMLFAC
 40
1.0
  9
$DIMTOFL
 70
     1
  9
$DIMTVP
 40
0.0
  9
$DIMTIX
 70
     1
  9
$DIMSOXD
 70
     0
  9
$DIMSAH
 70
     0
  9
$DIMBLK1
  1

  9
$DIMBLK2
  1

  9
$DIMSTYLE
  2
Arch
  9
$DIMCLRD
 70
     0
  9
$DIMCLRE
 70
     0
  9
$DIMCLRT
 70
     0
  9
$DIMTFAC
 40
1.0
  9
$DIMGAP
 40
1.5875
  9
$DIMJUST
 70
     0
  9
$DIMSD1
 70
     0
  9
$DIMSD2
 70
     0
  9
$DIMTOLJ
 70
     1
  9
$DIMTZIN
 70
    11
  9
$DIMALTZ
 70
     7
  9
$DIMALTTZ
 70
     7
  9
$DIMUPT
 70
     0
  9
$DIMDEC
 70
     1
  9
$DIMTDEC
 70
     1
  9
$DIMALTU
 70
     2
  9
$DIMALTTD
 70
     2
  9
$DIMTXSTY
  7
Calibri (bold)
  9
$DIMAUNIT
 70
     0
  9
$DIMADEC
 70
     2
  9
$DIMALTRND
 40
0.0
  9
$DIMAZIN
 70
     0
  9
$DIMDSEP
 70
    46
  9
$DIMATFIT
 70
     0
  9
$DIMFRAC
 70
     2
  9
$DIMLDRBLK
  1

  9
$DIMLUNIT
 70
     2
  9
$DIMLWD
 70
    -2
  9
$DIMLWE
 70
    -2
  9
$DIMTMOVE
 70
     0
  9
$LUNITS
 70
     2
  9
$LUPREC
 70
     4
  9
$SKETCHINC
 40
0.1
  9
$FILLETRAD
 40
0.0
  9
$AUNITS
 70
     0
  9
$AUPREC
 70
     0
  9
$MENU
  1
acad
  9
$ELEVATION
 40
0.0
  9
$PELEVATION
 40
0.0
  9
$THICKNESS
 40
0.0
  9
$LIMCHECK
 70
     0
  9
$CHAMFERA
 40
0.0
  9
$CHAMFERB
 40
0.0
  9
$CHAMFERC
 40
0.0
  9
$CHAMFERD
 40
0.0
  9
$SKPOLY
 70
     0
  9
$TDCREATE
 40
2447893.375
  9
$TDUCREATE
 40
0.0
  9
$TDUPDATE
 40
2447893.375
  9
$TDUUPDATE
 40
0.0
  9
$TDINDWG
 40
0.0
  9
$TDUSRTIMER
 40
0.0
  9
$USRTIMER
 70
     1
  9
$ANGBASE
 50
0.0
  9
$ANGDIR
 70
     0
  9
$PDMODE
 70
     1
  9
$PDSIZE
 40
-2.0
  9
$PLINEWID
 40
0.0
  9
$SPLFRAME
 70
     0
  9
$SPLINETYPE
 70
     6
  9
$SPLINESEGS
 70
     8
  9
$HANDSEED
  5
241
  9
$SURFTAB1
 70
     6
  9
$SURFTAB2
 70
     6
  9
$SURFTYPE
 70
     6
  9
$SURFU
 70
     6
  9
$SURFV
 70
     6
  9
$UCSBASE
  2

  9
$UCSNAME
  2

  9
$UCSORG
 10
0.0
 20
0.0
 30
0.0
  9
$UCSXDIR
 10
1.0
 20
0.0
 30
0.0
  9
$UCSYDIR
 10
0.0
 20
1.0
 30
0.0
  9
$UCSORTHOREF
  2

  9
$UCSORTHOVIEW
 70
     0
  9
$UCSORGTOP
 10
0.0
 20
0.0
 30
0.0
  9
$UCSORGBOTTOM
 10
0.0
 20
0.0
 30
0.0
  9
$UCSORGLEFT
 10
0.0
 20
0.0
 30
0.0
  9
$UCSORGRIGHT
 10
0.0
 20
0.0
 30
0.0
  9
$UCSORGFRONT
 10
0.0
 20
0.0
 30
0.0
  9
$UCSORGBACK
 10
0.0
 20
0.0
 30
0.0
  9
$PUCSBASE
  2

  9
$PUCSNAME
  2

  9
$PUCSORG
 10
0.0
 20
0.0
 30
0.0
  9
$PUCSXDIR
 10
1.0
 20
0.0
 30
0.0
  9
$PUCSYDIR
 10
0.0
 20
1.0
 30
0.0
  9
$PUCSORTHOREF
  2

  9
$PUCSORTHOVIEW
 70
     0
  9
$PUCSORGTOP
 10
0.0
 20
0.0
 30
0.0
  9
$PUCSORGBOTTOM
 10
0.0
 20
0.0
 30
0.0
  9
$PUCSORGLEFT
 10
0.0
 20
0.0
 30
0.0
  9
$PUCSORGRIGHT
 10
0.0
 20
0.0
 30
0.0
  9
$PUCSORGFRONT
 10
0.0
 20
0.0
 30
0.0
  9
$PUCSORGBACK
 10
0.0
 20
0.0
 30
0.0
  9
$USERI1
 70
     0
  9
$USERI2
 70
     0
  9
$USERI3
 70
     0
  9
$USERI4
 70
     0
  9
$USERI5
 70
     0
  9
$USERR1
 40
0.0
  9
$USERR2
 40
0.0
  9
$USERR3
 40
0.0
  9
$USERR4
 40
0.0
  9
$USERR5
 40
0.0
  9
$WORLDVIEW
 70
     1
  9
$SHADEDGE
 70
     3
  9
$SHADEDIF
 70
    70
  9
$TILEMODE
 70
     1
  9
$MAXACTVP
 70
    64
  9
$PINSBASE
 10
0.0
 20
0.0
 30
0.0
  9
$PLIMCHECK
 70
     0
  9
$PEXTMIN
 10
1.000000000000000E+20
 20
1.000000000000000E+20
 30
1.000000000000000E+20
  9
$PEXTMAX
 10
-1.000000000000000E+20
 20
-1.000000000000000E+20
 30
-1.000000000000000E+20
  9
$PLIMMIN
 10
0.0
 20
0.0
  9
$PLIMMAX
 10
12.0
 20
9.0
  9
$UNITMODE
 70
     0
  9
$VISRETAIN
 70
     0
  9
$PLINEGEN
 70
     1
  9
$PSLTSCALE
 70
     0
  9
$TREEDEPTH
 70
  3020
  9
$CMLSTYLE
  2
Standard
  9
$CMLJUST
 70
     0
  9
$CMLSCALE
 40
1.0
  9
$PROXYGRAPHICS
 70
     0
  9
$MEASUREMENT
 70
     1
  9
$CELWEIGHT
370
     0
  9
$ENDCAPS
280
     0
  9
$JOINSTYLE
280
     0
  9
$LWDISPLAY
290
     1
  9
$INSUNITS
 70
     4
  9
$HYPERLINKBASE
  1

  9
$STYLESHEET
  1

  9
$XEDIT
290
     1
  9
$CEPSNTYPE
380
     0
  9
$PSTYLEMODE
290
     1
  9
$FINGERPRINTGUID
  2

  9
$VERSIONGUID
  2

  9
$EXTNAMES
290
     1
  9
$PSVPSCALE
 40
0.0
  9
$OLESTARTUP
290
     0
  9
$SORTENTS
280
   127
  9
$INDEXCTL
280
     0
  9
$HIDETEXT
280
     1
  9
$XCLIPFRAME
290
     0
  9
$HALOGAP
280
     0
  9
$OBSCOLOR
 70
   257
  9
$OBSLTYPE
280
     0
  9
$INTERSECTIONDISPLAY
280
     0
  9
$INTERSECTIONCOLOR
 70
   257
  9
$DIMASSOC
280
     2
  9
$PROJECTNAME
  1

  0
ENDSEC
  0
SECTION
  2
CLASSES
  0
CLASS
  1
LWPOLYLINE
  2
AcDbPolyline
  3
AutoCAD 2000
 90
        0
 91
        1
280
     0
281
     1
  0
CLASS
  1
IMAGE
  2
AcDbRasterImage
  3
ISM
 90
      127
 91
        4
280
     0
281
     1
  0
CLASS
  1
OLE2FRAME
  2
AcDbOle2Frame
  3
AutoCAD 2000
 90
        0
 91
        1
280
     0
281
     1
  0
CLASS
  1
HATCH
  2
AcDbHatch
  3
AutoCAD 2000
 90
        0
 91
        1
280
     0
281
     1
  0
CLASS
  1
DICTIONARYVAR
  2
AcDbDictionaryVar
  3
ObjectDBX Classes
 90
        0
 91
        3
280
     0
281
     0
  0
CLASS
  1
RASTERVARIABLES
  2
AcDbRasterVariables
  3
ISM
 90
        0
 91
        3
280
     0
281
     0
  0
CLASS
  1
IMAGEDEF
  2
AcDbRasterImageDef
  3
ISM
 90
        0
 91
        3
280
     0
281
     0
  0
CLASS
  1
IMAGEDEF_REACTOR
  2
AcDbRasterImageDefReactor
  3
ISM
 90
        1
 91
        3
280
     0
281
     0
  0
CLASS
  1
IDBUFFER
  2
AcDbIdBuffer
  3
ObjectDBX Classes
 90
        0
 91
        3
280
     0
281
     0
  0
CLASS
  1
SPATIAL_FILTER
  2
AcDbSpatialFilter
  3
ObjectDBX Classes
 90
        0
 91
        3
280
     0
281
     0
  0
CLASS
  1
XRECORD
  2
AcDbXrecord
  3
AutoCAD 2000
 90
        0
 91
        1
280
     0
281
     0
  0
CLASS
  1
SORTENTSTABLE
  2
AcDbSortentsTable
  3
ObjectDBX Classes
 90
        0
 91
        3
280
     0
281
     0
  0
CLASS
  1
LAYER_INDEX
  2
AcDbLayerIndex
  3
ObjectDBX Classes
 90
        0
 91
        3
280
     0
281
     0
  0
CLASS
  1
SPATIAL_INDEX
  2
AcDbSpatialIndex
  3
AutoCAD 2000
 90
        0
 91
        3
280
     0
281
     0
  0
CLASS
  1
OBJECT_PTR
  2
CAseDLPNTableRecord
  3
ASE-LPNTableRecord
 90
        1
 91
        3
280
     0
281
     0
  0
CLASS
  1
LAYOUT
  2
AcDbLayout
  3
ObjectDBX Classes
 90
        0
 91
        1
280
     0
281
     0
  0
CLASS
  1
PLOTSETTINGS
  2
AcDbPlotSettings
  3
ObjectDBX Classes
 90
        0
 91
        3
280
     0
281
     0
  0
CLASS
  1
ACDBDICTIONARYWDFLT
  2
AcDbDictionaryWithDefault
  3
ObjectDBX Classes
 90
        0
 91
        3
280
     0
281
     0
  0
CLASS
  1
ACDBPLACEHOLDER
  2
AcDbPlaceHolder
  3
ObjectDBX Classes
 90
        0
 91
        1
280
     0
281
     0
  0
CLASS
  1
VBA_PROJECT
  2
AcDbVbaProject
  3
ObjectDBX Classes
 90
        0
 91
        1
280
     0
281
     0
  0
CLASS
  1
WIPEOUT
  2
AcDbWipeout
  3
WipeOut|AutoCAD Express Tool|expresstools@autodesk.com
 90
      127
 91
        3
280
     0
281
     1
  0
CLASS
  1
WIPEOUTVARIABLES
  2
AcDbWipeoutVariables
  3
WipeOut|AutoCAD Express Tool|expresstools@autodesk.com
 90
        0
 91
        3
280
     0
281
     0
  0
CLASS
  1
RTEXT
  2
RText
  3
RText|AutoCAD Express Tool|expresstools@autodesk.com
 90
        0
 91
        3
280
     0
281
     1
  0
CLASS
  1
ARCALIGNEDTEXT
  2
AcDbArcAlignedText
  3
ATEXT|AutoCAD Express Tool|expresstools@autodesk.com
 90
        0
 91
        3
280
     0
281
     1
  0
ENDSEC
  0
SECTION
  2
TABLES
  0
TABLE
  2
VPORT
  5
7
330
0
100
AcDbSymbolTable
 70
     1
  0
VPORT
  5
15
330
7
100
AcDbSymbolTableRecord
100
AcDbViewportTableRecord
  2
*ACTIVE
 70
     0
 10
0.0
 20
0.0
 11
1.0
 21
1.0
 12
-365.6187133424642
 22
-39.26983521419652
 13
0.0
 23
0.0
 14
1.0
 24
1.0
 15
0.0
 25
0.0
 16
0.0
 26
0.0
 36
1.0
 17
0.0
 27
0.0
 37
0.0
 40
1484.9983
 41
0.688564
 42
50.0
 43
0.0
 44
0.0
 50
0.0
 51
0.0
 71
     0
 72
  2000
 73
     1
 74
     1
 75
     0
 76
     0
 77
     0
 78
     0
281
     0
 65
     0
110
0.0
120
0.0
130
0.0
111
1.0
121
0.0
131
0.0
112
0.0
122
1.0
132
0.0
 79
     0
146
0.0
  0
ENDTAB
  0
TABLE
  2
LTYPE
  5
4
330
0
100
AcDbSymbolTable
 70
    11
  0
LTYPE
  5
11
330
4
100
AcDbSymbolTableRecord
100
AcDbLinetypeTableRecord
  2
ByBlock
 70
     0
  3

 72
    65
 73
     0
 40
0.0
  0
LTYPE
  5
12
330
4
100
AcDbSymbolTableRecord
100
AcDbLinetypeTableRecord
  2
ByLayer
 70
     0
  3

 72
    65
 73
     0
 40
0.0
  0
LTYPE
  5
13
330
4
100
AcDbSymbolTableRecord
100
AcDbLinetypeTableRecord
  2
Continuous
 70
     0
  3
Solid line
 72
    65
 73
     0
 40
0.0
  0
LTYPE
  5
38
330
4
100
AcDbSymbolTableRecord
100
AcDbLinetypeTableRecord
  2
STYLE_01
 70
     0
  3

 72
    65
 73
     2
 40
0.41664
 49
0.20828
 74
     0
 49
-0.20836
 74
     0
  0
LTYPE
  5
39
330
4
100
AcDbSymbolTableRecord
100
AcDbLinetypeTableRecord
  2
STYLE_02
 70
     0
  3

 72
    65
 73
     2
 40
0.6944250000000001
 49
0.48607
 74
     0
 49
-0.2083550000000001
 74
     0
  0
LTYPE
  5
3A
330
4
100
AcDbSymbolTableRecord
100
AcDbLinetypeTableRecord
  2
STYLE_03
 70
     0
  3

 72
    65
 73
     2
 40
1.25
 49
1.04164
 74
     0
 49
-0.2083599999999999
 74
     0
  0
LTYPE
  5
3B
330
4
100
AcDbSymbolTableRecord
100
AcDbLinetypeTableRecord
  2
STYLE_04
 70
     0
  3

 72
    65
 73
     2
 40
1.52771
 49
1.319425
 74
     0
 49
-0.208285
 74
     0
  0
LTYPE
  5
3C
330
4
100
AcDbSymbolTableRecord
100
AcDbLinetypeTableRecord
  2
STYLE_05
 70
     0
  3

 72
    65
 73
     2
 40
0.20828
 49
0.069425
 74
     0
 49
-0.138855
 74
     0
  0
LTYPE
  5
3D
330
4
100
AcDbSymbolTableRecord
100
AcDbLinetypeTableRecord
  2
STYLE_06
 70
     0
  3

 72
    65
 73
     4
 40
1.04164
 49
0.625
 74
     0
 49
-0.20828
 74
     0
 49
0.06943
 74
     0
 49
-0.13893
 74
     0
  0
LTYPE
  5
3E
330
4
100
AcDbSymbolTableRecord
100
AcDbLinetypeTableRecord
  2
STYLE_07
 70
     0
  3

 72
    65
 73
     6
 40
1.875
 49
0.625
 74
     0
 49
-0.20828
 74
     0
 49
0.6250000000000001
 74
     0
 49
-0.2083599999999999
 74
     0
 49
0.06943
 74
     0
 49
-0.1389299999999999
 74
     0
  0
LTYPE
  5
3F
330
4
100
AcDbSymbolTableRecord
100
AcDbLinetypeTableRecord
  2
STYLE_08
 70
     0
  3

 72
    65
 73
     6
 40
1.25
 49
0.625
 74
     0
 49
-0.20828
 74
     0
 49
0.06943
 74
     0
 49
-0.13893
 74
     0
 49
0.0694299999999999
 74
     0
 49
-0.13893
 74
     0
  0
LTYPE
  5
40
330
4
100
AcDbSymbolTableRecord
100
AcDbLinetypeTableRecord
  2
STYLE_09
 70
     0
  3

 72
    65
 73
     4
 40
5.0
 49
3.75
 74
     0
 49
-0.2777849999999998
 74
     0
 49
0.6944300000000003
 74
     0
 49
-0.2777849999999998
 74
     0
  0
LTYPE
  5
41
330
4
100
AcDbSymbolTableRecord
100
AcDbLinetypeTableRecord
  2
STYLE_10
 70
     0
  3

 72
    65
 73
     6
 40
5.9375
 49
3.75
 74
     0
 49
-0.2777849999999998
 74
     0
 49
0.6944300000000003
 74
     0
 49
-0.2777849999999998
 74
     0
 49
0.625
 74
     0
 49
-0.3125
 74
     0
  0
ENDTAB
  0
TABLE
  2
LAYER
  5
2
330
0
100
AcDbSymbolTable
 70
     4
  0
LAYER
  5
14
330
2
100
AcDbSymbolTableRecord
100
AcDbLayerTableRecord
  2
0
 70
     0
 62
     7
  6
Continuous
370
    -3
390
1D
  0
LAYER
  5
42
330
2
100
AcDbSymbolTableRecord
100
AcDbLayerTableRecord
  2
一般
 70
     0
 62
     7
  6
Continuous
370
   100
390
1D
  0
LAYER
  5
43
330
2
100
AcDbSymbolTableRecord
100
AcDbLayerTableRecord
  2
寸法
 70
     0
 62
     7
  6
Continuous
370
   100
390
1D
  0
LAYER
  5
44
330
2
100
AcDbSymbolTableRecord
100
AcDbLayerTableRecord
  2
Defpoints
 70
     0
 62
     7
  6
Continuous
290
     0
370
    -3
390
1D
  0
ENDTAB
  0
TABLE
  2
STYLE
  5
3
330
0
100
AcDbSymbolTable
 70
     2
  0
STYLE
  5
17
330
3
100
AcDbSymbolTableRecord
100
AcDbTextStyleTableRecord
  2
Standard
 70
     0
 40
0.0
 41
1.0
 50
0.0
 71
     0
 42
0.0
  3
txt
  4
BIGFONT.SHX
  0
STYLE
  5
37
330
3
100
AcDbSymbolTableRecord
100
AcDbTextStyleTableRecord
  2
Calibri (bold)
 70
     0
 40
0.0
 41
1.0
 50
0.0
 71
     0
 42
0.0
  3

  4
Calibri
1001
ACAD
1000
Calibri
1071
 33554432
  0
ENDTAB
  0
TABLE
  2
VIEW
  5
5
330
0
100
AcDbSymbolTable
 70
     0
  0
ENDTAB
  0
TABLE
  2
UCS
  5
6
330
0
100
AcDbSymbolTable
 70
     0
  0
ENDTAB
  0
TABLE
  2
APPID
  5
8
330
0
100
AcDbSymbolTable
 70
     1
  0
APPID
  5
16
330
8
100
AcDbSymbolTableRecord
100
AcDbRegAppTableRecord
  2
ACAD
 70
     0
  0
ENDTAB
  0
TABLE
  2
DIMSTYLE
  5
9
330
0
100
AcDbSymbolTable
 70
     2
100
AcDbDimStyleTable
  0
DIMSTYLE
105
18
330
9
100
AcDbSymbolTableRecord
100
AcDbDimStyleTableRecord
  2
Standard
 70
     0
340
17
  0
DIMSTYLE
105
4E
330
9
100
AcDbSymbolTableRecord
100
AcDbDimStyleTableRecord
  2
Arch
 70
     0
  3
<>
  4
[]
 41
11.22412109375
 42
7.9375
 43
10.16
 44
15.875
 46
1.5875
 73
     0
 74
     0
 77
     1
 78
    11
140
20.122802734375
141
0.0
143
0.0010936132983377
147
1.5875
171
     3
172
     1
174
     1
179
     2
271
     1
272
     1
276
     2
284
    11
285
     7
286
     7
289
     0
340
37
341
4A
342
45
  0
ENDTAB
  0
TABLE
  2
BLOCK_RECORD
  5
1
330
0
100
AcDbSymbolTable
 70
    21
  0
BLOCK_RECORD
  5
A
330
1
100
AcDbSymbolTableRecord
100
AcDbBlockTableRecord
  2
*MODEL_SPACE
340
20
  0
BLOCK_RECORD
  5
B
330
1
100
AcDbSymbolTableRecord
100
AcDbBlockTableRecord
  2
*PAPER_SPACE
340
21
  0
BLOCK_RECORD
  5
45
330
1
100
AcDbSymbolTableRecord
100
AcDbBlockTableRecord
  2
VW_SLASH
340
0
  0
BLOCK_RECORD
  5
4A
330
1
100
AcDbSymbolTableRecord
100
AcDbBlockTableRecord
  2
VW_FILLEDARROW
340
0
  0
BLOCK_RECORD
  5
24
330
1
100
AcDbSymbolTableRecord
100
AcDbBlockTableRecord
  2
グループ
340
0
102
{BLKREFS
331
178
102
}
  0
BLOCK_RECORD
  5
25
330
1
100
AcDbSymbolTableRecord
100
AcDbBlockTableRecord
  2
グループ-1
340
0
102
{BLKREFS
331
179
102
}
  0
BLOCK_RECORD
  5
26
330
1
100
AcDbSymbolTableRecord
100
AcDbBlockTableRecord
  2
グループ-2
340
0
102
{BLKREFS
331
17A
102
}
  0
BLOCK_RECORD
  5
27
330
1
100
AcDbSymbolTableRecord
100
AcDbBlockTableRecord
  2
グループ-3
340
0
102
{BLKREFS
331
17B
102
}
  0
BLOCK_RECORD
  5
28
330
1
100
AcDbSymbolTableRecord
100
AcDbBlockTableRecord
  2
グループ-4
340
0
102
{BLKREFS
331
D8
102
}
  0
BLOCK_RECORD
  5
29
330
1
100
AcDbSymbolTableRecord
100
AcDbBlockTableRecord
  2
Drawing Border - Universal
340
0
102
{BLKREFS
331
232
102
}
  0
BLOCK_RECORD
  5
2A
330
1
100
AcDbSymbolTableRecord
100
AcDbBlockTableRecord
  2
グループ-5
340
0
102
{BLKREFS
331
234
102
}
  0
BLOCK_RECORD
  5
2B
330
1
100
AcDbSymbolTableRecord
100
AcDbBlockTableRecord
  2
グループ-6
340
0
102
{BLKREFS
331
235
102
}
  0
BLOCK_RECORD
  5
2C
330
1
100
AcDbSymbolTableRecord
100
AcDbBlockTableRecord
  2
グループ-7
340
0
102
{BLKREFS
331
236
102
}
  0
BLOCK_RECORD
  5
2D
330
1
100
AcDbSymbolTableRecord
100
AcDbBlockTableRecord
  2
グループ-8
340
0
102
{BLKREFS
331
237
102
}
  0
BLOCK_RECORD
  5
2E
330
1
100
AcDbSymbolTableRecord
100
AcDbBlockTableRecord
  2
グループ-9
340
0
102
{BLKREFS
331
238
102
}
  0
BLOCK_RECORD
  5
2F
330
1
100
AcDbSymbolTableRecord
100
AcDbBlockTableRecord
  2
グループ-10
340
0
102
{BLKREFS
331
239
102
}
  0
BLOCK_RECORD
  5
30
330
1
100
AcDbSymbolTableRecord
100
AcDbBlockTableRecord
  2
グループ-11
340
0
102
{BLKREFS
331
23A
102
}
  0
BLOCK_RECORD
  5
31
330
1
100
AcDbSymbolTableRecord
100
AcDbBlockTableRecord
  2
グループ-12
340
0
102
{BLKREFS
331
23B
102
}
  0
BLOCK_RECORD
  5
32
330
1
100
AcDbSymbolTableRecord
100
AcDbBlockTableRecord
  2
グループ-13
340
0
102
{BLKREFS
331
23C
102
}
  0
BLOCK_RECORD
  5
33
330
1
100
AcDbSymbolTableRecord
100
AcDbBlockTableRecord
  2
グループ-14
340
0
102
{BLKREFS
331
23D
102
}
  0
BLOCK_RECORD
  5
34
330
1
100
AcDbSymbolTableRecord
100
AcDbBlockTableRecord
  2
グループ-15
340
0
102
{BLKREFS
331
23E
102
}
  0
BLOCK_RECORD
  5
35
330
1
100
AcDbSymbolTableRecord
100
AcDbBlockTableRecord
  2
*D19
340
0
  0
BLOCK_RECORD
  5
36
330
1
100
AcDbSymbolTableRecord
100
AcDbBlockTableRecord
  2
グループ-16
340
0
102
{BLKREFS
331
240
102
}
  0
ENDTAB
  0
ENDSEC
  0
SECTION
  2
BLOCKS
  0
BLOCK
  5
D
330
A
100
AcDbEntity
  8
0
390
1D
100
AcDbBlockBegin
  2
*MODEL_SPACE
 70
     0
 71
     0
 10
0.0
 20
0.0
 30
0.0
  3
*MODEL_SPACE
  1

  0
ENDBLK
  5
E
330
A
100
AcDbEntity
  8
0
390
1D
100
AcDbBlockEnd
  0
BLOCK
  5
F
330
B
100
AcDbEntity
 67
     1
  8
0
390
1D
100
AcDbBlockBegin
  2
*PAPER_SPACE
 70
     0
 71
     0
 10
0.0
 20
0.0
 30
0.0
  3
*PAPER_SPACE
  1

  0
ENDBLK
  5
10
330
B
100
AcDbEntity
 67
     1
  8
0
390
1D
100
AcDbBlockEnd
  0
BLOCK
  5
46
330
45
100
AcDbEntity
  8
0
  6
ByBlock
 62
     0
370
    -2
390
1D
100
AcDbBlockBegin
  2
VW_SLASH
 70
     0
 71
     0
 10
0.0
 20
0.0
 30
0.0
  3
VW_SLASH
  1

  0
LINE
  5
47
330
45
100
AcDbEntity
  8
0
  6
ByBlock
 62
     0
370
    -2
390
1D
100
AcDbLine
 10
0.0
 20
0.0
 30
0.0
 11
-1.0
 21
0.0
 31
0.0
  0
LINE
  5
48
330
45
100
AcDbEntity
  8
0
  6
ByBlock
 62
     0
370
    20
390
1D
100
AcDbLine
 10
-0.0997562630636344
 20
-0.0997562630636344
 30
0.0
 11
0.0997562630636344
 21
0.0997562630636344
 31
0.0
  0
ENDBLK
  5
49
330
45
100
AcDbEntity
  8
0
390
1D
100
AcDbBlockEnd
  0
BLOCK
  5
4B
330
4A
100
AcDbEntity
  8
0
  6
ByBlock
 62
     0
370
    -2
390
1D
100
AcDbBlockBegin
  2
VW_FILLEDARROW
 70
     0
 71
     0
 10
0.0
 20
0.0
 30
0.0
  3
VW_FILLEDARROW
  1

  0
SOLID
  5
4C
330
4A
100
AcDbEntity
  8
0
 62
     0
370
    -2
390
1D
100
AcDbTrace
 10
0.0
 20
0.0
 30
0.0
 11
-0.2821533203125
 21
-0.0756027543194943
 31
0.0
 12
-0.2821533203125
 22
0.0756027543194943
 32
0.0
 13
-0.2821533203125
 23
0.0756027543194943
 33
0.0
  0
ENDBLK
  5
4D
330
4A
100
AcDbEntity
  8
0
390
1D
100
AcDbBlockEnd
  0
BLOCK
  5
4F
330
24
100
AcDbEntity
  8
寸法
390
1D
100
AcDbBlockBegin
  2
グループ
 70
     0
 71
     0
 10
0.0
 20
0.0
 30
0.0
  3
グループ
  1

  0
POLYLINE
  5
50
102
{ACAD_REACTORS
330
57
102
}
330
24
100
AcDbEntity
  8
寸法
  6
Continuous
 62
     7
370
    18
390
1D
100
AcDb2dPolyline
 66
     1
 10
0.0
 20
0.0
 30
0.0
 70
     1
 75
     5
  0
VERTEX
  5
51
330
50
100
AcDbEntity
  8
寸法
  6
Continuous
 62
     7
370
    18
390
1D
100
AcDbVertex
100
AcDb2dVertex
 10
-44.88128665753836
 20
232.7698352141956
 30
0.0
  0
VERTEX
  5
52
330
50
100
AcDbEntity
  8
寸法
  6
Continuous
 62
     7
370
    18
390
1D
100
AcDbVertex
100
AcDb2dVertex
 10
-37.88128665753836
 20
232.7698352141956
 30
0.0
  0
VERTEX
  5
53
330
50
100
AcDbEntity
  8
寸法
  6
Continuous
 62
     7
370
    18
390
1D
100
AcDbVertex
100
AcDb2dVertex
 10
-37.88128665753836
 20
215.7698352141956
 30
0.0
  0
VERTEX
  5
54
330
50
100
AcDbEntity
  8
寸法
  6
Continuous
 62
     7
370
    18
390
1D
100
AcDbVertex
100
AcDb2dVertex
 10
-44.88128665753836
 20
215.7698352141956
 30
0.0
  0
SEQEND
  5
55
330
50
100
AcDbEntity
  8
寸法
  6
Continuous
 62
     7
370
    18
390
1D
  0
HATCH
  5
57
330
24
100
AcDbEntity
  8
寸法
  6
Continuous
 62
   254
370
     0
390
1D
100
AcDbHatch
 10
0.0
 20
0.0
 30
0.0
210
0.0
220
0.0
230
1.0
  2
SOLID
 70
     1
 71
     1
 91
        1
 92
        1
 93
        4
 72
     1
 10
-44.88128665753836
 20
232.7698352141956
 11
-37.88128665753836
 21
232.7698352141956
 72
     1
 10
-37.88128665753836
 20
232.7698352141956
 11
-37.88128665753836
 21
215.7698352141956
 72
     1
 10
-37.88128665753836
 20
215.7698352141956
 11
-44.88128665753836
 21
215.7698352141956
 72
     1
 10
-44.88128665753836
 20
215.7698352141956
 11
-44.88128665753836
 21
232.7698352141956
 97
        1
330
50
 75
     0
 76
     1
 98
        1
 10
0.0
 20
0.0
  0
LINE
  5
58
330
24
100
AcDbEntity
  8
寸法
  6
Continuous
 62
     7
370
    18
390
1D
100
AcDbLine
 10
-37.88128665753836
 20
224.2698352141956
 30
0.0
 11
-44.88128665753836
 21
224.2698352141956
 31
0.0
  0
POLYLINE
  5
59
102
{ACAD_REACTORS
330
60
102
}
330
24
100
AcDbEntity
  8
寸法
  6
Continuous
 62
     7
370
    18
390
1D
100
AcDb2dPolyline
 66
     1
 10
0.0
 20
0.0
 30
0.0
 70
     1
 75
     5
  0
VERTEX
  5
5A
330
59
100
AcDbEntity
  8
寸法
  6
Continuous
 62
     7
370
    18
390
1D
100
AcDbVertex
100
AcDb2dVertex
 10
-37.88128665753836
 20
230.2698352141956
 30
0.0
  0
VERTEX
  5
5B
330
59
100
AcDbEntity
  8
寸法
  6
Continuous
 62
     7
370
    18
390
1D
100
AcDbVertex
100
AcDb2dVertex
 10
-12.88128665753836
 20
230.2698352141956
 30
0.0
  0
VERTEX
  5
5C
330
59
100
AcDbEntity
  8
寸法
  6
Continuous
 62
     7
370
    18
390
1D
100
AcDbVertex
100
AcDb2dVertex
 10
-12.88128665753836
 20
218.2698352141956
 30
0.0
  0
VERTEX
  5
5D
330
59
100
AcDbEntity
  8
寸法
  6
Continuous
 62
     7
370
    18
390
1D
100
AcDbVertex
100
AcDb2dVertex
 10
-37.88128665753836
 20
218.2698352141956
 30
0.0
  0
SEQEND
  5
5E
330
59
100
AcDbEntity
  8
寸法
  6
Continuous
 62
     7
370
    18
390
1D
  0
HATCH
  5
60
330
24
100
AcDbEntity
  8
寸法
  6
Continuous
 62
   254
370
     0
390
1D
100
AcDbHatch
 10
0.0
 20
0.0
 30
0.0
210
0.0
220
0.0
230
1.0
  2
SOLID
 70
     1
 71
     1
 91
        1
 92
        1
 93
        4
 72
     1
 10
-37.88128665753836
 20
230.2698352141956
 11
-12.88128665753836
 21
230.2698352141956
 72
     1
 10
-12.88128665753836
 20
230.2698352141956
 11
-12.88128665753836
 21
218.2698352141956
 72
     1
 10
-12.88128665753836
 20
218.2698352141956
 11
-37.88128665753836
 21
218.2698352141956
 72
     1
 10
-37.88128665753836
 20
218.2698352141956
 11
-37.88128665753836
 21
230.2698352141956
 97
        1
330
59
 75
     0
 76
     1
 98
        1
 10
0.0
 20
0.0
  0
ENDBLK
  5
61
330
24
100
AcDbEntity
  8
寸法
390
1D
100
AcDbBlockEnd
  0
BLOCK
  5
62
330
25
100
AcDbEntity
  8
寸法
390
1D
100
AcDbBlockBegin
  2
グループ-1
 70
     0
 71
     0
 10
0.0
 20
0.0
 30
0.0
  3
グループ-1
  1

  0
POLYLINE
  5
63
102
{ACAD_REACTORS
330
6A
102
}
330
25
100
AcDbEntity
  8
寸法
  6
Continuous
 62
     7
370
    18
390
1D
100
AcDb2dPolyline
 66
     1
 10
0.0
 20
0.0
 30
0.0
 70
     1
 75
     5
  0
VERTEX
  5
64
330
63
100
AcDbEntity
  8
寸法
  6
Continuous
 62
     7
370
    18
390
1D
100
AcDbVertex
100
AcDb2dVertex
 10
-130.881286657538
 20
232.7698352141956
 30
0.0
  0
VERTEX
  5
65
330
63
100
AcDbEntity
  8
寸法
  6
Continuous
 62
     7
370
    18
390
1D
100
AcDbVertex
100
AcDb2dVertex
 10
-123.881286657538
 20
232.7698352141956
 30
0.0
  0
VERTEX
  5
66
330
63
100
AcDbEntity
  8
寸法
  6
Continuous
 62
     7
370
    18
390
1D
100
AcDbVertex
100
AcDb2dVertex
 10
-123.881286657538
 20
215.7698352141956
 30
0.0
  0
VERTEX
  5
67
330
63
100
AcDbEntity
  8
寸法
  6
Continuous
 62
     7
370
    18
390
1D
100
AcDbVertex
100
AcDb2dVertex
 10
-130.881286657538
 20
215.7698352141956
 30
0.0
  0
SEQEND
  5
68
330
63
100
AcDbEntity
  8
寸法
  6
Continuous
 62
     7
370
    18
390
1D
  0
HATCH
  5
6A
330
25
100
AcDbEntity
  8
寸法
  6
Continuous
 62
   254
370
     0
390
1D
100
AcDbHatch
 10
0.0
 20
0.0
 30
0.0
210
0.0
220
0.0
230
1.0
  2
SOLID
 70
     1
 71
     1
 91
        1
 92
        1
 93
        4
 72
     1
 10
-130.881286657538
 20
232.7698352141956
 11
-123.881286657538
 21
232.7698352141956
 72
     1
 10
-123.881286657538
 20
232.7698352141956
 11
-123.881286657538
 21
215.7698352141956
 72
     1
 10
-123.881286657538
 20
215.7698352141956
 11
-130.881286657538
 21
215.7698352141956
 72
     1
 10
-130.881286657538
 20
215.7698352141956
 11
-130.881286657538
 21
232.7698352141956
 97
        1
330
63
 75
     0
 76
     1
 98
        1
 10
0.0
 20
0.0
  0
LINE
  5
6B
330
25
100
AcDbEntity
  8
寸法
  6
Continuous
 62
     7
370
    18
390
1D
100
AcDbLine
 10
-130.881286657538
 20
224.2698352141956
 30
0.0
 11
-123.881286657538
 21
224.2698352141956
 31
0.0
  0
POLYLINE
  5
6C
102
{ACAD_REACTORS
330
73
102
}
330
25
100
AcDbEntity
  8
寸法
  6
Continuous
 62
     7
370
    18
390
1D
100
AcDb2dPolyline
 66
     1
 10
0.0
 20
0.0
 30
0.0
 70
     1
 75
     5
  0
VERTEX
  5
6D
330
6C
100
AcDbEntity
  8
寸法
  6
Continuous
 62
     7
370
    18
390
1D
100
AcDbVertex
100
AcDb2dVertex
 10
-155.881286657538
 20
230.2698352141956
 30
0.0
  0
VERTEX
  5
6E
330
6C
100
AcDbEntity
  8
寸法
  6
Continuous
 62
     7
370
    18
390
1D
100
AcDbVertex
100
AcDb2dVertex
 10
-130.881286657538
 20
230.2698352141956
 30
0.0
  0
VERTEX
  5
6F
330
6C
100
AcDbEntity
  8
寸法
  6
Continuous
 62
     7
370
    18
390
1D
100
AcDbVertex
100
AcDb2dVertex
 10
-130.881286657538
 20
218.2698352141956
 30
0.0
  0
VERTEX
  5
70
330
6C
100
AcDbEntity
  8
寸法
  6
Continuous
 62
     7
370
    18
390
1D
100
AcDbVertex
100
AcDb2dVertex
 10
-155.881286657538
 20
218.2698352141956
 30
0.0
  0
SEQEND
  5
71
330
6C
100
AcDbEntity
  8
寸法
  6
Continuous
 62
     7
370
    18
390
1D
  0
HATCH
  5
73
330
25
100
AcDbEntity
  8
寸法
  6
Continuous
 62
   254
370
     0
390
1D
100
AcDbHatch
 10
0.0
 20
0.0
 30
0.0
210
0.0
220
0.0
230
1.0
  2
SOLID
 70
     1
 71
     1
 91
        1
 92
        1
 93
        4
 72
     1
 10
-155.881286657538
 20
230.2698352141956
 11
-130.881286657538
 21
230.2698352141956
 72
     1
 10
-130.881286657538
 20
230.2698352141956
 11
-130.881286657538
 21
218.2698352141956
 72
     1
 10
-130.881286657538
 20
218.2698352141956
 11
-155.881286657538
 21
218.2698352141956
 72
     1
 10
-155.881286657538
 20
218.2698352141956
 11
-155.881286657538
 21
230.2698352141956
 97
        1
330
6C
 75
     0
 76
     1
 98
        1
 10
0.0
 20
0.0
  0
ENDBLK
  5
74
330
25
100
AcDbEntity
  8
寸法
390
1D
100
AcDbBlockEnd
  0
BLOCK
  5
75
330
26
100
AcDbEntity
  8
寸法
390
1D
100
AcDbBlockBegin
  2
グループ-2
 70
     0
 71
     0
 10
0.0
 20
0.0
 30
0.0
  3
グループ-2
  1

  0
POLYLINE
  5
76
102
{ACAD_REACTORS
330
7D
102
}
330
26
100
AcDbEntity
  8
寸法
  6
Continuous
 62
     7
370
    18
390
1D
100
AcDb2dPolyline
 66
     1
 10
0.0
 20
0.0
 30
0.0
 70
     1
 75
     5
  0
VERTEX
  5
77
330
76
100
AcDbEntity
  8
寸法
  6
Continuous
 62
     7
370
    18
390
1D
100
AcDbVertex
100
AcDb2dVertex
 10
-44.88128665753836
 20
-137.2301647858048
 30
0.0
  0
VERTEX
  5
78
330
76
100
AcDbEntity
  8
寸法
  6
Continuous
 62
     7
370
    18
390
1D
100
AcDbVertex
100
AcDb2dVertex
 10
-37.88128665753836
 20
-137.2301647858048
 30
0.0
  0
VERTEX
  5
79
330
76
100
AcDbEntity
  8
寸法
  6
Continuous
 62
     7
370
    18
390
1D
100
AcDbVertex
100
AcDb2dVertex
 10
-37.88128665753836
 20
-154.2301647858048
 30
0.0
  0
VERTEX
  5
7A
330
76
100
AcDbEntity
  8
寸法
  6
Continuous
 62
     7
370
    18
390
1D
100
AcDbVertex
100
AcDb2dVertex
 10
-44.88128665753836
 20
-154.2301647858048
 30
0.0
  0
SEQEND
  5
7B
330
76
100
AcDbEntity
  8
寸法
  6
Continuous
 62
     7
370
    18
390
1D
  0
HATCH
  5
7D
330
26
100
AcDbEntity
  8
寸法
  6
Continuous
 62
   254
370
     0
390
1D
100
AcDbHatch
 10
0.0
 20
0.0
 30
0.0
210
0.0
220
0.0
230
1.0
  2
SOLID
 70
     1
 71
     1
 91
        1
 92
        1
 93
        4
 72
     1
 10
-44.88128665753836
 20
-137.2301647858048
 11
-37.88128665753836
 21
-137.2301647858048
 72
     1
 10
-37.88128665753836
 20
-137.2301647858048
 11
-37.88128665753836
 21
-154.2301647858048
 72
     1
 10
-37.88128665753836
 20
-154.2301647858048
 11
-44.88128665753836
 21
-154.2301647858048
 72
     1
 10
-44.88128665753836
 20
-154.2301647858048
 11
-44.88128665753836
 21
-137.2301647858048
 97
        1
330
76
 75
     0
 76
     1
 98
        1
 10
0.0
 20
0.0
  0
LINE
  5
7E
330
26
100
AcDbEntity
  8
寸法
  6
Continuous
 62
     7
370
    18
390
1D
100
AcDbLine
 10
-37.88128665753836
 20
-145.7301647858048
 30
0.0
 11
-44.88128665753836
 21
-145.7301647858048
 31
0.0
  0
POLYLINE
  5
7F
102
{ACAD_REACTORS
330
86
102
}
330
26
100
AcDbEntity
  8
寸法
  6
Continuous
 62
     7
370
    18
390
1D
100
AcDb2dPolyline
 66
     1
 10
0.0
 20
0.0
 30
0.0
 70
     1
 75
     5
  0
VERTEX
  5
80
330
7F
100
AcDbEntity
  8
寸法
  6
Continuous
 62
     7
370
    18
390
1D
100
AcDbVertex
100
AcDb2dVertex
 10
-37.88128665753836
 20
-139.7301647858048
 30
0.0
  0
VERTEX
  5
81
330
7F
100
AcDbEntity
  8
寸法
  6
Continuous
 62
     7
370
    18
390
1D
100
AcDbVertex
100
AcDb2dVertex
 10
-12.88128665753836
 20
-139.7301647858048
 30
0.0
  0
VERTEX
  5
82
330
7F
100
AcDbEntity
  8
寸法
  6
Continuous
 62
     7
370
    18
390
1D
100
AcDbVertex
100
AcDb2dVertex
 10
-12.88128665753836
 20
-151.7301647858048
 30
0.0
  0
VERTEX
  5
83
330
7F
100
AcDbEntity
  8
寸法
  6
Continuous
 62
     7
370
    18
390
1D
100
AcDbVertex
100
AcDb2dVertex
 10
-37.88128665753836
 20
-151.7301647858048
 30
0.0
  0
SEQEND
  5
84
330
7F
100
AcDbEntity
  8
寸法
  6
Continuous
 62
     7
370
    18
390
1D
  0
HATCH
  5
86
330
26
100
AcDbEntity
  8
寸法
  6
Continuous
 62
   254
370
     0
390
1D
100
AcDbHatch
 10
0.0
 20
0.0
 30
0.0
210
0.0
220
0.0
230
1.0
  2
SOLID
 70
     1
 71
     1
 91
        1
 92
        1
 93
        4
 72
     1
 10
-37.88128665753836
 20
-139.7301647858048
 11
-12.88128665753836
 21
-139.7301647858048
 72
     1
 10
-12.88128665753836
 20
-139.7301647858048
 11
-12.88128665753836
 21
-151.7301647858048
 72
     1
 10
-12.88128665753836
 20
-151.7301647858048
 11
-37.88128665753836
 21
-151.7301647858048
 72
     1
 10
-37.88128665753836
 20
-151.7301647858048
 11
-37.88128665753836
 21
-139.7301647858048
 97
        1
330
7F
 75
     0
 76
     1
 98
        1
 10
0.0
 20
0.0
  0
ENDBLK
  5
87
330
26
100
AcDbEntity
  8
寸法
390
1D
100
AcDbBlockEnd
  0
BLOCK
  5
88
330
27
100
AcDbEntity
  8
寸法
390
1D
100
AcDbBlockBegin
  2
グループ-3
 70
     0
 71
     0
 10
0.0
 20
0.0
 30
0.0
  3
グループ-3
  1

  0
POLYLINE
  5
89
102
{ACAD_REACTORS
330
90
102
}
330
27
100
AcDbEntity
  8
寸法
  6
Continuous
 62
     7
370
    18
390
1D
100
AcDb2dPolyline
 66
     1
 10
0.0
 20
0.0
 30
0.0
 70
     1
 75
     5
  0
VERTEX
  5
8A
330
89
100
AcDbEntity
  8
寸法
  6
Continuous
 62
     7
370
    18
390
1D
100
AcDbVertex
100
AcDb2dVertex
 10
-130.881286657538
 20
-137.2301647858048
 30
0.0
  0
VERTEX
  5
8B
330
89
100
AcDbEntity
  8
寸法
  6
Continuous
 62
     7
370
    18
390
1D
100
AcDbVertex
100
AcDb2dVertex
 10
-123.881286657538
 20
-137.2301647858048
 30
0.0
  0
VERTEX
  5
8C
330
89
100
AcDbEntity
  8
寸法
  6
Continuous
 62
     7
370
    18
390
1D
100
AcDbVertex
100
AcDb2dVertex
 10
-123.881286657538
 20
-154.2301647858048
 30
0.0
  0
VERTEX
  5
8D
330
89
100
AcDbEntity
  8
寸法
  6
Continuous
 62
     7
370
    18
390
1D
100
AcDbVertex
100
AcDb2dVertex
 10
-130.881286657538
 20
-154.2301647858048
 30
0.0
  0
SEQEND
  5
8E
330
89
100
AcDbEntity
  8
寸法
  6
Continuous
 62
     7
370
    18
390
1D
  0
HATCH
  5
90
330
27
100
AcDbEntity
  8
寸法
  6
Continuous
 62
   254
370
     0
390
1D
100
AcDbHatch
 10
0.0
 20
0.0
 30
0.0
210
0.0
220
0.0
230
1.0
  2
SOLID
 70
     1
 71
     1
 91
        1
 92
        1
 93
        4
 72
     1
 10
-130.881286657538
 20
-137.2301647858048
 11
-123.881286657538
 21
-137.2301647858048
 72
     1
 10
-123.881286657538
 20
-137.2301647858048
 11
-123.881286657538
 21
-154.2301647858048
 72
     1
 10
-123.881286657538
 20
-154.2301647858048
 11
-130.881286657538
 21
-154.2301647858048
 72
     1
 10
-130.881286657538
 20
-154.2301647858048
 11
-130.881286657538
 21
-137.2301647858048
 97
        1
330
89
 75
     0
 76
     1
 98
        1
 10
0.0
 20
0.0
  0
LINE
  5
91
330
27
100
AcDbEntity
  8
寸法
  6
Continuous
 62
     7
370
    18
390
1D
100
AcDbLine
 10
-130.881286657538
 20
-145.7301647858048
 30
0.0
 11
-123.881286657538
 21
-145.7301647858048
 31
0.0
  0
POLYLINE
  5
92
102
{ACAD_REACTORS
330
99
102
}
330
27
100
AcDbEntity
  8
寸法
  6
Continuous
 62
     7
370
    18
390
1D
100
AcDb2dPolyline
 66
     1
 10
0.0
 20
0.0
 30
0.0
 70
     1
 75
     5
  0
VERTEX
  5
93
330
92
100
AcDbEntity
  8
寸法
  6
Continuous
 62
     7
370
    18
390
1D
100
AcDbVertex
100
AcDb2dVertex
 10
-155.881286657538
 20
-139.7301647858048
 30
0.0
  0
VERTEX
  5
94
330
92
100
AcDbEntity
  8
寸法
  6
Continuous
 62
     7
370
    18
390
1D
100
AcDbVertex
100
AcDb2dVertex
 10
-130.881286657538
 20
-139.7301647858048
 30
0.0
  0
VERTEX
  5
95
330
92
100
AcDbEntity
  8
寸法
  6
Continuous
 62
     7
370
    18
390
1D
100
AcDbVertex
100
AcDb2dVertex
 10
-130.881286657538
 20
-151.7301647858048
 30
0.0
  0
VERTEX
  5
96
330
92
100
AcDbEntity
  8
寸法
  6
Continuous
 62
     7
370
    18
390
1D
100
AcDbVertex
100
AcDb2dVertex
 10
-155.881286657538
 20
-151.7301647858048
 30
0.0
  0
SEQEND
  5
97
330
92
100
AcDbEntity
  8
寸法
  6
Continuous
 62
     7
370
    18
390
1D
  0
HATCH
  5
99
330
27
100
AcDbEntity
  8
寸法
  6
Continuous
 62
   254
370
     0
390
1D
100
AcDbHatch
 10
0.0
 20
0.0
 30
0.0
210
0.0
220
0.0
230
1.0
  2
SOLID
 70
     1
 71
     1
 91
        1
 92
        1
 93
        4
 72
     1
 10
-155.881286657538
 20
-139.7301647858048
 11
-130.881286657538
 21
-139.7301647858048
 72
     1
 10
-130.881286657538
 20
-139.7301647858048
 11
-130.881286657538
 21
-151.7301647858048
 72
     1
 10
-130.881286657538
 20
-151.7301647858048
 11
-155.881286657538
 21
-151.7301647858048
 72
     1
 10
-155.881286657538
 20
-151.7301647858048
 11
-155.881286657538
 21
-139.7301647858048
 97
        1
330
92
 75
     0
 76
     1
 98
        1
 10
0.0
 20
0.0
  0
ENDBLK
  5
9A
330
27
100
AcDbEntity
  8
寸法
390
1D
100
AcDbBlockEnd
  0
BLOCK
  5
9B
330
28
100
AcDbEntity
  8
寸法
390
1D
100
AcDbBlockBegin
  2
グループ-4
 70
     0
 71
     0
 10
0.0
 20
0.0
 30
0.0
  3
グループ-4
  1

  0
POLYLINE
  5
9C
330
28
100
AcDbEntity
  8
寸法
  6
Continuous
 62
     7
370
    13
390
1D
100
AcDb2dPolyline
 66
     1
 10
0.0
 20
0.0
 30
0.0
 70
     1
 75
     5
  0
VERTEX
  5
9D
330
9C
100
AcDbEntity
  8
寸法
  6
Continuous
 62
     7
370
    13
390
1D
100
AcDbVertex
100
AcDb2dVertex
 10
-1049.9979
 20
742.4991500000001
 30
0.0
  0
VERTEX
  5
9E
330
9C
100
AcDbEntity
  8
寸法
  6
Continuous
 62
     7
370
    13
390
1D
100
AcDbVertex
100
AcDb2dVertex
 10
1049.9979
 20
742.4991500000001
 30
0.0
  0
VERTEX
  5
9F
330
9C
100
AcDbEntity
  8
寸法
  6
Continuous
 62
     7
370
    13
390
1D
100
AcDbVertex
100
AcDb2dVertex
 10
1049.9979
 20
-742.4991500000001
 30
0.0
  0
VERTEX
  5
A0
330
9C
100
AcDbEntity
  8
寸法
  6
Continuous
 62
     7
370
    13
390
1D
100
AcDbVertex
100
AcDb2dVertex
 10
-1049.9979
 20
-742.4991500000001
 30
0.0
  0
SEQEND
  5
A1
330
9C
100
AcDbEntity
  8
寸法
  6
Continuous
 62
     7
370
    13
390
1D
  0
POLYLINE
  5
A3
330
28
100
AcDbEntity
  8
寸法
  6
Continuous
 62
     7
370
    70
390
1D
100
AcDb2dPolyline
 66
     1
 10
0.0
 20
0.0
 30
0.0
 70
     1
 75
     5
  0
VERTEX
  5
A4
330
A3
100
AcDbEntity
  8
寸法
  6
Continuous
 62
     7
370
    70
390
1D
100
AcDbVertex
100
AcDb2dVertex
 10
-949.9980999999998
 20
642.49935
 30
0.0
  0
VERTEX
  5
A5
330
A3
100
AcDbEntity
  8
寸法
  6
Continuous
 62
     7
370
    70
390
1D
100
AcDbVertex
100
AcDb2dVertex
 10
949.9980999999998
 20
642.49935
 30
0.0
  0
VERTEX
  5
A6
330
A3
100
AcDbEntity
  8
寸法
  6
Continuous
 62
     7
370
    70
390
1D
100
AcDbVertex
100
AcDb2dVertex
 10
949.9980999999998
 20
-642.49935
 30
0.0
  0
VERTEX
  5
A7
330
A3
100
AcDbEntity
  8
寸法
  6
Continuous
 62
     7
370
    70
390
1D
100
AcDbVertex
100
AcDb2dVertex
 10
-949.9980999999998
 20
-642.49935
 30
0.0
  0
SEQEND
  5
A8
330
A3
100
AcDbEntity
  8
寸法
  6
Continuous
 62
     7
370
    70
390
1D
  0
LINE
  5
AA
330
28
100
AcDbEntity
  8
寸法
  6
Continuous
 62
     7
370
    70
390
1D
100
AcDbLine
 10
-949.9980999999998
 20
642.49935
 30
0.0
 11
-949.9980999999998
 21
690.75935
 31
0.0
  0
LINE
  5
AB
330
28
100
AcDbEntity
  8
寸法
  6
Continuous
 62
     7
370
    70
390
1D
100
AcDbLine
 10
-633.3320666666666
 20
642.49935
 30
0.0
 11
-633.3320666666666
 21
690.75935
 31
0.0
  0
LINE
  5
AC
330
28
100
AcDbEntity
  8
寸法
  6
Continuous
 62
     7
370
    70
390
1D
100
AcDbLine
 10
-316.6660333333334
 20
642.49935
 30
0.0
 11
-316.6660333333334
 21
690.75935
 31
0.0
  0
LINE
  5
AD
330
28
100
AcDbEntity
  8
寸法
  6
Continuous
 62
     7
370
    70
390
1D
100
AcDbLine
 10
-0.0000000000001137
 20
642.49935
 30
0.0
 11
-0.0000000000001137
 21
690.75935
 31
0.0
  0
LINE
  5
AE
330
28
100
AcDbEntity
  8
寸法
  6
Continuous
 62
     7
370
    70
390
1D
100
AcDbLine
 10
316.6660333333331
 20
642.49935
 30
0.0
 11
316.6660333333331
 21
690.75935
 31
0.0
  0
LINE
  5
AF
330
28
100
AcDbEntity
  8
寸法
  6
Continuous
 62
     7
370
    70
390
1D
100
AcDbLine
 10
633.3320666666664
 20
642.49935
 30
0.0
 11
633.3320666666664
 21
690.75935
 31
0.0
  0
LINE
  5
B0
330
28
100
AcDbEntity
  8
寸法
  6
Continuous
 62
     7
370
    70
390
1D
100
AcDbLine
 10
949.9980999999996
 20
642.49935
 30
0.0
 11
949.9980999999996
 21
690.75935
 31
0.0
  0
LINE
  5
B1
330
28
100
AcDbEntity
  8
寸法
  6
Continuous
 62
     7
370
    70
390
1D
100
AcDbLine
 10
-949.9980999999998
 20
-642.49935
 30
0.0
 11
-949.9980999999998
 21
-690.75935
 31
0.0
  0
LINE
  5
B2
330
28
100
AcDbEntity
  8
寸法
  6
Continuous
 62
     7
370
    70
390
1D
100
AcDbLine
 10
-633.3320666666666
 20
-642.49935
 30
0.0
 11
-633.3320666666666
 21
-690.75935
 31
0.0
  0
LINE
  5
B3
330
28
100
AcDbEntity
  8
寸法
  6
Continuous
 62
     7
370
    70
390
1D
100
AcDbLine
 10
-316.6660333333334
 20
-642.49935
 30
0.0
 11
-316.6660333333334
 21
-690.75935
 31
0.0
  0
LINE
  5
B4
330
28
100
AcDbEntity
  8
寸法
  6
Continuous
 62
     7
370
    70
390
1D
100
AcDbLine
 10
-0.0000000000001137
 20
-642.49935
 30
0.0
 11
-0.0000000000001137
 21
-690.75935
 31
0.0
  0
LINE
  5
B5
330
28
100
AcDbEntity
  8
寸法
  6
Continuous
 62
     7
370
    70
390
1D
100
AcDbLine
 10
316.6660333333331
 20
-642.49935
 30
0.0
 11
316.6660333333331
 21
-690.75935
 31
0.0
  0
LINE
  5
B6
330
28
100
AcDbEntity
  8
寸法
  6
Continuous
 62
     7
370
    70
390
1D
100
AcDbLine
 10
633.3320666666664
 20
-642.49935
 30
0.0
 11
633.3320666666664
 21
-690.75935
 31
0.0
  0
LINE
  5
B7
330
28
100
AcDbEntity
  8
寸法
  6
Continuous
 62
     7
370
    70
390
1D
100
AcDbLine
 10
949.9980999999996
 20
-642.49935
 30
0.0
 11
949.9980999999996
 21
-690.75935
 31
0.0
  0
LINE
  5
B8
330
28
100
AcDbEntity
  8
寸法
  6
Continuous
 62
     7
370
    70
390
1D
100
AcDbLine
 10
-949.9980999999998
 20
642.49935
 30
0.0
 11
-998.2580999999998
 21
642.49935
 31
0.0
  0
LINE
  5
B9
330
28
100
AcDbEntity
  8
寸法
  6
Continuous
 62
     7
370
    70
390
1D
100
AcDbLine
 10
-949.9980999999998
 20
321.2496750000001
 30
0.0
 11
-998.2580999999998
 21
321.2496750000001
 31
0.0
  0
LINE
  5
BA
330
28
100
AcDbEntity
  8
寸法
  6
Continuous
 62
     7
370
    70
390
1D
100
AcDbLine
 10
-949.9980999999998
 20
0.0000000000001137
 30
0.0
 11
-998.2580999999998
 21
0.0000000000001137
 31
0.0
  0
LINE
  5
BB
330
28
100
AcDbEntity
  8
寸法
  6
Continuous
 62
     7
370
    70
390
1D
100
AcDbLine
 10
-949.9980999999998
 20
-321.2496749999999
 30
0.0
 11
-998.2580999999998
 21
-321.2496749999999
 31
0.0
  0
LINE
  5
BC
330
28
100
AcDbEntity
  8
寸法
  6
Continuous
 62
     7
370
    70
390
1D
100
AcDbLine
 10
-949.9980999999998
 20
-642.4993499999998
 30
0.0
 11
-998.2580999999998
 21
-642.4993499999998
 31
0.0
  0
LINE
  5
BD
330
28
100
AcDbEntity
  8
寸法
  6
Continuous
 62
     7
370
    70
390
1D
100
AcDbLine
 10
949.9980999999998
 20
642.49935
 30
0.0
 11
998.2580999999998
 21
642.49935
 31
0.0
  0
LINE
  5
BE
330
28
100
AcDbEntity
  8
寸法
  6
Continuous
 62
     7
370
    70
390
1D
100
AcDbLine
 10
949.9980999999998
 20
321.2496750000001
 30
0.0
 11
998.2580999999998
 21
321.2496750000001
 31
0.0
  0
LINE
  5
BF
330
28
100
AcDbEntity
  8
寸法
  6
Continuous
 62
     7
370
    70
390
1D
100
AcDbLine
 10
949.9980999999998
 20
0.0000000000001137
 30
0.0
 11
998.2580999999998
 21
0.0000000000001137
 31
0.0
  0
LINE
  5
C0
330
28
100
AcDbEntity
  8
寸法
  6
Continuous
 62
     7
370
    70
390
1D
100
AcDbLine
 10
949.9980999999998
 20
-321.2496749999999
 30
0.0
 11
998.2580999999998
 21
-321.2496749999999
 31
0.0
  0
LINE
  5
C1
330
28
100
AcDbEntity
  8
寸法
  6
Continuous
 62
     7
370
    70
390
1D
100
AcDbLine
 10
949.9980999999998
 20
-642.4993499999998
 30
0.0
 11
998.2580999999998
 21
-642.4993499999998
 31
0.0
  0
MTEXT
  5
C2
330
28
100
AcDbEntity
  8
寸法
 62
     7
390
1D
100
AcDbMText
 10
-791.6650833333332
 20
674.24935
 30
0.0
 40
20.122802734375
 41
0.0
 71
     5
 72
     1
  1
1
  7
Calibri (bold)
 73
     1
 44
1.159596784673362
  0
MTEXT
  5
C3
330
28
100
AcDbEntity
  8
寸法
 62
     7
390
1D
100
AcDbMText
 10
-791.6650833333332
 20
-674.2493499999998
 30
0.0
 40
20.122802734375
 41
0.0
 71
     5
 72
     1
  1
1
  7
Calibri (bold)
 73
     1
 44
1.159596784673362
  0
MTEXT
  5
C4
330
28
100
AcDbEntity
  8
寸法
 62
     7
390
1D
100
AcDbMText
 10
-474.99905
 20
674.24935
 30
0.0
 40
20.122802734375
 41
0.0
 71
     5
 72
     1
  1
2
  7
Calibri (bold)
 73
     1
 44
1.159596784673362
  0
MTEXT
  5
C5
330
28
100
AcDbEntity
  8
寸法
 62
     7
390
1D
100
AcDbMText
 10
-474.99905
 20
-674.2493499999998
 30
0.0
 40
20.122802734375
 41
0.0
 71
     5
 72
     1
  1
2
  7
Calibri (bold)
 73
     1
 44
1.159596784673362
  0
MTEXT
  5
C6
330
28
100
AcDbEntity
  8
寸法
 62
     7
390
1D
100
AcDbMText
 10
-158.3330166666667
 20
674.24935
 30
0.0
 40
20.122802734375
 41
0.0
 71
     5
 72
     1
  1
3
  7
Calibri (bold)
 73
     1
 44
1.159596784673362
  0
MTEXT
  5
C7
330
28
100
AcDbEntity
  8
寸法
 62
     7
390
1D
100
AcDbMText
 10
-158.3330166666667
 20
-674.2493499999998
 30
0.0
 40
20.122802734375
 41
0.0
 71
     5
 72
     1
  1
3
  7
Calibri (bold)
 73
     1
 44
1.159596784673362
  0
MTEXT
  5
C8
330
28
100
AcDbEntity
  8
寸法
 62
     7
390
1D
100
AcDbMText
 10
158.3330166666665
 20
674.24935
 30
0.0
 40
20.122802734375
 41
0.0
 71
     5
 72
     1
  1
4
  7
Calibri (bold)
 73
     1
 44
1.159596784673362
  0
MTEXT
  5
C9
330
28
100
AcDbEntity
  8
寸法
 62
     7
390
1D
100
AcDbMText
 10
158.3330166666665
 20
-674.2493499999998
 30
0.0
 40
20.122802734375
 41
0.0
 71
     5
 72
     1
  1
4
  7
Calibri (bold)
 73
     1
 44
1.159596784673362
  0
MTEXT
  5
CA
330
28
100
AcDbEntity
  8
寸法
 62
     7
390
1D
100
AcDbMText
 10
474.9990499999998
 20
674.24935
 30
0.0
 40
20.122802734375
 41
0.0
 71
     5
 72
     1
  1
5
  7
Calibri (bold)
 73
     1
 44
1.159596784673362
  0
MTEXT
  5
CB
330
28
100
AcDbEntity
  8
寸法
 62
     7
390
1D
100
AcDbMText
 10
474.9990499999998
 20
-674.2493499999998
 30
0.0
 40
20.122802734375
 41
0.0
 71
     5
 72
     1
  1
5
  7
Calibri (bold)
 73
     1
 44
1.159596784673362
  0
MTEXT
  5
CC
330
28
100
AcDbEntity
  8
寸法
 62
     7
390
1D
100
AcDbMText
 10
791.6650833333331
 20
674.24935
 30
0.0
 40
20.122802734375
 41
0.0
 71
     5
 72
     1
  1
6
  7
Calibri (bold)
 73
     1
 44
1.159596784673362
  0
MTEXT
  5
CD
330
28
100
AcDbEntity
  8
寸法
 62
     7
390
1D
100
AcDbMText
 10
791.6650833333331
 20
-674.2493499999998
 30
0.0
 40
20.122802734375
 41
0.0
 71
     5
 72
     1
  1
6
  7
Calibri (bold)
 73
     1
 44
1.159596784673362
  0
MTEXT
  5
CE
330
28
100
AcDbEntity
  8
寸法
 62
     7
390
1D
100
AcDbMText
 10
-981.7480999999998
 20
481.8745125
 30
0.0
 40
20.122802734375
 41
0.0
 71
     5
 72
     1
  1
A
  7
Calibri (bold)
 73
     1
 44
1.159596784673362
  0
MTEXT
  5
CF
330
28
100
AcDbEntity
  8
寸法
 62
     7
390
1D
100
AcDbMText
 10
981.7480999999998
 20
481.8745125
 30
0.0
 40
20.122802734375
 41
0.0
 71
     5
 72
     1
  1
A
  7
Calibri (bold)
 73
     1
 44
1.159596784673362
  0
MTEXT
  5
D0
330
28
100
AcDbEntity
  8
寸法
 62
     7
390
1D
100
AcDbMText
 10
-981.7480999999998
 20
160.6248375000001
 30
0.0
 40
20.122802734375
 41
0.0
 71
     5
 72
     1
  1
B
  7
Calibri (bold)
 73
     1
 44
1.159596784673362
  0
MTEXT
  5
D1
330
28
100
AcDbEntity
  8
寸法
 62
     7
390
1D
100
AcDbMText
 10
981.7480999999998
 20
160.6248375000001
 30
0.0
 40
20.122802734375
 41
0.0
 71
     5
 72
     1
  1
B
  7
Calibri (bold)
 73
     1
 44
1.159596784673362
  0
MTEXT
  5
D2
330
28
100
AcDbEntity
  8
寸法
 62
     7
390
1D
100
AcDbMText
 10
-981.7480999999998
 20
-160.6248374999999
 30
0.0
 40
20.122802734375
 41
0.0
 71
     5
 72
     1
  1
C
  7
Calibri (bold)
 73
     1
 44
1.159596784673362
  0
MTEXT
  5
D3
330
28
100
AcDbEntity
  8
寸法
 62
     7
390
1D
100
AcDbMText
 10
981.7480999999998
 20
-160.6248374999999
 30
0.0
 40
20.122802734375
 41
0.0
 71
     5
 72
     1
  1
C
  7
Calibri (bold)
 73
     1
 44
1.159596784673362
  0
MTEXT
  5
D4
330
28
100
AcDbEntity
  8
寸法
 62
     7
390
1D
100
AcDbMText
 10
-981.7480999999998
 20
-481.8745124999999
 30
0.0
 40
20.122802734375
 41
0.0
 71
     5
 72
     1
  1
D
  7
Calibri (bold)
 73
     1
 44
1.159596784673362
  0
MTEXT
  5
D5
330
28
100
AcDbEntity
  8
寸法
 62
     7
390
1D
100
AcDbMText
 10
981.7480999999998
 20
-481.8745124999999
 30
0.0
 40
20.122802734375
 41
0.0
 71
     5
 72
     1
  1
D
  7
Calibri (bold)
 73
     1
 44
1.159596784673362
  0
ENDBLK
  5
D6
330
28
100
AcDbEntity
  8
寸法
390
1D
100
AcDbBlockEnd
  0
BLOCK
  5
D7
330
29
100
AcDbEntity
  8
寸法
390
1D
100
AcDbBlockBegin
  2
Drawing Border - Universal
 70
     0
 71
     0
 10
0.0
 20
0.0
 30
0.0
  3
Drawing Border - Universal
  1

  0
INSERT
  5
D8
330
29
100
AcDbEntity
  8
寸法
 62
     7
390
1D
100
AcDbBlockReference
  2
グループ-4
 10
0.0
 20
0.0
 30
0.0
  0
ENDBLK
  5
D9
330
29
100
AcDbEntity
  8
寸法
390
1D
100
AcDbBlockEnd
  0
BLOCK
  5
DA
330
2A
100
AcDbEntity
  8
寸法
390
1D
100
AcDbBlockBegin
  2
グループ-5
 70
     0
 71
     0
 10
0.0
 20
0.0
 30
0.0
  3
グループ-5
  1

  0
POLYLINE
  5
DB
330
2A
100
AcDbEntity
  8
寸法
  6
Continuous
 62
     7
370
    18
390
1D
100
AcDb2dPolyline
 66
     1
 10
0.0
 20
0.0
 30
0.0
 70
     1
 75
     5
  0
VERTEX
  5
DC
330
DB
100
AcDbEntity
  8
寸法
  6
Continuous
 62
     7
370
    18
390
1D
100
AcDbVertex
100
AcDb2dVertex
 10
350.6187133424643
 20
288.2698352141965
 30
0.0
  0
VERTEX
  5
DD
330
DB
100
AcDbEntity
  8
寸法
  6
Continuous
 62
     7
370
    18
390
1D
100
AcDbVertex
100
AcDb2dVertex
 10
380.6187133424643
 20
288.2698352141965
 30
0.0
  0
VERTEX
  5
DE
330
DB
100
AcDbEntity
  8
寸法
  6
Continuous
 62
     7
370
    18
390
1D
100
AcDbVertex
100
AcDb2dVertex
 10
380.6187133424643
 20
208.2698352141965
 30
0.0
  0
VERTEX
  5
DF
330
DB
100
AcDbEntity
  8
寸法
  6
Continuous
 62
     7
370
    18
390
1D
100
AcDbVertex
100
AcDb2dVertex
 10
350.6187133424643
 20
208.2698352141965
 30
0.0
  0
SEQEND
  5
E0
330
DB
100
AcDbEntity
  8
寸法
  6
Continuous
 62
     7
370
    18
390
1D
  0
CIRCLE
  5
E2
330
2A
100
AcDbEntity
  8
寸法
  6
Continuous
 62
     7
370
    18
390
1D
100
AcDbCircle
 10
365.6187133424643
 20
272.2698352141965
 30
0.0
 40
7.500000000000025
  0
CIRCLE
  5
E3
330
2A
100
AcDbEntity
  8
寸法
  6
Continuous
 62
     7
370
    18
390
1D
100
AcDbCircle
 10
365.6187133424643
 20
224.2698352141965
 30
0.0
 40
7.500000000000003
  0
ENDBLK
  5
E4
330
2A
100
AcDbEntity
  8
寸法
390
1D
100
AcDbBlockEnd
  0
BLOCK
  5
E5
330
2B
100
AcDbEntity
  8
寸法
390
1D
100
AcDbBlockBegin
  2
グループ-6
 70
     0
 71
     0
 10
0.0
 20
0.0
 30
0.0
  3
グループ-6
  1

  0
POLYLINE
  5
E6
330
2B
100
AcDbEntity
  8
寸法
  6
Continuous
 62
     7
370
    18
390
1D
100
AcDb2dPolyline
 66
     1
 10
0.0
 20
0.0
 30
0.0
 70
     1
 75
     5
  0
VERTEX
  5
E7
330
E6
100
AcDbEntity
  8
寸法
  6
Continuous
 62
     7
370
    18
390
1D
100
AcDbVertex
100
AcDb2dVertex
 10
116.6187133424643
 20
54.26983521419655
 30
0.0
  0
VERTEX
  5
E8
330
E6
100
AcDbEntity
  8
寸法
  6
Continuous
 62
     7
370
    18
390
1D
100
AcDbVertex
100
AcDb2dVertex
 10
196.6187133424643
 20
54.26983521419655
 30
0.0
  0
VERTEX
  5
E9
330
E6
100
AcDbEntity
  8
寸法
  6
Continuous
 62
     7
370
    18
390
1D
100
AcDbVertex
100
AcDb2dVertex
 10
196.6187133424643
 20
24.26983521419655
 30
0.0
  0
VERTEX
  5
EA
330
E6
100
AcDbEntity
  8
寸法
  6
Continuous
 62
     7
370
    18
390
1D
100
AcDbVertex
100
AcDb2dVertex
 10
116.6187133424643
 20
24.26983521419655
 30
0.0
  0
SEQEND
  5
EB
330
E6
100
AcDbEntity
  8
寸法
  6
Continuous
 62
     7
370
    18
390
1D
  0
CIRCLE
  5
ED
330
2B
100
AcDbEntity
  8
寸法
  6
Continuous
 62
     7
370
    18
390
1D
100
AcDbCircle
 10
132.6187133424643
 20
39.26983521419655
 30
0.0
 40
7.500000000000025
  0
CIRCLE
  5
EE
330
2B
100
AcDbEntity
  8
寸法
  6
Continuous
 62
     7
370
    18
390
1D
100
AcDbCircle
 10
180.6187133424643
 20
39.26983521419655
 30
0.0
 40
7.500000000000003
  0
ENDBLK
  5
EF
330
2B
100
AcDbEntity
  8
寸法
390
1D
100
AcDbBlockEnd
  0
BLOCK
  5
F0
330
2C
100
AcDbEntity
  8
寸法
390
1D
100
AcDbBlockBegin
  2
グループ-7
 70
     0
 71
     0
 10
0.0
 20
0.0
 30
0.0
  3
グループ-7
  1

  0
POLYLINE
  5
F1
330
2C
100
AcDbEntity
  8
寸法
  6
Continuous
 62
     7
370
    18
390
1D
100
AcDb2dPolyline
 66
     1
 10
0.0
 20
0.0
 30
0.0
 70
     1
 75
     5
  0
VERTEX
  5
F2
330
F1
100
AcDbEntity
  8
寸法
  6
Continuous
 62
     7
370
    18
390
1D
100
AcDbVertex
100
AcDb2dVertex
 10
534.6187133424643
 20
54.26983521419649
 30
0.0
  0
VERTEX
  5
F3
330
F1
100
AcDbEntity
  8
寸法
  6
Continuous
 62
     7
370
    18
390
1D
100
AcDbVertex
100
AcDb2dVertex
 10
614.6187133424643
 20
54.26983521419649
 30
0.0
  0
VERTEX
  5
F4
330
F1
100
AcDbEntity
  8
寸法
  6
Continuous
 62
     7
370
    18
390
1D
100
AcDbVertex
100
AcDb2dVertex
 10
614.6187133424643
 20
24.26983521419649
 30
0.0
  0
VERTEX
  5
F5
330
F1
100
AcDbEntity
  8
寸法
  6
Continuous
 62
     7
370
    18
390
1D
100
AcDbVertex
100
AcDb2dVertex
 10
534.6187133424643
 20
24.26983521419649
 30
0.0
  0
SEQEND
  5
F6
330
F1
100
AcDbEntity
  8
寸法
  6
Continuous
 62
     7
370
    18
390
1D
  0
CIRCLE
  5
F8
330
2C
100
AcDbEntity
  8
寸法
  6
Continuous
 62
     7
370
    18
390
1D
100
AcDbCircle
 10
550.6187133424643
 20
39.26983521419649
 30
0.0
 40
7.500000000000025
  0
CIRCLE
  5
F9
330
2C
100
AcDbEntity
  8
寸法
  6
Continuous
 62
     7
370
    18
390
1D
100
AcDbCircle
 10
598.6187133424643
 20
39.26983521419649
 30
0.0
 40
7.500000000000003
  0
ENDBLK
  5
FA
330
2C
100
AcDbEntity
  8
寸法
390
1D
100
AcDbBlockEnd
  0
BLOCK
  5
FB
330
2D
100
AcDbEntity
  8
寸法
390
1D
100
AcDbBlockBegin
  2
グループ-8
 70
     0
 71
     0
 10
0.0
 20
0.0
 30
0.0
  3
グループ-8
  1

  0
POLYLINE
  5
FC
330
2D
100
AcDbEntity
  8
寸法
  6
Continuous
 62
     7
370
    18
390
1D
100
AcDb2dPolyline
 66
     1
 10
0.0
 20
0.0
 30
0.0
 70
     1
 75
     5
  0
VERTEX
  5
FD
330
FC
100
AcDbEntity
  8
寸法
  6
Continuous
 62
     7
370
    18
390
1D
100
AcDbVertex
100
AcDb2dVertex
 10
-549.3812866575385
 20
288.269835214198
 30
0.0
  0
VERTEX
  5
FE
330
FC
100
AcDbEntity
  8
寸法
  6
Continuous
 62
     7
370
    18
390
1D
100
AcDbVertex
100
AcDb2dVertex
 10
-519.3812866575383
 20
288.269835214198
 30
0.0
  0
VERTEX
  5
FF
330
FC
100
AcDbEntity
  8
寸法
  6
Continuous
 62
     7
370
    18
390
1D
100
AcDbVertex
100
AcDb2dVertex
 10
-519.3812866575383
 20
208.269835214198
 30
0.0
  0
VERTEX
  5
100
330
FC
100
AcDbEntity
  8
寸法
  6
Continuous
 62
     7
370
    18
390
1D
100
AcDbVertex
100
AcDb2dVertex
 10
-549.3812866575385
 20
208.269835214198
 30
0.0
  0
SEQEND
  5
101
330
FC
100
AcDbEntity
  8
寸法
  6
Continuous
 62
     7
370
    18
390
1D
  0
CIRCLE
  5
103
330
2D
100
AcDbEntity
  8
寸法
  6
Continuous
 62
     7
370
    18
390
1D
100
AcDbCircle
 10
-534.3812866575385
 20
272.269835214198
 30
0.0
 40
7.500000000000025
  0
CIRCLE
  5
104
330
2D
100
AcDbEntity
  8
寸法
  6
Continuous
 62
     7
370
    18
390
1D
100
AcDbCircle
 10
-534.3812866575385
 20
224.269835214198
 30
0.0
 40
7.50000000000002
  0
ENDBLK
  5
105
330
2D
100
AcDbEntity
  8
寸法
390
1D
100
AcDbBlockEnd
  0
BLOCK
  5
106
330
2E
100
AcDbEntity
  8
寸法
390
1D
100
AcDbBlockBegin
  2
グループ-9
 70
     0
 71
     0
 10
0.0
 20
0.0
 30
0.0
  3
グループ-9
  1

  0
POLYLINE
  5
107
330
2E
100
AcDbEntity
  8
寸法
  6
Continuous
 62
     7
370
    18
390
1D
100
AcDb2dPolyline
 66
     1
 10
0.0
 20
0.0
 30
0.0
 70
     1
 75
     5
  0
VERTEX
  5
108
330
107
100
AcDbEntity
  8
寸法
  6
Continuous
 62
     7
370
    18
390
1D
100
AcDbVertex
100
AcDb2dVertex
 10
-549.3812866575385
 20
-129.730164785802
 30
0.0
  0
VERTEX
  5
109
330
107
100
AcDbEntity
  8
寸法
  6
Continuous
 62
     7
370
    18
390
1D
100
AcDbVertex
100
AcDb2dVertex
 10
-519.3812866575383
 20
-129.730164785802
 30
0.0
  0
VERTEX
  5
10A
330
107
100
AcDbEntity
  8
寸法
  6
Continuous
 62
     7
370
    18
390
1D
100
AcDbVertex
100
AcDb2dVertex
 10
-519.3812866575383
 20
-209.730164785802
 30
0.0
  0
VERTEX
  5
10B
330
107
100
AcDbEntity
  8
寸法
  6
Continuous
 62
     7
370
    18
390
1D
100
AcDbVertex
100
AcDb2dVertex
 10
-549.3812866575385
 20
-209.730164785802
 30
0.0
  0
SEQEND
  5
10C
330
107
100
AcDbEntity
  8
寸法
  6
Continuous
 62
     7
370
    18
390
1D
  0
CIRCLE
  5
10E
330
2E
100
AcDbEntity
  8
寸法
  6
Continuous
 62
     7
370
    18
390
1D
100
AcDbCircle
 10
-534.3812866575385
 20
-145.730164785802
 30
0.0
 40
7.500000000000025
  0
CIRCLE
  5
10F
330
2E
100
AcDbEntity
  8
寸法
  6
Continuous
 62
     7
370
    18
390
1D
100
AcDbCircle
 10
-534.3812866575385
 20
-193.730164785802
 30
0.0
 40
7.50000000000002
  0
ENDBLK
  5
110
330
2E
100
AcDbEntity
  8
寸法
390
1D
100
AcDbBlockEnd
  0
BLOCK
  5
111
330
2F
100
AcDbEntity
  8
寸法
390
1D
100
AcDbBlockBegin
  2
グループ-10
 70
     0
 71
     0
 10
0.0
 20
0.0
 30
0.0
  3
グループ-10
  1

  0
POLYLINE
  5
112
330
2F
100
AcDbEntity
  8
寸法
  6
Continuous
 62
     7
370
    18
390
1D
100
AcDb2dPolyline
 66
     1
 10
0.0
 20
0.0
 30
0.0
 70
     1
 75
     5
  0
VERTEX
  5
113
330
112
100
AcDbEntity
  8
寸法
  6
Continuous
 62
     7
370
    18
390
1D
100
AcDbVertex
100
AcDb2dVertex
 10
-365.3812866575385
 20
54.26983521419791
 30
0.0
  0
VERTEX
  5
114
330
112
100
AcDbEntity
  8
寸法
  6
Continuous
 62
     7
370
    18
390
1D
100
AcDbVertex
100
AcDb2dVertex
 10
-285.3812866575385
 20
54.26983521419791
 30
0.0
  0
VERTEX
  5
115
330
112
100
AcDbEntity
  8
寸法
  6
Continuous
 62
     7
370
    18
390
1D
100
AcDbVertex
100
AcDb2dVertex
 10
-285.3812866575385
 20
24.26983521419797
 30
0.0
  0
VERTEX
  5
116
330
112
100
AcDbEntity
  8
寸法
  6
Continuous
 62
     7
370
    18
390
1D
100
AcDbVertex
100
AcDb2dVertex
 10
-365.3812866575385
 20
24.26983521419797
 30
0.0
  0
SEQEND
  5
117
330
112
100
AcDbEntity
  8
寸法
  6
Continuous
 62
     7
370
    18
390
1D
  0
CIRCLE
  5
119
330
2F
100
AcDbEntity
  8
寸法
  6
Continuous
 62
     7
370
    18
390
1D
100
AcDbCircle
 10
-349.3812866575385
 20
39.26983521419797
 30
0.0
 40
7.500000000000025
  0
CIRCLE
  5
11A
330
2F
100
AcDbEntity
  8
寸法
  6
Continuous
 62
     7
370
    18
390
1D
100
AcDbCircle
 10
-301.3812866575385
 20
39.26983521419797
 30
0.0
 40
7.499999999999983
  0
ENDBLK
  5
11B
330
2F
100
AcDbEntity
  8
寸法
390
1D
100
AcDbBlockEnd
  0
BLOCK
  5
11C
330
30
100
AcDbEntity
  8
寸法
390
1D
100
AcDbBlockBegin
  2
グループ-11
 70
     0
 71
     0
 10
0.0
 20
0.0
 30
0.0
  3
グループ-11
  1

  0
POLYLINE
  5
11D
330
30
100
AcDbEntity
  8
寸法
  6
Continuous
 62
     7
370
    18
390
1D
100
AcDb2dPolyline
 66
     1
 10
0.0
 20
0.0
 30
0.0
 70
     1
 75
     5
  0
VERTEX
  5
11E
330
11D
100
AcDbEntity
  8
寸法
  6
Continuous
 62
     7
370
    18
390
1D
100
AcDbVertex
100
AcDb2dVertex
 10
-783.3812866575385
 20
54.26983521419797
 30
0.0
  0
VERTEX
  5
11F
330
11D
100
AcDbEntity
  8
寸法
  6
Continuous
 62
     7
370
    18
390
1D
100
AcDbVertex
100
AcDb2dVertex
 10
-703.3812866575385
 20
54.26983521419797
 30
0.0
  0
VERTEX
  5
120
330
11D
100
AcDbEntity
  8
寸法
  6
Continuous
 62
     7
370
    18
390
1D
100
AcDbVertex
100
AcDb2dVertex
 10
-703.3812866575385
 20
24.26983521419803
 30
0.0
  0
VERTEX
  5
121
330
11D
100
AcDbEntity
  8
寸法
  6
Continuous
 62
     7
370
    18
390
1D
100
AcDbVertex
100
AcDb2dVertex
 10
-783.3812866575385
 20
24.26983521419803
 30
0.0
  0
SEQEND
  5
122
330
11D
100
AcDbEntity
  8
寸法
  6
Continuous
 62
     7
370
    18
390
1D
  0
CIRCLE
  5
124
330
30
100
AcDbEntity
  8
寸法
  6
Continuous
 62
     7
370
    18
390
1D
100
AcDbCircle
 10
-767.3812866575385
 20
39.26983521419803
 30
0.0
 40
7.500000000000025
  0
CIRCLE
  5
125
330
30
100
AcDbEntity
  8
寸法
  6
Continuous
 62
     7
370
    18
390
1D
100
AcDbCircle
 10
-719.3812866575385
 20
39.26983521419803
 30
0.0
 40
7.499999999999983
  0
ENDBLK
  5
126
330
30
100
AcDbEntity
  8
寸法
390
1D
100
AcDbBlockEnd
  0
BLOCK
  5
127
330
31
100
AcDbEntity
  8
寸法
390
1D
100
AcDbBlockBegin
  2
グループ-12
 70
     0
 71
     0
 10
0.0
 20
0.0
 30
0.0
  3
グループ-12
  1

  0
LINE
  5
128
330
31
100
AcDbEntity
  8
寸法
  6
Continuous
 62
     7
370
    18
390
1D
100
AcDbLine
 10
-17.88128665753835
 20
-180.7301647858048
 30
0.0
 11
-27.88128665753835
 21
-180.7301647858048
 31
0.0
  0
LINE
  5
129
330
31
100
AcDbEntity
  8
寸法
  6
Continuous
 62
     7
370
    18
390
1D
100
AcDbLine
 10
-17.88128665753835
 20
-160.7301647858048
 30
0.0
 11
-27.88128665753835
 21
-160.7301647858048
 31
0.0
  0
LINE
  5
12A
330
31
100
AcDbEntity
  8
寸法
  6
Continuous
 62
     7
370
    18
390
1D
100
AcDbLine
 10
-37.88128665753835
 20
-225.7301647858048
 30
0.0
 11
-37.88128665753835
 21
-125.7301647858048
 31
0.0
  0
LINE
  5
12B
330
31
100
AcDbEntity
  8
寸法
  6
Continuous
 62
     7
370
    18
390
1D
100
AcDbLine
 10
-37.88128665753835
 20
-125.7301647858048
 30
0.0
 11
-27.88128665753835
 21
-125.7301647858048
 31
0.0
  0
LINE
  5
12C
330
31
100
AcDbEntity
  8
寸法
  6
Continuous
 62
     7
370
    18
390
1D
100
AcDbLine
 10
-27.88128665753835
 20
-125.7301647858048
 30
0.0
 11
-27.88128665753835
 21
-160.7301647858048
 31
0.0
  0
LINE
  5
12D
330
31
100
AcDbEntity
  8
寸法
  6
Continuous
 62
     7
370
    18
390
1D
100
AcDbLine
 10
-27.88128665753835
 20
-180.7301647858048
 30
0.0
 11
-27.88128665753835
 21
-225.7301647858048
 31
0.0
  0
LINE
  5
12E
330
31
100
AcDbEntity
  8
寸法
  6
Continuous
 62
     7
370
    18
390
1D
100
AcDbLine
 10
-27.88128665753835
 20
-225.7301647858048
 30
0.0
 11
-37.88128665753835
 21
-225.7301647858048
 31
0.0
  0
LINE
  5
12F
330
31
100
AcDbEntity
  8
寸法
  6
Continuous
 62
     7
370
    18
390
1D
100
AcDbLine
 10
-17.88128665753835
 20
-180.7301647858048
 30
0.0
 11
-17.88128665753835
 21
-160.7301647858048
 31
0.0
  0
LINE
  5
130
330
31
100
AcDbEntity
  8
寸法
  6
STYLE_01
 62
     7
370
    18
390
1D
100
AcDbLine
 10
-37.88128665753835
 20
-138.2301647858046
 30
0.0
 11
-27.88128665753835
 21
-138.2301647858046
 31
0.0
  0
LINE
  5
131
330
31
100
AcDbEntity
  8
寸法
  6
STYLE_01
 62
     7
370
    18
390
1D
100
AcDbLine
 10
-37.88128665753835
 20
-153.2301647858046
 30
0.0
 11
-27.88128665753835
 21
-153.2301647858046
 31
0.0
  0
LINE
  5
132
330
31
100
AcDbEntity
  8
寸法
  6
STYLE_01
 62
     7
370
    18
390
1D
100
AcDbLine
 10
-37.88128665753835
 20
-198.2301647858048
 30
0.0
 11
-27.88128665753835
 21
-198.2301647858048
 31
0.0
  0
LINE
  5
133
330
31
100
AcDbEntity
  8
寸法
  6
STYLE_01
 62
     7
370
    18
390
1D
100
AcDbLine
 10
-37.88128665753835
 20
-213.2301647858048
 30
0.0
 11
-27.88128665753835
 21
-213.2301647858048
 31
0.0
  0
ENDBLK
  5
134
330
31
100
AcDbEntity
  8
寸法
390
1D
100
AcDbBlockEnd
  0
BLOCK
  5
135
330
32
100
AcDbEntity
  8
寸法
390
1D
100
AcDbBlockBegin
  2
グループ-13
 70
     0
 71
     0
 10
0.0
 20
0.0
 30
0.0
  3
グループ-13
  1

  0
LINE
  5
136
330
32
100
AcDbEntity
  8
寸法
  6
Continuous
 62
     7
370
    18
390
1D
100
AcDbLine
 10
-150.881286657538
 20
-180.7301647858048
 30
0.0
 11
-140.881286657538
 21
-180.7301647858048
 31
0.0
  0
LINE
  5
137
330
32
100
AcDbEntity
  8
寸法
  6
Continuous
 62
     7
370
    18
390
1D
100
AcDbLine
 10
-150.881286657538
 20
-160.7301647858048
 30
0.0
 11
-140.881286657538
 21
-160.7301647858048
 31
0.0
  0
LINE
  5
138
330
32
100
AcDbEntity
  8
寸法
  6
Continuous
 62
     7
370
    18
390
1D
100
AcDbLine
 10
-130.881286657538
 20
-225.7301647858048
 30
0.0
 11
-130.881286657538
 21
-125.7301647858048
 31
0.0
  0
LINE
  5
139
330
32
100
AcDbEntity
  8
寸法
  6
Continuous
 62
     7
370
    18
390
1D
100
AcDbLine
 10
-130.881286657538
 20
-125.7301647858048
 30
0.0
 11
-140.881286657538
 21
-125.7301647858048
 31
0.0
  0
LINE
  5
13A
330
32
100
AcDbEntity
  8
寸法
  6
Continuous
 62
     7
370
    18
390
1D
100
AcDbLine
 10
-140.881286657538
 20
-125.7301647858048
 30
0.0
 11
-140.881286657538
 21
-160.7301647858048
 31
0.0
  0
LINE
  5
13B
330
32
100
AcDbEntity
  8
寸法
  6
Continuous
 62
     7
370
    18
390
1D
100
AcDbLine
 10
-140.881286657538
 20
-180.7301647858048
 30
0.0
 11
-140.881286657538
 21
-225.7301647858048
 31
0.0
  0
LINE
  5
13C
330
32
100
AcDbEntity
  8
寸法
  6
Continuous
 62
     7
370
    18
390
1D
100
AcDbLine
 10
-140.881286657538
 20
-225.7301647858048
 30
0.0
 11
-130.881286657538
 21
-225.7301647858048
 31
0.0
  0
LINE
  5
13D
330
32
100
AcDbEntity
  8
寸法
  6
Continuous
 62
     7
370
    18
390
1D
100
AcDbLine
 10
-150.881286657538
 20
-180.7301647858048
 30
0.0
 11
-150.881286657538
 21
-160.7301647858048
 31
0.0
  0
LINE
  5
13E
330
32
100
AcDbEntity
  8
寸法
  6
STYLE_01
 62
     7
370
    18
390
1D
100
AcDbLine
 10
-130.881286657538
 20
-138.2301647858046
 30
0.0
 11
-140.881286657538
 21
-138.2301647858046
 31
0.0
  0
LINE
  5
13F
330
32
100
AcDbEntity
  8
寸法
  6
STYLE_01
 62
     7
370
    18
390
1D
100
AcDbLine
 10
-130.881286657538
 20
-153.2301647858046
 30
0.0
 11
-140.881286657538
 21
-153.2301647858046
 31
0.0
  0
LINE
  5
140
330
32
100
AcDbEntity
  8
寸法
  6
STYLE_01
 62
     7
370
    18
390
1D
100
AcDbLine
 10
-130.881286657538
 20
-198.2301647858048
 30
0.0
 11
-140.881286657538
 21
-198.2301647858048
 31
0.0
  0
LINE
  5
141
330
32
100
AcDbEntity
  8
寸法
  6
STYLE_01
 62
     7
370
    18
390
1D
100
AcDbLine
 10
-130.881286657538
 20
-213.2301647858048
 30
0.0
 11
-140.881286657538
 21
-213.2301647858048
 31
0.0
  0
ENDBLK
  5
142
330
32
100
AcDbEntity
  8
寸法
390
1D
100
AcDbBlockEnd
  0
BLOCK
  5
143
330
33
100
AcDbEntity
  8
寸法
390
1D
100
AcDbBlockBegin
  2
グループ-14
 70
     0
 71
     0
 10
0.0
 20
0.0
 30
0.0
  3
グループ-14
  1

  0
LINE
  5
144
330
33
100
AcDbEntity
  8
寸法
  6
Continuous
 62
     7
370
    18
390
1D
100
AcDbLine
 10
-17.88128665753836
 20
259.2698352141957
 30
0.0
 11
-27.88128665753836
 21
259.2698352141957
 31
0.0
  0
LINE
  5
145
330
33
100
AcDbEntity
  8
寸法
  6
Continuous
 62
     7
370
    18
390
1D
100
AcDbLine
 10
-17.88128665753836
 20
239.2698352141956
 30
0.0
 11
-27.88128665753836
 21
239.2698352141956
 31
0.0
  0
LINE
  5
146
330
33
100
AcDbEntity
  8
寸法
  6
Continuous
 62
     7
370
    18
390
1D
100
AcDbLine
 10
-37.88128665753836
 20
304.2698352141957
 30
0.0
 11
-37.88128665753836
 21
204.2698352141956
 31
0.0
  0
LINE
  5
147
330
33
100
AcDbEntity
  8
寸法
  6
Continuous
 62
     7
370
    18
390
1D
100
AcDbLine
 10
-37.88128665753836
 20
204.2698352141956
 30
0.0
 11
-27.88128665753836
 21
204.2698352141956
 31
0.0
  0
LINE
  5
148
330
33
100
AcDbEntity
  8
寸法
  6
Continuous
 62
     7
370
    18
390
1D
100
AcDbLine
 10
-27.88128665753836
 20
204.2698352141956
 30
0.0
 11
-27.88128665753836
 21
239.2698352141956
 31
0.0
  0
LINE
  5
149
330
33
100
AcDbEntity
  8
寸法
  6
Continuous
 62
     7
370
    18
390
1D
100
AcDbLine
 10
-27.88128665753836
 20
259.2698352141957
 30
0.0
 11
-27.88128665753836
 21
304.2698352141957
 31
0.0
  0
LINE
  5
14A
330
33
100
AcDbEntity
  8
寸法
  6
Continuous
 62
     7
370
    18
390
1D
100
AcDbLine
 10
-27.88128665753836
 20
304.2698352141957
 30
0.0
 11
-37.88128665753836
 21
304.2698352141957
 31
0.0
  0
LINE
  5
14B
330
33
100
AcDbEntity
  8
寸法
  6
Continuous
 62
     7
370
    18
390
1D
100
AcDbLine
 10
-17.88128665753836
 20
259.2698352141957
 30
0.0
 11
-17.88128665753836
 21
239.2698352141956
 31
0.0
  0
LINE
  5
14C
330
33
100
AcDbEntity
  8
寸法
  6
STYLE_01
 62
     7
370
    18
390
1D
100
AcDbLine
 10
-37.88128665753836
 20
216.7698352141954
 30
0.0
 11
-27.88128665753836
 21
216.7698352141954
 31
0.0
  0
LINE
  5
14D
330
33
100
AcDbEntity
  8
寸法
  6
STYLE_01
 62
     7
370
    18
390
1D
100
AcDbLine
 10
-37.88128665753836
 20
231.7698352141954
 30
0.0
 11
-27.88128665753836
 21
231.7698352141954
 31
0.0
  0
LINE
  5
14E
330
33
100
AcDbEntity
  8
寸法
  6
STYLE_01
 62
     7
370
    18
390
1D
100
AcDbLine
 10
-37.88128665753836
 20
276.7698352141957
 30
0.0
 11
-27.88128665753836
 21
276.7698352141957
 31
0.0
  0
LINE
  5
14F
330
33
100
AcDbEntity
  8
寸法
  6
STYLE_01
 62
     7
370
    18
390
1D
100
AcDbLine
 10
-37.88128665753836
 20
291.7698352141957
 30
0.0
 11
-27.88128665753836
 21
291.7698352141957
 31
0.0
  0
ENDBLK
  5
150
330
33
100
AcDbEntity
  8
寸法
390
1D
100
AcDbBlockEnd
  0
BLOCK
  5
151
330
34
100
AcDbEntity
  8
寸法
390
1D
100
AcDbBlockBegin
  2
グループ-15
 70
     0
 71
     0
 10
0.0
 20
0.0
 30
0.0
  3
グループ-15
  1

  0
LINE
  5
152
330
34
100
AcDbEntity
  8
寸法
  6
Continuous
 62
     7
370
    18
390
1D
100
AcDbLine
 10
-150.881286657538
 20
259.2698352141957
 30
0.0
 11
-140.881286657538
 21
259.2698352141957
 31
0.0
  0
LINE
  5
153
330
34
100
AcDbEntity
  8
寸法
  6
Continuous
 62
     7
370
    18
390
1D
100
AcDbLine
 10
-150.881286657538
 20
239.2698352141956
 30
0.0
 11
-140.881286657538
 21
239.2698352141956
 31
0.0
  0
LINE
  5
154
330
34
100
AcDbEntity
  8
寸法
  6
Continuous
 62
     7
370
    18
390
1D
100
AcDbLine
 10
-130.881286657538
 20
304.2698352141957
 30
0.0
 11
-130.881286657538
 21
204.2698352141956
 31
0.0
  0
LINE
  5
155
330
34
100
AcDbEntity
  8
寸法
  6
Continuous
 62
     7
370
    18
390
1D
100
AcDbLine
 10
-130.881286657538
 20
204.2698352141956
 30
0.0
 11
-140.881286657538
 21
204.2698352141956
 31
0.0
  0
LINE
  5
156
330
34
100
AcDbEntity
  8
寸法
  6
Continuous
 62
     7
370
    18
390
1D
100
AcDbLine
 10
-140.881286657538
 20
204.2698352141956
 30
0.0
 11
-140.881286657538
 21
239.2698352141956
 31
0.0
  0
LINE
  5
157
330
34
100
AcDbEntity
  8
寸法
  6
Continuous
 62
     7
370
    18
390
1D
100
AcDbLine
 10
-140.881286657538
 20
259.2698352141957
 30
0.0
 11
-140.881286657538
 21
304.2698352141957
 31
0.0
  0
LINE
  5
158
330
34
100
AcDbEntity
  8
寸法
  6
Continuous
 62
     7
370
    18
390
1D
100
AcDbLine
 10
-140.881286657538
 20
304.2698352141957
 30
0.0
 11
-130.881286657538
 21
304.2698352141957
 31
0.0
  0
LINE
  5
159
330
34
100
AcDbEntity
  8
寸法
  6
Continuous
 62
     7
370
    18
390
1D
100
AcDbLine
 10
-150.881286657538
 20
259.2698352141957
 30
0.0
 11
-150.881286657538
 21
239.2698352141956
 31
0.0
  0
LINE
  5
15A
330
34
100
AcDbEntity
  8
寸法
  6
STYLE_01
 62
     7
370
    18
390
1D
100
AcDbLine
 10
-130.881286657538
 20
216.7698352141954
 30
0.0
 11
-140.881286657538
 21
216.7698352141954
 31
0.0
  0
LINE
  5
15B
330
34
100
AcDbEntity
  8
寸法
  6
STYLE_01
 62
     7
370
    18
390
1D
100
AcDbLine
 10
-130.881286657538
 20
231.7698352141954
 30
0.0
 11
-140.881286657538
 21
231.7698352141954
 31
0.0
  0
LINE
  5
15C
330
34
100
AcDbEntity
  8
寸法
  6
STYLE_01
 62
     7
370
    18
390
1D
100
AcDbLine
 10
-130.881286657538
 20
276.7698352141957
 30
0.0
 11
-140.881286657538
 21
276.7698352141957
 31
0.0
  0
LINE
  5
15D
330
34
100
AcDbEntity
  8
寸法
  6
STYLE_01
 62
     7
370
    18
390
1D
100
AcDbLine
 10
-130.881286657538
 20
291.7698352141957
 30
0.0
 11
-140.881286657538
 21
291.7698352141957
 31
0.0
  0
ENDBLK
  5
15E
330
34
100
AcDbEntity
  8
寸法
390
1D
100
AcDbBlockEnd
  0
BLOCK
  5
15F
330
35
100
AcDbEntity
  8
寸法
390
1D
100
AcDbBlockBegin
  2
*D19
 70
     1
 71
     0
 10
0.0
 20
0.0
 30
0.0
  3
*D19
  1

  0
LINE
  5
160
330
35
100
AcDbEntity
  8
寸法
  6
STYLE_01
 62
     0
370
    -2
390
1D
100
AcDbLine
 10
-892.0625000000027
 20
132.5000000000008
 30
0.0
 11
495.8749999999977
 21
132.5000000000008
 31
0.0
  0
LINE
  5
161
330
35
100
AcDbEntity
  8
寸法
  6
STYLE_01
 62
     0
370
    -2
390
1D
100
AcDbLine
 10
-892.0625000000027
 20
-132.4999999999979
 30
0.0
 11
495.8749999999977
 21
-132.4999999999979
 31
0.0
  0
LINE
  5
162
330
35
100
AcDbEntity
  8
寸法
  6
STYLE_01
 62
     0
370
    -2
390
1D
100
AcDbLine
 10
479.9999999999977
 20
140.4375000000008
 30
0.0
 11
479.9999999999977
 21
132.5000000000008
 31
0.0
  0
LINE
  5
163
330
35
100
AcDbEntity
  8
寸法
  6
STYLE_01
 62
     0
370
    -2
390
1D
100
AcDbLine
 10
479.9999999999977
 20
-132.4999999999979
 30
0.0
 11
479.9999999999977
 21
-140.4374999999979
 31
0.0
  0
LINE
  5
164
330
35
100
AcDbEntity
  8
寸法
  6
STYLE_01
 62
     0
370
    -2
390
1D
100
AcDbLine
 10
479.9999999999977
 20
132.5000000000008
 30
0.0
 11
479.9999999999977
 21
-132.4999999999979
 31
0.0
  0
LINE
  5
165
330
35
100
AcDbEntity
  8
寸法
  6
STYLE_01
 62
     0
370
    20
390
1D
100
AcDbLine
 10
485.612660075666
 20
126.8873399243326
 30
0.0
 11
474.3873399243295
 21
138.1126600756691
 31
0.0
  0
LINE
  5
166
330
35
100
AcDbEntity
  8
寸法
  6
STYLE_01
 62
     0
370
    20
390
1D
100
AcDbLine
 10
474.3873399243295
 20
-126.8873399243297
 30
0.0
 11
485.612660075666
 21
-138.1126600756661
 31
0.0
  0
WIPEOUT
  5
167
330
35
100
AcDbEntity
  8
寸法
  6
STYLE_01
 62
     0
370
    -2
390
1D
 92
      308
310
3401000002000000A80000000B000000E4D6A3703D157B40C21D66BA33EA75C0000000000000000000000000000000000000000000000000000000000000F03F000000000000F03F0000000000000000000000000000000041634462576970656F757400FFFFFFFF000000000000000000000000000000000000F03F000000
310
0000000000000000000000F03F000000000000000000000000000000000000000074787400424947464F4E542E53485800840000000600000005000000E4D6A3703D157B40C21D66BA33EA75C00000000000000000392CF9E27A1E7E40C21D66BA33EA75C00000000000000000392CF9E27A1E7E406DC81048F6E072C00000
310
000000000000E4D6A3703D157B406DC81048F6E072C00000000000000000E4D6A3703D157B40C21D66BA33EA75C00000000000000000
100
AcDbWipeout
 90
        0
 10
433.3274999999978
 20
-350.6376289357105
 30
0.0
 11
48.5775016148885
 21
0.0
 31
0.0
 12
0.0
 22
48.5775016148885
 32
0.0
 13
1.0
 23
1.0
340
0
 70
     7
280
     1
281
    50
282
    50
283
     0
360
0
 71
     2
 91
        5
 14
0.2973855944071059
 24
-6.218107504076437
 14
0.2973855944071059
 24
-7.218107504076436
 14
-0.5
 24
-7.218107504076436
 14
-0.5
 24
-6.218107504076437
 14
0.2973855944071059
 24
-6.218107504076437
  0
MTEXT
  5
168
330
35
100
AcDbEntity
  8
寸法
 62
     0
390
1D
100
AcDbMText
 10
443.3671972656228
 20
-24.28875080744278
 30
0.0
 40
20.122802734375
 41
0.0
 71
     1
 72
     1
  1
265
  7
Calibri (bold)
 11
0.0
 21
1.0
 31
0.0
 73
     1
 44
1.159596784673362
  0
POINT
  5
169
330
35
100
AcDbEntity
  8
Defpoints
 62
     0
370
     0
390
1D
100
AcDbPoint
 10
-900.0000000000027
 20
-132.4999999999979
 30
0.0
  0
POINT
  5
16A
330
35
100
AcDbEntity
  8
Defpoints
 62
     0
370
     0
390
1D
100
AcDbPoint
 10
-900.0000000000027
 20
132.5000000000008
 30
0.0
  0
POINT
  5
16B
330
35
100
AcDbEntity
  8
Defpoints
 62
     0
370
     0
390
1D
100
AcDbPoint
 10
479.9999999999977
 20
132.5000000000008
 30
0.0
  0
ENDBLK
  5
16C
330
35
100
AcDbEntity
  8
寸法
390
1D
100
AcDbBlockEnd
  0
BLOCK
  5
16D
330
36
100
AcDbEntity
  8
寸法
390
1D
100
AcDbBlockBegin
  2
グループ-16
 70
     0
 71
     0
 10
0.0
 20
0.0
 30
0.0
  3
グループ-16
  1

  0
POLYLINE
  5
16E
330
36
100
AcDbEntity
  8
寸法
  6
Continuous
 62
     7
370
    18
390
1D
100
AcDb2dPolyline
 66
     1
 10
0.0
 20
0.0
 30
0.0
 70
     1
 75
     5
  0
VERTEX
  5
16F
330
16E
100
AcDbEntity
  8
寸法
  6
Continuous
 62
     7
370
    18
390
1D
100
AcDbVertex
100
AcDb2dVertex
 10
350.6187133424643
 20
-129.7301647858035
 30
0.0
  0
VERTEX
  5
170
330
16E
100
AcDbEntity
  8
寸法
  6
Continuous
 62
     7
370
    18
390
1D
100
AcDbVertex
100
AcDb2dVertex
 10
380.6187133424643
 20
-129.7301647858035
 30
0.0
  0
VERTEX
  5
171
330
16E
100
AcDbEntity
  8
寸法
  6
Continuous
 62
     7
370
    18
390
1D
100
AcDbVertex
100
AcDb2dVertex
 10
380.6187133424643
 20
-209.7301647858034
 30
0.0
  0
VERTEX
  5
172
330
16E
100
AcDbEntity
  8
寸法
  6
Continuous
 62
     7
370
    18
390
1D
100
AcDbVertex
100
AcDb2dVertex
 10
350.6187133424643
 20
-209.7301647858034
 30
0.0
  0
SEQEND
  5
173
330
16E
100
AcDbEntity
  8
寸法
  6
Continuous
 62
     7
370
    18
390
1D
  0
CIRCLE
  5
175
330
36
100
AcDbEntity
  8
寸法
  6
Continuous
 62
     7
370
    18
390
1D
100
AcDbCircle
 10
365.6187133424643
 20
-193.7301647858034
 30
0.0
 40
7.500000000000025
  0
CIRCLE
  5
176
330
36
100
AcDbEntity
  8
寸法
  6
Continuous
 62
     7
370
    18
390
1D
100
AcDbCircle
 10
365.6187133424643
 20
-145.7301647858035
 30
0.0
 40
7.500000000000003
  0
ENDBLK
  5
177
330
36
100
AcDbEntity
  8
寸法
390
1D
100
AcDbBlockEnd
  0
ENDSEC
  0
SECTION
  2
ENTITIES
  0
INSERT
  5
178
330
A
100
AcDbEntity
  8
寸法
 62
     7
390
1D
100
AcDbBlockReference
  2
グループ
 10
-365.6187133424643
 20
-39.26983521419655
 30
0.0
  0
INSERT
  5
179
330
A
100
AcDbEntity
  8
寸法
 62
     7
390
1D
100
AcDbBlockReference
  2
グループ-1
 10
-365.6187133424643
 20
-39.26983521419655
 30
0.0
  0
INSERT
  5
17A
330
A
100
AcDbEntity
  8
寸法
 62
     7
390
1D
100
AcDbBlockReference
  2
グループ-2
 10
-365.6187133424643
 20
-39.26983521419655
 30
0.0
  0
INSERT
  5
17B
330
A
100
AcDbEntity
  8
寸法
 62
     7
390
1D
100
AcDbBlockReference
  2
グループ-3
 10
-365.6187133424643
 20
-39.26983521419655
 30
0.0
  0
POLYLINE
  5
17C
102
{ACAD_REACTORS
330
183
102
}
330
A
100
AcDbEntity
  8
寸法
  6
Continuous
 62
     7
370
    18
390
1D
100
AcDb2dPolyline
 66
     1
 10
0.0
 20
0.0
 30
0.0
 70
     1
 75
     5
  0
VERTEX
  5
17D
330
17C
100
AcDbEntity
  8
寸法
  6
Continuous
 62
     7
370
    18
390
1D
100
AcDbVertex
100
AcDb2dVertex
 10
-525.0000000000023
 20
250.9999999999986
 30
0.0
  0
VERTEX
  5
17E
330
17C
100
AcDbEntity
  8
寸法
  6
Continuous
 62
     7
370
    18
390
1D
100
AcDbVertex
100
AcDb2dVertex
 10
-375.0000000000022
 20
250.9999999999986
 30
0.0
  0
VERTEX
  5
17F
330
17C
100
AcDbEntity
  8
寸法
  6
Continuous
 62
     7
370
    18
390
1D
100
AcDbVertex
100
AcDb2dVertex
 10
-375.0000000000022
 20
238.9999999999986
 30
0.0
  0
VERTEX
  5
180
330
17C
100
AcDbEntity
  8
寸法
  6
Continuous
 62
     7
370
    18
390
1D
100
AcDbVertex
100
AcDb2dVertex
 10
-525.0000000000023
 20
238.9999999999986
 30
0.0
  0
SEQEND
  5
181
330
17C
100
AcDbEntity
  8
寸法
  6
Continuous
 62
     7
370
    18
390
1D
  0
HATCH
  5
183
330
A
100
AcDbEntity
  8
寸法
  6
Continuous
 62
   254
370
     0
390
1D
100
AcDbHatch
 10
0.0
 20
0.0
 30
0.0
210
0.0
220
0.0
230
1.0
  2
SOLID
 70
     1
 71
     1
 91
        1
 92
        1
 93
        4
 72
     1
 10
-525.0000000000023
 20
250.9999999999986
 11
-375.0000000000022
 21
250.9999999999986
 72
     1
 10
-375.0000000000022
 20
250.9999999999986
 11
-375.0000000000022
 21
238.9999999999986
 72
     1
 10
-375.0000000000022
 20
238.9999999999986
 11
-525.0000000000023
 21
238.9999999999986
 72
     1
 10
-525.0000000000023
 20
238.9999999999986
 11
-525.0000000000023
 21
250.9999999999986
 97
        1
330
17C
 75
     0
 76
     1
 98
        1
 10
0.0
 20
0.0
  0
POLYLINE
  5
184
102
{ACAD_REACTORS
330
18B
102
}
330
A
100
AcDbEntity
  8
寸法
  6
Continuous
 62
     7
370
    18
390
1D
100
AcDb2dPolyline
 66
     1
 10
0.0
 20
0.0
 30
0.0
 70
     1
 75
     5
  0
VERTEX
  5
185
330
184
100
AcDbEntity
  8
寸法
  6
Continuous
 62
     7
370
    18
390
1D
100
AcDbVertex
100
AcDb2dVertex
 10
-525.0000000000023
 20
-238.5000000000014
 30
0.0
  0
VERTEX
  5
186
330
184
100
AcDbEntity
  8
寸法
  6
Continuous
 62
     7
370
    18
390
1D
100
AcDbVertex
100
AcDb2dVertex
 10
-375.0000000000022
 20
-238.5000000000014
 30
0.0
  0
VERTEX
  5
187
330
184
100
AcDbEntity
  8
寸法
  6
Continuous
 62
     7
370
    18
390
1D
100
AcDbVertex
100
AcDb2dVertex
 10
-375.0000000000022
 20
-250.5000000000014
 30
0.0
  0
VERTEX
  5
188
330
184
100
AcDbEntity
  8
寸法
  6
Continuous
 62
     7
370
    18
390
1D
100
AcDbVertex
100
AcDb2dVertex
 10
-525.0000000000023
 20
-250.5000000000014
 30
0.0
  0
SEQEND
  5
189
330
184
100
AcDbEntity
  8
寸法
  6
Continuous
 62
     7
370
    18
390
1D
  0
HATCH
  5
18B
330
A
100
AcDbEntity
  8
寸法
  6
Continuous
 62
   254
370
     0
390
1D
100
AcDbHatch
 10
0.0
 20
0.0
 30
0.0
210
0.0
220
0.0
230
1.0
  2
SOLID
 70
     1
 71
     1
 91
        1
 92
        1
 93
        4
 72
     1
 10
-525.0000000000023
 20
-238.5000000000014
 11
-375.0000000000022
 21
-238.5000000000014
 72
     1
 10
-375.0000000000022
 20
-238.5000000000014
 11
-375.0000000000022
 21
-250.5000000000014
 72
     1
 10
-375.0000000000022
 20
-250.5000000000014
 11
-525.0000000000023
 21
-250.5000000000014
 72
     1
 10
-525.0000000000023
 20
-250.5000000000014
 11
-525.0000000000023
 21
-238.5000000000014
 97
        1
330
184
 75
     0
 76
     1
 98
        1
 10
0.0
 20
0.0
  0
CIRCLE
  5
18C
330
A
100
AcDbEntity
  8
一般
  6
Continuous
 62
     7
370
    18
390
1D
100
AcDbCircle
 10
-900.0000000000027
 20
0.0000000000014637
 30
0.0
 40
132.4999999999993
  0
ARC
  5
18D
330
A
100
AcDbEntity
  8
一般
  6
Continuous
 62
     7
370
    18
390
1D
100
AcDbCircle
 10
-1078.69627786348
 20
47.88152334396706
 30
0.0
 40
9.499999999999911
100
AcDbArc
 50
255.0000000000011
 51
74.99999999999909
  0
LINE
  5
18E
330
A
100
AcDbEntity
  8
一般
  6
Continuous
 62
     7
370
    18
390
1D
100
AcDbLine
 10
-1081.155058791953
 20
38.70522799422095
 30
0.0
 11
-1095.425886102759
 21
42.52908464747532
 31
0.0
  0
LINE
  5
18F
330
A
100
AcDbEntity
  8
一般
  6
Continuous
 62
     7
370
    18
390
1D
100
AcDbLine
 10
-1076.237496935006
 20
57.05781869371313
 30
0.0
 11
-1090.508324245811
 21
60.88167534696743
 31
0.0
  0
ARC
  5
190
330
A
100
AcDbEntity
  8
一般
  6
Continuous
 62
     7
370
    18
390
1D
100
AcDbCircle
 10
-1078.696277863481
 20
-47.8815233439654
 30
0.0
 40
9.499999999999943
100
AcDbArc
 50
285.0000000000002
 51
104.9999999999989
  0
LINE
  5
191
330
A
100
AcDbEntity
  8
一般
  6
Continuous
 62
     7
370
    18
390
1D
100
AcDbLine
 10
-1076.237496935007
 20
-57.05781869371148
 30
0.0
 11
-1090.508324245813
 21
-60.88167534696612
 31
0.0
  0
LINE
  5
192
330
A
100
AcDbEntity
  8
一般
  6
Continuous
 62
     7
370
    18
390
1D
100
AcDbLine
 10
-1081.155058791955
 20
-38.70522799421929
 30
0.0
 11
-1095.425886102761
 21
-42.52908464747392
 31
0.0
  0
ARC
  5
193
330
A
100
AcDbEntity
  8
一般
  6
Continuous
 62
     7
370
    18
390
1D
100
AcDbCircle
 10
-1030.814754519515
 20
-130.8147545195108
 30
0.0
 40
9.499999999999996
100
AcDbArc
 50
315.0
 51
134.9999999999998
  0
LINE
  5
194
330
A
100
AcDbEntity
  8
一般
  6
Continuous
 62
     7
370
    18
390
1D
100
AcDbLine
 10
-1024.097240098243
 20
-137.532268940783
 30
0.0
 11
-1034.544210755794
 21
-147.9792395983346
 31
0.0
  0
LINE
  5
195
330
A
100
AcDbEntity
  8
一般
  6
Continuous
 62
     7
370
    18
390
1D
100
AcDbLine
 10
-1037.532268940787
 20
-124.0972400982385
 30
0.0
 11
-1047.979239598339
 21
-134.5442107557903
 31
0.0
  0
ARC
  5
196
330
A
100
AcDbEntity
  8
一般
  6
Continuous
 62
     7
370
    18
390
1D
100
AcDbCircle
 10
-947.8815233439688
 20
-178.6962778634778
 30
0.0
 40
9.500000000000107
100
AcDbArc
 50
345.0000000000007
 51
164.9999999999999
  0
LINE
  5
197
330
A
100
AcDbEntity
  8
一般
  6
Continuous
 62
     7
370
    18
390
1D
100
AcDbLine
 10
-938.7052279942225
 20
-181.1550587919516
 30
0.0
 11
-942.5290846474768
 21
-195.4258861027579
 31
0.0
  0
LINE
  5
198
330
A
100
AcDbEntity
  8
一般
  6
Continuous
 62
     7
370
    18
390
1D
100
AcDbLine
 10
-957.0578186937151
 20
-176.2374969350037
 30
0.0
 11
-960.8816753469695
 21
-190.5083242458099
 31
0.0
  0
ARC
  5
199
330
A
100
AcDbEntity
  8
一般
  6
Continuous
 62
     7
370
    18
390
1D
100
AcDbCircle
 10
-852.1184766560348
 20
-178.6962778634778
 30
0.0
 40
9.499999999999941
100
AcDbArc
 50
14.99999999999953
 51
195.0000000000001
  0
LINE
  5
19A
330
A
100
AcDbEntity
  8
一般
  6
Continuous
 62
     7
370
    18
390
1D
100
AcDbLine
 10
-842.9421813062886
 20
-176.2374969350039
 30
0.0
 11
-839.118324653034
 21
-190.5083242458099
 31
0.0
  0
LINE
  5
19B
330
A
100
AcDbEntity
  8
一般
  6
Continuous
 62
     7
370
    18
390
1D
100
AcDbLine
 10
-861.2947720057812
 20
-181.1550587919518
 30
0.0
 11
-857.4709153525264
 21
-195.4258861027576
 31
0.0
  0
ARC
  5
19C
330
A
100
AcDbEntity
  8
一般
  6
Continuous
 62
     7
370
    18
390
1D
100
AcDbCircle
 10
-769.1852454804896
 20
-130.8147545195116
 30
0.0
 40
9.499999999999957
100
AcDbArc
 50
45.00000000000025
 51
225.0
  0
LINE
  5
19D
330
A
100
AcDbEntity
  8
一般
  6
Continuous
 62
     7
370
    18
390
1D
100
AcDbLine
 10
-762.4677310592175
 20
-124.0972400982394
 30
0.0
 11
-752.0207604016662
 21
-134.5442107557907
 31
0.0
  0
LINE
  5
19E
330
A
100
AcDbEntity
  8
一般
  6
Continuous
 62
     7
370
    18
390
1D
100
AcDbLine
 10
-775.9027599017618
 20
-137.5322689407838
 30
0.0
 11
-765.4557892442106
 21
-147.9792395983351
 31
0.0
  0
ARC
  5
19F
330
A
100
AcDbEntity
  8
一般
  6
Continuous
 62
     7
370
    18
390
1D
100
AcDbCircle
 10
-721.3037221365241
 20
-47.88152334396705
 30
0.0
 40
9.499999999999984
100
AcDbArc
 50
75.00000000000018
 51
255.0000000000005
  0
LINE
  5
1A0
330
A
100
AcDbEntity
  8
一般
  6
Continuous
 62
     7
370
    18
390
1D
100
AcDbLine
 10
-718.8449412080502
 20
-38.70522799422091
 30
0.0
 11
-704.5741138972442
 21
-42.52908464747543
 31
0.0
  0
LINE
  5
1A1
330
A
100
AcDbEntity
  8
一般
  6
Continuous
 62
     7
370
    18
390
1D
100
AcDbLine
 10
-723.7625030649979
 20
-57.05781869371316
 30
0.0
 11
-709.4916757541919
 21
-60.88167534696774
 31
0.0
  0
ARC
  5
1A2
330
A
100
AcDbEntity
  8
一般
  6
Continuous
 62
     7
370
    18
390
1D
100
AcDbCircle
 10
-721.3037221365253
 20
47.8815233439655
 30
0.0
 40
9.500000000000151
100
AcDbArc
 50
105.0000000000006
 51
285.0000000000001
  0
LINE
  5
1A3
330
A
100
AcDbEntity
  8
一般
  6
Continuous
 62
     7
370
    18
390
1D
100
AcDbLine
 10
-723.7625030649994
 20
57.05781869371177
 30
0.0
 11
-709.4916757541931
 21
60.88167534696615
 31
0.0
  0
LINE
  5
1A4
330
A
100
AcDbEntity
  8
一般
  6
Continuous
 62
     7
370
    18
390
1D
100
AcDbLine
 10
-718.8449412080513
 20
38.70522799421933
 30
0.0
 11
-704.5741138972451
 21
42.52908464747372
 31
0.0
  0
ARC
  5
1A5
330
A
100
AcDbEntity
  8
一般
  6
Continuous
 62
     7
370
    18
390
1D
100
AcDbCircle
 10
-769.1852454804925
 20
130.8147545195116
 30
0.0
 40
9.500000000000016
100
AcDbArc
 50
134.9999999999999
 51
315.0000000000001
  0
LINE
  5
1A6
330
A
100
AcDbEntity
  8
一般
  6
Continuous
 62
     7
370
    18
390
1D
100
AcDbLine
 10
-775.9027599017647
 20
137.5322689407838
 30
0.0
 11
-765.4557892442134
 21
147.9792395983351
 31
0.0
  0
LINE
  5
1A7
330
A
100
AcDbEntity
  8
一般
  6
Continuous
 62
     7
370
    18
390
1D
100
AcDbLine
 10
-762.4677310592203
 20
124.0972400982394
 30
0.0
 11
-752.020760401669
 21
134.5442107557907
 31
0.0
  0
ARC
  5
1A8
330
A
100
AcDbEntity
  8
一般
  6
Continuous
 62
     7
370
    18
390
1D
100
AcDbCircle
 10
-852.1184766560375
 20
178.6962778634781
 30
0.0
 40
9.499999999999792
100
AcDbArc
 50
164.9999999999999
 51
345.0000000000007
  0
LINE
  5
1A9
330
A
100
AcDbEntity
  8
一般
  6
Continuous
 62
     7
370
    18
390
1D
100
AcDbLine
 10
-861.2947720057834
 20
181.155058791952
 30
0.0
 11
-857.4709153525291
 21
195.4258861027577
 31
0.0
  0
LINE
  5
1AA
330
A
100
AcDbEntity
  8
一般
  6
Continuous
 62
     7
370
    18
390
1D
100
AcDbLine
 10
-842.9421813062914
 20
176.2374969350043
 30
0.0
 11
-839.1183246530369
 21
190.5083242458101
 31
0.0
  0
ARC
  5
1AB
330
A
100
AcDbEntity
  8
一般
  6
Continuous
 62
     7
370
    18
390
1D
100
AcDbCircle
 10
-947.881523343969
 20
178.6962778634778
 30
0.0
 40
9.499999999999527
100
AcDbArc
 50
194.9999999999995
 51
15.00000000000074
  0
LINE
  5
1AC
330
A
100
AcDbEntity
  8
一般
  6
Continuous
 62
     7
370
    18
390
1D
100
AcDbLine
 10
-957.0578186937147
 20
176.237496935004
 30
0.0
 11
-960.881675346969
 21
190.5083242458097
 31
0.0
  0
LINE
  5
1AD
330
A
100
AcDbEntity
  8
一般
  6
Continuous
 62
     7
370
    18
390
1D
100
AcDbLine
 10
-938.7052279942227
 20
181.1550587919519
 30
0.0
 11
-942.529084647477
 21
195.4258861027575
 31
0.0
  0
ARC
  5
1AE
330
A
100
AcDbEntity
  8
一般
  6
Continuous
 62
     7
370
    18
390
1D
100
AcDbCircle
 10
-1030.814754519513
 20
130.8147545195117
 30
0.0
 40
9.499999999999917
100
AcDbArc
 50
225.0000000000005
 51
45.0
  0
LINE
  5
1AF
330
A
100
AcDbEntity
  8
一般
  6
Continuous
 62
     7
370
    18
390
1D
100
AcDbLine
 10
-1037.532268940785
 20
124.0972400982395
 30
0.0
 11
-1047.979239598337
 21
134.5442107557908
 31
0.0
  0
LINE
  5
1B0
330
A
100
AcDbEntity
  8
一般
  6
Continuous
 62
     7
370
    18
390
1D
100
AcDbLine
 10
-1024.097240098241
 20
137.5322689407839
 30
0.0
 11
-1034.544210755792
 21
147.9792395983352
 31
0.0
  0
ARC
  5
1B1
330
A
100
AcDbEntity
  8
一般
  6
Continuous
 62
     7
370
    18
390
1D
100
AcDbCircle
 10
-900.0000000000027
 20
0.0000000000014637
 30
0.0
 40
199.9999999999984
100
AcDbArc
 50
137.7225739833762
 51
162.277426016624
  0
ARC
  5
1B2
330
A
100
AcDbEntity
  8
一般
  6
Continuous
 62
     7
370
    18
390
1D
100
AcDbCircle
 10
-900.0000000000027
 20
0.0000000000014637
 30
0.0
 40
199.9999999999989
100
AcDbArc
 50
167.7225739833763
 51
192.277426016624
  0
ARC
  5
1B3
330
A
100
AcDbEntity
  8
一般
  6
Continuous
 62
     7
370
    18
390
1D
100
AcDbCircle
 10
-900.0000000000027
 20
0.0000000000014637
 30
0.0
 40
200.000000000001
100
AcDbArc
 50
197.7225739833762
 51
222.277426016624
  0
ARC
  5
1B4
330
A
100
AcDbEntity
  8
一般
  6
Continuous
 62
     7
370
    18
390
1D
100
AcDbCircle
 10
-900.0000000000027
 20
0.0000000000014637
 30
0.0
 40
200.0000000000016
100
AcDbArc
 50
227.722573983376
 51
252.277426016624
  0
ARC
  5
1B5
330
A
100
AcDbEntity
  8
一般
  6
Continuous
 62
     7
370
    18
390
1D
100
AcDbCircle
 10
-900.0000000000027
 20
0.0000000000014637
 30
0.0
 40
200.0000000000017
100
AcDbArc
 50
257.7225739833763
 51
282.2774260166242
  0
ARC
  5
1B6
330
A
100
AcDbEntity
  8
一般
  6
Continuous
 62
     7
370
    18
390
1D
100
AcDbCircle
 10
-900.0000000000027
 20
0.0000000000014637
 30
0.0
 40
200.0000000000021
100
AcDbArc
 50
287.7225739833764
 51
312.277426016624
  0
ARC
  5
1B7
330
A
100
AcDbEntity
  8
一般
  6
Continuous
 62
     7
370
    18
390
1D
100
AcDbCircle
 10
-900.0000000000027
 20
0.0000000000014637
 30
0.0
 40
200.0000000000022
100
AcDbArc
 50
317.7225739833761
 51
342.2774260166233
  0
ARC
  5
1B8
330
A
100
AcDbEntity
  8
一般
  6
Continuous
 62
     7
370
    18
390
1D
100
AcDbCircle
 10
-900.0000000000027
 20
0.0000000000014637
 30
0.0
 40
200.0000000000014
100
AcDbArc
 50
347.7225739833754
 51
12.27742601662322
  0
ARC
  5
1B9
330
A
100
AcDbEntity
  8
一般
  6
Continuous
 62
     7
370
    18
390
1D
100
AcDbCircle
 10
-900.0000000000027
 20
0.0000000000014637
 30
0.0
 40
199.9999999999993
100
AcDbArc
 50
17.72257398337552
 51
42.27742601662382
  0
ARC
  5
1BA
330
A
100
AcDbEntity
  8
一般
  6
Continuous
 62
     7
370
    18
390
1D
100
AcDbCircle
 10
-900.0000000000027
 20
0.0000000000014637
 30
0.0
 40
199.9999999999982
100
AcDbArc
 50
47.72257398337615
 51
72.27742601662408
  0
ARC
  5
1BB
330
A
100
AcDbEntity
  8
一般
  6
Continuous
 62
     7
370
    18
390
1D
100
AcDbCircle
 10
-900.0000000000027
 20
0.0000000000014637
 30
0.0
 40
199.9999999999987
100
AcDbArc
 50
77.72257398337624
 51
102.2774260166239
  0
ARC
  5
1BC
330
A
100
AcDbEntity
  8
一般
  6
Continuous
 62
     7
370
    18
390
1D
100
AcDbCircle
 10
-900.0000000000027
 20
0.0000000000014637
 30
0.0
 40
199.9999999999985
100
AcDbArc
 50
107.7225739833761
 51
132.2774260166238
  0
CIRCLE
  5
1BD
330
A
100
AcDbEntity
  8
寸法
  6
Continuous
 62
     7
370
    18
390
1D
100
AcDbCircle
 10
-900.0000000000027
 20
0.0000000000014637
 30
0.0
 40
162.5000000000003
  0
CIRCLE
  5
1BE
330
A
100
AcDbEntity
  8
寸法
  6
Continuous
 62
     7
370
    18
390
1D
100
AcDbCircle
 10
-900.0000000000027
 20
0.0000000000014637
 30
0.0
 40
169.5000000000002
  0
CIRCLE
  5
1BF
330
A
100
AcDbEntity
  8
寸法
  6
Continuous
 62
     7
370
    18
390
1D
100
AcDbCircle
 10
-1085.000000000003
 20
0.0000000000014779
 30
0.0
 40
6.000000000000004
  0
CIRCLE
  5
1C0
330
A
100
AcDbEntity
  8
寸法
  6
Continuous
 62
     7
370
    18
390
1D
100
AcDbCircle
 10
-900.0000000000027
 20
-184.9999999999986
 30
0.0
 40
6.000000000000004
  0
CIRCLE
  5
1C1
330
A
100
AcDbEntity
  8
寸法
  6
Continuous
 62
     7
370
    18
390
1D
100
AcDbCircle
 10
-715.0000000000027
 20
0.0000000000014211
 30
0.0
 40
6.000000000000004
  0
CIRCLE
  5
1C2
330
A
100
AcDbEntity
  8
寸法
  6
Continuous
 62
     7
370
    18
390
1D
100
AcDbCircle
 10
-900.0000000000027
 20
185.0000000000014
 30
0.0
 40
6.000000000000004
  0
POLYLINE
  5
1C3
330
A
100
AcDbEntity
  8
一般
  6
Continuous
 62
     7
370
    18
390
1D
100
AcDb2dPolyline
 66
     1
 10
0.0
 20
0.0
 30
0.0
 70
     1
 75
     5
  0
VERTEX
  5
1C4
330
1C3
100
AcDbEntity
  8
一般
  6
Continuous
 62
     7
370
    18
390
1D
100
AcDbVertex
100
AcDb2dVertex
 10
-522.5000000000024
 20
199.9999999999991
 30
0.0
  0
VERTEX
  5
1C5
330
1C3
100
AcDbEntity
  8
一般
  6
Continuous
 62
     7
370
    18
390
1D
100
AcDbVertex
100
AcDb2dVertex
 10
-506.5000000000023
 20
199.9999999999991
 30
0.0
  0
VERTEX
  5
1C6
330
1C3
100
AcDbEntity
  8
一般
  6
Continuous
 62
     7
370
    18
390
1D
100
AcDbVertex
100
AcDb2dVertex
 10
-506.5000000000023
 20
-200.0000000000013
 30
0.0
  0
VERTEX
  5
1C7
330
1C3
100
AcDbEntity
  8
一般
  6
Continuous
 62
     7
370
    18
390
1D
100
AcDbVertex
100
AcDb2dVertex
 10
-522.5000000000024
 20
-200.0000000000013
 30
0.0
  0
SEQEND
  5
1C8
330
1C3
100
AcDbEntity
  8
一般
  6
Continuous
 62
     7
370
    18
390
1D
  0
POLYLINE
  5
1CA
330
A
100
AcDbEntity
  8
一般
  6
Continuous
 62
     7
370
    18
390
1D
100
AcDb2dPolyline
 66
     1
 10
0.0
 20
0.0
 30
0.0
 70
     1
 75
     5
  0
VERTEX
  5
1CB
330
1CA
100
AcDbEntity
  8
一般
  6
Continuous
 62
     7
370
    18
390
1D
100
AcDbVertex
100
AcDb2dVertex
 10
-522.5000000000024
 20
190.9999999999991
 30
0.0
  0
VERTEX
  5
1CC
330
1CA
100
AcDbEntity
  8
一般
  6
Continuous
 62
     7
370
    18
390
1D
100
AcDbVertex
100
AcDb2dVertex
 10
-506.5000000000023
 20
190.9999999999991
 30
0.0
  0
VERTEX
  5
1CD
330
1CA
100
AcDbEntity
  8
一般
  6
Continuous
 62
     7
370
    18
390
1D
100
AcDbVertex
100
AcDb2dVertex
 10
-506.5000000000023
 20
178.9999999999991
 30
0.0
  0
VERTEX
  5
1CE
330
1CA
100
AcDbEntity
  8
一般
  6
Continuous
 62
     7
370
    18
390
1D
100
AcDbVertex
100
AcDb2dVertex
 10
-522.5000000000024
 20
178.9999999999991
 30
0.0
  0
SEQEND
  5
1CF
330
1CA
100
AcDbEntity
  8
一般
  6
Continuous
 62
     7
370
    18
390
1D
  0
POLYLINE
  5
1D1
330
A
100
AcDbEntity
  8
一般
  6
Continuous
 62
     7
370
    18
390
1D
100
AcDb2dPolyline
 66
     1
 10
0.0
 20
0.0
 30
0.0
 70
     1
 75
     5
  0
VERTEX
  5
1D2
330
1D1
100
AcDbEntity
  8
一般
  6
Continuous
 62
     7
370
    18
390
1D
100
AcDbVertex
100
AcDb2dVertex
 10
-522.5000000000024
 20
-179.0000000000013
 30
0.0
  0
VERTEX
  5
1D3
330
1D1
100
AcDbEntity
  8
一般
  6
Continuous
 62
     7
370
    18
390
1D
100
AcDbVertex
100
AcDb2dVertex
 10
-506.5000000000023
 20
-179.0000000000013
 30
0.0
  0
VERTEX
  5
1D4
330
1D1
100
AcDbEntity
  8
一般
  6
Continuous
 62
     7
370
    18
390
1D
100
AcDbVertex
100
AcDb2dVertex
 10
-506.5000000000023
 20
-191.0000000000013
 30
0.0
  0
VERTEX
  5
1D5
330
1D1
100
AcDbEntity
  8
一般
  6
Continuous
 62
     7
370
    18
390
1D
100
AcDbVertex
100
AcDb2dVertex
 10
-522.5000000000024
 20
-191.0000000000013
 30
0.0
  0
SEQEND
  5
1D6
330
1D1
100
AcDbEntity
  8
一般
  6
Continuous
 62
     7
370
    18
390
1D
  0
POLYLINE
  5
1D8
330
A
100
AcDbEntity
  8
一般
  6
Continuous
 62
     7
370
    18
390
1D
100
AcDb2dPolyline
 66
     1
 10
0.0
 20
0.0
 30
0.0
 70
     1
 75
     5
  0
VERTEX
  5
1D9
330
1D8
100
AcDbEntity
  8
一般
  6
Continuous
 62
     7
370
    18
390
1D
100
AcDbVertex
100
AcDb2dVertex
 10
-506.5000000000023
 20
132.4999999999991
 30
0.0
  0
VERTEX
  5
1DA
330
1D8
100
AcDbEntity
  8
一般
  6
Continuous
 62
     7
370
    18
390
1D
100
AcDbVertex
100
AcDb2dVertex
 10
-393.5000000000026
 20
132.4999999999991
 30
0.0
  0
VERTEX
  5
1DB
330
1D8
100
AcDbEntity
  8
一般
  6
Continuous
 62
     7
370
    18
390
1D
100
AcDbVertex
100
AcDb2dVertex
 10
-393.5000000000026
 20
-132.5000000000014
 30
0.0
  0
VERTEX
  5
1DC
330
1D8
100
AcDbEntity
  8
一般
  6
Continuous
 62
     7
370
    18
390
1D
100
AcDbVertex
100
AcDb2dVertex
 10
-506.5000000000023
 20
-132.5000000000014
 30
0.0
  0
SEQEND
  5
1DD
330
1D8
100
AcDbEntity
  8
一般
  6
Continuous
 62
     7
370
    18
390
1D
  0
POLYLINE
  5
1DF
330
A
100
AcDbEntity
  8
一般
  6
Continuous
 62
     7
370
    18
390
1D
100
AcDb2dPolyline
 66
     1
 10
0.0
 20
0.0
 30
0.0
 70
     1
 75
     5
  0
VERTEX
  5
1E0
330
1DF
100
AcDbEntity
  8
一般
  6
Continuous
 62
     7
370
    18
390
1D
100
AcDbVertex
100
AcDb2dVertex
 10
-393.5000000000026
 20
199.9999999999991
 30
0.0
  0
VERTEX
  5
1E1
330
1DF
100
AcDbEntity
  8
一般
  6
Continuous
 62
     7
370
    18
390
1D
100
AcDbVertex
100
AcDb2dVertex
 10
-377.5000000000028
 20
199.9999999999991
 30
0.0
  0
VERTEX
  5
1E2
330
1DF
100
AcDbEntity
  8
一般
  6
Continuous
 62
     7
370
    18
390
1D
100
AcDbVertex
100
AcDb2dVertex
 10
-377.5000000000028
 20
-200.0000000000013
 30
0.0
  0
VERTEX
  5
1E3
330
1DF
100
AcDbEntity
  8
一般
  6
Continuous
 62
     7
370
    18
390
1D
100
AcDbVertex
100
AcDb2dVertex
 10
-393.5000000000026
 20
-200.0000000000013
 30
0.0
  0
SEQEND
  5
1E4
330
1DF
100
AcDbEntity
  8
一般
  6
Continuous
 62
     7
370
    18
390
1D
  0
POLYLINE
  5
1E6
330
A
100
AcDbEntity
  8
一般
  6
Continuous
 62
     7
370
    18
390
1D
100
AcDb2dPolyline
 66
     1
 10
0.0
 20
0.0
 30
0.0
 70
     1
 75
     5
  0
VERTEX
  5
1E7
330
1E6
100
AcDbEntity
  8
一般
  6
Continuous
 62
     7
370
    18
390
1D
100
AcDbVertex
100
AcDb2dVertex
 10
-393.5000000000026
 20
190.9999999999991
 30
0.0
  0
VERTEX
  5
1E8
330
1E6
100
AcDbEntity
  8
一般
  6
Continuous
 62
     7
370
    18
390
1D
100
AcDbVertex
100
AcDb2dVertex
 10
-377.5000000000028
 20
190.9999999999991
 30
0.0
  0
VERTEX
  5
1E9
330
1E6
100
AcDbEntity
  8
一般
  6
Continuous
 62
     7
370
    18
390
1D
100
AcDbVertex
100
AcDb2dVertex
 10
-377.5000000000028
 20
178.9999999999991
 30
0.0
  0
VERTEX
  5
1EA
330
1E6
100
AcDbEntity
  8
一般
  6
Continuous
 62
     7
370
    18
390
1D
100
AcDbVertex
100
AcDb2dVertex
 10
-393.5000000000026
 20
178.9999999999991
 30
0.0
  0
SEQEND
  5
1EB
330
1E6
100
AcDbEntity
  8
一般
  6
Continuous
 62
     7
370
    18
390
1D
  0
POLYLINE
  5
1ED
330
A
100
AcDbEntity
  8
一般
  6
Continuous
 62
     7
370
    18
390
1D
100
AcDb2dPolyline
 66
     1
 10
0.0
 20
0.0
 30
0.0
 70
     1
 75
     5
  0
VERTEX
  5
1EE
330
1ED
100
AcDbEntity
  8
一般
  6
Continuous
 62
     7
370
    18
390
1D
100
AcDbVertex
100
AcDb2dVertex
 10
-393.5000000000026
 20
-179.0000000000013
 30
0.0
  0
VERTEX
  5
1EF
330
1ED
100
AcDbEntity
  8
一般
  6
Continuous
 62
     7
370
    18
390
1D
100
AcDbVertex
100
AcDb2dVertex
 10
-377.5000000000028
 20
-179.0000000000013
 30
0.0
  0
VERTEX
  5
1F0
330
1ED
100
AcDbEntity
  8
一般
  6
Continuous
 62
     7
370
    18
390
1D
100
AcDbVertex
100
AcDb2dVertex
 10
-377.5000000000028
 20
-191.0000000000013
 30
0.0
  0
VERTEX
  5
1F1
330
1ED
100
AcDbEntity
  8
一般
  6
Continuous
 62
     7
370
    18
390
1D
100
AcDbVertex
100
AcDb2dVertex
 10
-393.5000000000026
 20
-191.0000000000013
 30
0.0
  0
SEQEND
  5
1F2
330
1ED
100
AcDbEntity
  8
一般
  6
Continuous
 62
     7
370
    18
390
1D
  0
LINE
  5
1F4
330
A
100
AcDbEntity
  8
一般
  6
Continuous
 62
     7
370
    18
390
1D
100
AcDbLine
 10
-450.0000000000022
 20
132.4999999999991
 30
0.0
 11
-450.0000000000022
 21
-132.5000000000014
 31
0.0
  0
LINE
  5
1F5
330
A
100
AcDbEntity
  8
一般
  6
Continuous
 62
     7
370
    18
390
1D
100
AcDbLine
 10
-440.0000000000023
 20
132.4999999999991
 30
0.0
 11
-440.0000000000023
 21
-132.5000000000014
 31
0.0
  0
LINE
  5
1F6
330
A
100
AcDbEntity
  8
一般
  6
Continuous
 62
     7
370
    18
390
1D
100
AcDbLine
 10
-430.0000000000023
 20
132.4999999999991
 30
0.0
 11
-430.0000000000023
 21
-132.5000000000014
 31
0.0
  0
LINE
  5
1F7
330
A
100
AcDbEntity
  8
一般
  6
Continuous
 62
     7
370
    18
390
1D
100
AcDbLine
 10
-420.0000000000024
 20
132.4999999999991
 30
0.0
 11
-420.0000000000024
 21
-132.5000000000014
 31
0.0
  0
LINE
  5
1F8
330
A
100
AcDbEntity
  8
一般
  6
Continuous
 62
     7
370
    18
390
1D
100
AcDbLine
 10
-410.0000000000025
 20
132.4999999999991
 30
0.0
 11
-410.0000000000025
 21
-132.5000000000014
 31
0.0
  0
LINE
  5
1F9
330
A
100
AcDbEntity
  8
一般
  6
Continuous
 62
     7
370
    18
390
1D
100
AcDbLine
 10
-490.0000000000022
 20
132.4999999999991
 30
0.0
 11
-490.0000000000022
 21
-132.5000000000014
 31
0.0
  0
LINE
  5
1FA
330
A
100
AcDbEntity
  8
一般
  6
Continuous
 62
     7
370
    18
390
1D
100
AcDbLine
 10
-480.0000000000022
 20
132.4999999999991
 30
0.0
 11
-480.0000000000022
 21
-132.5000000000014
 31
0.0
  0
LINE
  5
1FB
330
A
100
AcDbEntity
  8
一般
  6
Continuous
 62
     7
370
    18
390
1D
100
AcDbLine
 10
-470.0000000000022
 20
132.4999999999991
 30
0.0
 11
-470.0000000000022
 21
-132.5000000000014
 31
0.0
  0
LINE
  5
1FC
330
A
100
AcDbEntity
  8
一般
  6
Continuous
 62
     7
370
    18
390
1D
100
AcDbLine
 10
-460.0000000000022
 20
132.4999999999991
 30
0.0
 11
-460.0000000000022
 21
-132.5000000000014
 31
0.0
  0
CIRCLE
  5
1FD
330
A
100
AcDbEntity
  8
一般
  6
Continuous
 62
     7
370
    18
390
1D
100
AcDbCircle
 10
0.0
 20
0.0
 30
0.0
 40
132.5000000000005
  0
ARC
  5
1FE
330
A
100
AcDbEntity
  8
一般
  6
Continuous
 62
     7
370
    18
390
1D
100
AcDbCircle
 10
-130.8147545195113
 20
130.8147545195116
 30
0.0
 40
9.500000000000057
100
AcDbArc
 50
224.9999999999996
 51
44.99999999999963
  0
LINE
  5
1FF
330
A
100
AcDbEntity
  8
一般
  6
Continuous
 62
     7
370
    18
390
1D
100
AcDbLine
 10
-137.5322689407836
 20
124.0972400982394
 30
0.0
 11
-147.9792395983349
 21
134.5442107557907
 31
0.0
  0
LINE
  5
200
330
A
100
AcDbEntity
  8
一般
  6
Continuous
 62
     7
370
    18
390
1D
100
AcDbLine
 10
-124.0972400982391
 20
137.5322689407836
 30
0.0
 11
-134.5442107557905
 21
147.979239598335
 31
0.0
  0
ARC
  5
201
330
A
100
AcDbEntity
  8
一般
  6
Continuous
 62
     7
370
    18
390
1D
100
AcDbCircle
 10
-178.6962778634792
 20
47.8815233439669
 30
0.0
 40
9.500000000000043
100
AcDbArc
 50
254.9999999999988
 51
74.99999999999898
  0
LINE
  5
202
330
A
100
AcDbEntity
  8
一般
  6
Continuous
 62
     7
370
    18
390
1D
100
AcDbLine
 10
-181.1550587919533
 20
38.70522799422076
 30
0.0
 11
-195.4258861027596
 21
42.52908464747514
 31
0.0
  0
LINE
  5
203
330
A
100
AcDbEntity
  8
一般
  6
Continuous
 62
     7
370
    18
390
1D
100
AcDbLine
 10
-176.2374969350051
 20
57.05781869371302
 30
0.0
 11
-190.5083242458113
 21
60.88167534696734
 31
0.0
  0
ARC
  5
204
330
A
100
AcDbEntity
  8
一般
  6
Continuous
 62
     7
370
    18
390
1D
100
AcDbCircle
 10
-178.6962778634797
 20
-47.88152334396692
 30
0.0
 40
9.500000000000123
100
AcDbArc
 50
284.9999999999999
 51
105.0
  0
LINE
  5
205
330
A
100
AcDbEntity
  8
一般
  6
Continuous
 62
     7
370
    18
390
1D
100
AcDbLine
 10
-176.2374969350058
 20
-57.05781869371319
 30
0.0
 11
-190.5083242458121
 21
-60.88167534696774
 31
0.0
  0
LINE
  5
206
330
A
100
AcDbEntity
  8
一般
  6
Continuous
 62
     7
370
    18
390
1D
100
AcDbLine
 10
-181.1550587919537
 20
-38.70522799422066
 30
0.0
 11
-195.42588610276
 21
-42.52908464747523
 31
0.0
  0
ARC
  5
207
330
A
100
AcDbEntity
  8
一般
  6
Continuous
 62
     7
370
    18
390
1D
100
AcDbCircle
 10
-130.8147545195123
 20
-130.8147545195127
 30
0.0
 40
9.500000000000227
100
AcDbArc
 50
315.0000000000003
 51
135.0000000000009
  0
LINE
  5
208
330
A
100
AcDbEntity
  8
一般
  6
Continuous
 62
     7
370
    18
390
1D
100
AcDbLine
 10
-124.0972400982399
 20
-137.532268940785
 30
0.0
 11
-134.5442107557917
 21
-147.9792395983366
 31
0.0
  0
LINE
  5
209
330
A
100
AcDbEntity
  8
一般
  6
Continuous
 62
     7
370
    18
390
1D
100
AcDbLine
 10
-137.5322689407847
 20
-124.0972400982405
 30
0.0
 11
-147.9792395983364
 21
-134.5442107557922
 31
0.0
  0
ARC
  5
20A
330
A
100
AcDbEntity
  8
一般
  6
Continuous
 62
     7
370
    18
390
1D
100
AcDbCircle
 10
-47.88152334396585
 20
-178.6962778634791
 30
0.0
 40
9.5
100
AcDbArc
 50
344.9999999999991
 51
165.0000000000001
  0
LINE
  5
20B
330
A
100
AcDbEntity
  8
一般
  6
Continuous
 62
     7
370
    18
390
1D
100
AcDbLine
 10
-38.70522799421974
 20
-181.1550587919532
 30
0.0
 11
-42.52908464747424
 21
-195.4258861027589
 31
0.0
  0
LINE
  5
20C
330
A
100
AcDbEntity
  8
一般
  6
Continuous
 62
     7
370
    18
390
1D
100
AcDbLine
 10
-57.05781869371214
 20
-176.2374969350051
 30
0.0
 11
-60.88167534696646
 21
-190.5083242458111
 31
0.0
  0
ARC
  5
20D
330
A
100
AcDbEntity
  8
一般
  6
Continuous
 62
     7
370
    18
390
1D
100
AcDbCircle
 10
47.88152334396676
 20
-178.6962778634792
 30
0.0
 40
9.50000000000002
100
AcDbArc
 50
14.99999999999994
 51
195.0000000000001
  0
LINE
  5
20E
330
A
100
AcDbEntity
  8
一般
  6
Continuous
 62
     7
370
    18
390
1D
100
AcDbLine
 10
57.05781869371293
 20
-176.2374969350053
 30
0.0
 11
60.88167534696726
 21
-190.5083242458108
 31
0.0
  0
LINE
  5
20F
330
A
100
AcDbEntity
  8
一般
  6
Continuous
 62
     7
370
    18
390
1D
100
AcDbLine
 10
38.70522799422071
 20
-181.1550587919531
 30
0.0
 11
42.52908464747503
 21
-195.4258861027587
 31
0.0
  0
ARC
  5
210
330
A
100
AcDbEntity
  8
一般
  6
Continuous
 62
     7
370
    18
390
1D
100
AcDbCircle
 10
130.814754519511
 20
-130.8147545195128
 30
0.0
 40
9.499999999999996
100
AcDbArc
 50
44.99999999999951
 51
225.0000000000002
  0
LINE
  5
211
330
A
100
AcDbEntity
  8
一般
  6
Continuous
 62
     7
370
    18
390
1D
100
AcDbLine
 10
137.5322689407832
 20
-124.0972400982407
 30
0.0
 11
147.9792395983346
 21
-134.5442107557922
 31
0.0
  0
LINE
  5
212
330
A
100
AcDbEntity
  8
一般
  6
Continuous
 62
     7
370
    18
390
1D
100
AcDbLine
 10
124.0972400982388
 20
-137.532268940785
 30
0.0
 11
134.5442107557902
 21
-147.9792395983366
 31
0.0
  0
ARC
  5
213
330
A
100
AcDbEntity
  8
一般
  6
Continuous
 62
     7
370
    18
390
1D
100
AcDbCircle
 10
178.6962778634767
 20
-47.88152334396798
 30
0.0
 40
9.500000000000123
100
AcDbArc
 50
75.00000000000006
 51
254.9999999999997
  0
LINE
  5
214
330
A
100
AcDbEntity
  8
一般
  6
Continuous
 62
     7
370
    18
390
1D
100
AcDbLine
 10
181.1550587919506
 20
-38.70522799422172
 30
0.0
 11
195.4258861027569
 21
-42.52908464747614
 31
0.0
  0
LINE
  5
215
330
A
100
AcDbEntity
  8
一般
  6
Continuous
 62
     7
370
    18
390
1D
100
AcDbLine
 10
176.2374969350027
 20
-57.05781869371404
 30
0.0
 11
190.5083242458091
 21
-60.88167534696861
 31
0.0
  0
ARC
  5
216
330
A
100
AcDbEntity
  8
一般
  6
Continuous
 62
     7
370
    18
390
1D
100
AcDbCircle
 10
178.6962778634767
 20
47.88152334396611
 30
0.0
 40
9.500000000000108
100
AcDbArc
 50
105.0
 51
285.0000000000013
  0
LINE
  5
217
330
A
100
AcDbEntity
  8
一般
  6
Continuous
 62
     7
370
    18
390
1D
100
AcDbLine
 10
176.2374969350027
 20
57.05781869371236
 30
0.0
 11
190.5083242458087
 21
60.88167534696677
 31
0.0
  0
LINE
  5
218
330
A
100
AcDbEntity
  8
一般
  6
Continuous
 62
     7
370
    18
390
1D
100
AcDbLine
 10
181.1550587919509
 20
38.70522799421985
 30
0.0
 11
195.4258861027566
 21
42.52908464747424
 31
0.0
  0
ARC
  5
219
330
A
100
AcDbEntity
  8
一般
  6
Continuous
 62
     7
370
    18
390
1D
100
AcDbCircle
 10
130.81475451951
 20
130.8147545195119
 30
0.0
 40
9.499999999999957
100
AcDbArc
 50
135.0000000000003
 51
315.0
  0
LINE
  5
21A
330
A
100
AcDbEntity
  8
一般
  6
Continuous
 62
     7
370
    18
390
1D
100
AcDbLine
 10
124.0972400982378
 20
137.532268940784
 30
0.0
 11
134.5442107557895
 21
147.9792395983355
 31
0.0
  0
LINE
  5
21B
330
A
100
AcDbEntity
  8
一般
  6
Continuous
 62
     7
370
    18
390
1D
100
AcDbLine
 10
137.5322689407822
 20
124.0972400982398
 30
0.0
 11
147.9792395983337
 21
134.5442107557913
 31
0.0
  0
ARC
  5
21C
330
A
100
AcDbEntity
  8
一般
  6
Continuous
 62
     7
370
    18
390
1D
100
AcDbCircle
 10
47.88152334396563
 20
178.6962778634777
 30
0.0
 40
9.499999999999806
100
AcDbArc
 50
164.9999999999995
 51
345.000000000001
  0
LINE
  5
21D
330
A
100
AcDbEntity
  8
一般
  6
Continuous
 62
     7
370
    18
390
1D
100
AcDbLine
 10
38.70522799421968
 20
181.1550587919517
 30
0.0
 11
42.52908464747418
 21
195.4258861027574
 31
0.0
  0
LINE
  5
21E
330
A
100
AcDbEntity
  8
一般
  6
Continuous
 62
     7
370
    18
390
1D
100
AcDbLine
 10
57.05781869371202
 20
176.2374969350038
 30
0.0
 11
60.88167534696623
 21
190.5083242458095
 31
0.0
  0
ARC
  5
21F
330
A
100
AcDbEntity
  8
一般
  6
Continuous
 62
     7
370
    18
390
1D
100
AcDbCircle
 10
-47.88152334396631
 20
178.6962778634776
 30
0.0
 40
9.499999999999917
100
AcDbArc
 50
195.0000000000003
 51
15.00000000000011
  0
LINE
  5
220
330
A
100
AcDbEntity
  8
一般
  6
Continuous
 62
     7
370
    18
390
1D
100
AcDbLine
 10
-57.05781869371236
 20
176.2374969350036
 30
0.0
 11
-60.8816753469668
 21
190.5083242458095
 31
0.0
  0
LINE
  5
221
330
A
100
AcDbEntity
  8
一般
  6
Continuous
 62
     7
370
    18
390
1D
100
AcDbLine
 10
-38.70522799422014
 20
181.1550587919515
 30
0.0
 11
-42.52908464747458
 21
195.4258861027574
 31
0.0
  0
ARC
  5
222
330
A
100
AcDbEntity
  8
一般
  6
Continuous
 62
     7
370
    18
390
1D
100
AcDbCircle
 10
0.0
 20
0.0
 30
0.0
 40
199.9999999999999
100
AcDbArc
 50
107.7225739833761
 51
132.2774260166238
  0
ARC
  5
223
330
A
100
AcDbEntity
  8
一般
  6
Continuous
 62
     7
370
    18
390
1D
100
AcDbCircle
 10
0.0
 20
0.0
 30
0.0
 40
200.0
100
AcDbArc
 50
137.722573983376
 51
162.2774260166239
  0
ARC
  5
224
330
A
100
AcDbEntity
  8
一般
  6
Continuous
 62
     7
370
    18
390
1D
100
AcDbCircle
 10
0.0
 20
0.0
 30
0.0
 40
200.0000000000022
100
AcDbArc
 50
167.7225739833761
 51
192.2774260166238
  0
ARC
  5
225
330
A
100
AcDbEntity
  8
一般
  6
Continuous
 62
     7
370
    18
390
1D
100
AcDbCircle
 10
0.0
 20
0.0
 30
0.0
 40
200.0000000000026
100
AcDbArc
 50
197.7225739833761
 51
222.2774260166239
  0
ARC
  5
226
330
A
100
AcDbEntity
  8
一般
  6
Continuous
 62
     7
370
    18
390
1D
100
AcDbCircle
 10
0.0
 20
0.0
 30
0.0
 40
200.000000000002
100
AcDbArc
 50
227.7225739833762
 51
252.2774260166242
  0
ARC
  5
227
330
A
100
AcDbEntity
  8
一般
  6
Continuous
 62
     7
370
    18
390
1D
100
AcDbCircle
 10
0.0
 20
0.0
 30
0.0
 40
200.0000000000013
100
AcDbArc
 50
257.7225739833763
 51
282.2774260166238
  0
ARC
  5
228
330
A
100
AcDbEntity
  8
一般
  6
Continuous
 62
     7
370
    18
390
1D
100
AcDbCircle
 10
0.0
 20
0.0
 30
0.0
 40
200.0000000000012
100
AcDbArc
 50
287.7225739833761
 51
312.2774260166235
  0
ARC
  5
229
330
A
100
AcDbEntity
  8
一般
  6
Continuous
 62
     7
370
    18
390
1D
100
AcDbCircle
 10
0.0
 20
0.0
 30
0.0
 40
200.0000000000007
100
AcDbArc
 50
317.7225739833756
 51
342.2774260166234
  0
ARC
  5
22A
330
A
100
AcDbEntity
  8
一般
  6
Continuous
 62
     7
370
    18
390
1D
100
AcDbCircle
 10
0.0
 20
0.0
 30
0.0
 40
199.9999999999997
100
AcDbArc
 50
347.7225739833758
 51
12.27742601662385
  0
ARC
  5
22B
330
A
100
AcDbEntity
  8
一般
  6
Continuous
 62
     7
370
    18
390
1D
100
AcDbCircle
 10
0.0
 20
0.0
 30
0.0
 40
199.9999999999991
100
AcDbArc
 50
17.72257398337617
 51
42.27742601662425
  0
ARC
  5
22C
330
A
100
AcDbEntity
  8
一般
  6
Continuous
 62
     7
370
    18
390
1D
100
AcDbCircle
 10
0.0
 20
0.0
 30
0.0
 40
199.9999999999998
100
AcDbArc
 50
47.72257398337638
 51
72.27742601662408
  0
ARC
  5
22D
330
A
100
AcDbEntity
  8
一般
  6
Continuous
 62
     7
370
    18
390
1D
100
AcDbCircle
 10
0.0
 20
0.0
 30
0.0
 40
199.9999999999998
100
AcDbArc
 50
77.72257398337628
 51
102.2774260166239
  0
CIRCLE
  5
22E
330
A
100
AcDbEntity
  8
寸法
  6
Continuous
 62
     7
370
    18
390
1D
100
AcDbCircle
 10
-185.0
 20
0.0
 30
0.0
 40
5.999999999999997
  0
CIRCLE
  5
22F
330
A
100
AcDbEntity
  8
寸法
  6
Continuous
 62
     7
370
    18
390
1D
100
AcDbCircle
 10
0.0
 20
-185.0
 30
0.0
 40
5.999999999999997
  0
CIRCLE
  5
230
330
A
100
AcDbEntity
  8
寸法
  6
Continuous
 62
     7
370
    18
390
1D
100
AcDbCircle
 10
185.0
 20
-0.0000000000000568
 30
0.0
 40
5.999999999999997
  0
CIRCLE
  5
231
330
A
100
AcDbEntity
  8
寸法
  6
Continuous
 62
     7
370
    18
390
1D
100
AcDbCircle
 10
0.0000000000000568
 20
185.0
 30
0.0
 40
5.999999999999997
  0
INSERT
  5
232
330
A
100
AcDbEntity
  8
寸法
 62
     7
390
1D
100
AcDbBlockReference
  2
Drawing Border - Universal
 10
-365.6187133424643
 20
-39.26983521419655
 30
0.0
  0
MTEXT
  5
233
330
A
100
AcDbEntity
  8
寸法
 62
     7
390
1D
100
AcDbMText
 10
-1271.016065702803
 20
524.9999999999989
 30
0.0
 40
31.30213758680556
 41
0.0
 71
     4
 72
     1
  1
L. VG300-VF300 ベローズ
  7
Calibri (bold)
 73
     1
 44
1.159596784673362
  0
INSERT
  5
234
330
A
100
AcDbEntity
  8
寸法
 62
     7
390
1D
100
AcDbBlockReference
  2
グループ-5
 10
-365.6187133424643
 20
-39.26983521419655
 30
0.0
  0
INSERT
  5
235
330
A
100
AcDbEntity
  8
寸法
 62
     7
390
1D
100
AcDbBlockReference
  2
グループ-6
 10
-365.6187133424643
 20
-39.26983521419655
 30
0.0
  0
INSERT
  5
236
330
A
100
AcDbEntity
  8
寸法
 62
     7
390
1D
100
AcDbBlockReference
  2
グループ-7
 10
-365.6187133424643
 20
-39.26983521419655
 30
0.0
  0
INSERT
  5
237
330
A
100
AcDbEntity
  8
寸法
 62
     7
390
1D
100
AcDbBlockReference
  2
グループ-8
 10
-365.6187133424643
 20
-39.26983521419655
 30
0.0
  0
INSERT
  5
238
330
A
100
AcDbEntity
  8
寸法
 62
     7
390
1D
100
AcDbBlockReference
  2
グループ-9
 10
-365.6187133424643
 20
-39.26983521419655
 30
0.0
  0
INSERT
  5
239
330
A
100
AcDbEntity
  8
寸法
 62
     7
390
1D
100
AcDbBlockReference
  2
グループ-10
 10
-365.6187133424643
 20
-39.26983521419655
 30
0.0
  0
INSERT
  5
23A
330
A
100
AcDbEntity
  8
寸法
 62
     7
390
1D
100
AcDbBlockReference
  2
グループ-11
 10
-365.6187133424643
 20
-39.26983521419655
 30
0.0
  0
INSERT
  5
23B
330
A
100
AcDbEntity
  8
寸法
 62
     7
390
1D
100
AcDbBlockReference
  2
グループ-12
 10
-365.6187133424643
 20
-39.26983521419655
 30
0.0
  0
INSERT
  5
23C
330
A
100
AcDbEntity
  8
寸法
 62
     7
390
1D
100
AcDbBlockReference
  2
グループ-13
 10
-365.6187133424643
 20
-39.26983521419655
 30
0.0
  0
INSERT
  5
23D
330
A
100
AcDbEntity
  8
寸法
 62
     7
390
1D
100
AcDbBlockReference
  2
グループ-14
 10
-365.6187133424643
 20
-39.26983521419655
 30
0.0
  0
INSERT
  5
23E
330
A
100
AcDbEntity
  8
寸法
 62
     7
390
1D
100
AcDbBlockReference
  2
グループ-15
 10
-365.6187133424643
 20
-39.26983521419655
 30
0.0
  0
DIMENSION
  5
23F
330
A
100
AcDbEntity
  8
寸法
  6
STYLE_01
 62
     7
370
    18
390
1D
100
AcDbDimension
  2
*D19
 10
479.9999999999977
 20
132.5000000000008
 30
0.0
 11
479.9999999999977
 21
0.0000000000014779
 31
0.0
 70
    32
 71
     5
 42
-1.0
  3
Arch
100
AcDbAlignedDimension
 13
-900.0000000000027
 23
-132.4999999999979
 33
0.0
 14
-900.0000000000027
 24
132.5000000000008
 34
0.0
 50
90.0
100
AcDbRotatedDimension
1001
ACAD
1000
DSTYLE
1002
{
1070
   279
1070
     2
1070
   340
1005
37
1070
   147
1040
7.9375
1002
}
  0
INSERT
  5
240
330
A
100
AcDbEntity
  8
寸法
 62
     7
390
1D
100
AcDbBlockReference
  2
グループ-16
 10
-365.6187133424643
 20
-39.26983521419655
 30
0.0
  0
ENDSEC
  0
SECTION
  2
OBJECTS
  0
DICTIONARY
  5
19
330
0
100
AcDbDictionary
281
     1
  3
ACAD_GROUP
350
1A
  3
ACAD_LAYOUT
350
1E
  3
ACAD_MLINESTYLE
350
1B
  3
ACAD_PLOTSETTINGS
350
22
  3
ACAD_PLOTSTYLENAME
350
1F
  3
ACAD_WIPEOUT_VARS
350
23
  0
DICTIONARY
  5
1A
102
{ACAD_REACTORS
330
19
102
}
330
19
100
AcDbDictionary
281
     1
  0
DICTIONARY
  5
1E
102
{ACAD_REACTORS
330
19
102
}
330
19
100
AcDbDictionary
281
     1
  3
Layout1
350
21
  3
Model
350
20
  0
DICTIONARY
  5
1B
102
{ACAD_REACTORS
330
19
102
}
330
19
100
AcDbDictionary
281
     1
  3
Standard
350
1C
  0
DICTIONARY
  5
22
102
{ACAD_REACTORS
330
19
102
}
330
19
100
AcDbDictionary
281
     1
  0
ACDBDICTIONARYWDFLT
  5
1F
102
{ACAD_REACTORS
330
19
102
}
330
19
100
AcDbDictionary
281
     1
  3
Normal
350
1D
100
AcDbDictionaryWithDefault
340
1D
  0
WIPEOUTVARIABLES
  5
23
330
19
100
AcDbWipeoutVariables
 70
     0
  0
LAYOUT
  5
21
102
{ACAD_REACTORS
330
1E
102
}
330
1E
100
AcDbPlotSettings
  1

  2

  4

  6

 40
0.0
 41
0.0
 42
0.0
 43
0.0
 44
0.0
 45
0.0
 46
0.0
 47
0.0
 48
0.0
 49
0.0
140
0.0
141
0.0
142
1.0
143
1.0
 70
     0
 72
     0
 73
     0
 74
     0
  7

 75
     0
 76
     0
 77
     2
 78
   300
147
1.0
148
0.0
149
0.0
100
AcDbLayout
  1
Layout1
 70
     0
 71
     0
 10
0.0
 20
0.0
 11
0.0
 21
0.0
 12
0.0
 22
0.0
 32
0.0
 14
0.0
 24
0.0
 34
0.0
 15
0.0
 25
0.0
 35
0.0
146
0.0
 13
0.0
 23
0.0
 33
0.0
 16
0.0
 26
0.0
 36
0.0
 17
0.0
 27
0.0
 37
0.0
 76
     0
330
B
  0
LAYOUT
  5
20
102
{ACAD_REACTORS
330
1E
102
}
330
1E
100
AcDbPlotSettings
  1

  2

  4

  6

 40
0.0
 41
0.0
 42
0.0
 43
0.0
 44
0.0
 45
0.0
 46
0.0
 47
0.0
 48
0.0
 49
0.0
140
0.0
141
0.0
142
1.0
143
1.0
 70
  1024
 72
     0
 73
     0
 74
     0
  7

 75
     0
 76
     0
 77
     2
 78
   300
147
1.0
148
0.0
149
0.0
100
AcDbLayout
  1
Model
 70
     0
 71
     0
 10
0.0
 20
0.0
 11
0.0
 21
0.0
 12
0.0
 22
0.0
 32
0.0
 14
0.0
 24
0.0
 34
0.0
 15
0.0
 25
0.0
 35
0.0
146
0.0
 13
0.0
 23
0.0
 33
0.0
 16
0.0
 26
0.0
 36
0.0
 17
0.0
 27
0.0
 37
0.0
 76
     0
330
A
  0
MLINESTYLE
  5
1C
102
{ACAD_REACTORS
330
1B
102
}
330
1B
100
AcDbMlineStyle
  2
Standard
 70
     0
  3

 62
     0
 51
90.0
 52
90.0
 71
     2
 49
0.5
 62
   256
  6
BYLAYER
 49
-0.5
 62
   256
  6
BYLAYER
  0
ACDBPLACEHOLDER
  5
1D
102
{ACAD_REACTORS
330
1F
102
}
330
1F
  0
ENDSEC
  0
EOF
