  0
SECTION
  2
HEADER
  9
$ACADVER
  1
AC1018
  9
$ACADMAINTVER
 70
     0
  9
$DWGCODEPAGE
  3
ANSI_932
  9
$INSBASE
 10
0.0
 20
0.0
 30
0.0
  9
$EXTMIN
 10
-465.0011263087337
 20
-488.5091833350689
 30
-6.299834999999999
  9
$EXTMAX
 10
794.9963536912663
 20
402.4897966649312
 30
6.299834999999999
  9
$LIMMIN
 10
0.0
 20
0.0
  9
$LIMMAX
 10
0.0
 20
0.0
  9
$ORTHOMODE
 70
     0
  9
$REGENMODE
 70
     1
  9
$FILLMODE
 70
     1
  9
$QTEXTMODE
 70
     0
  9
$MIRRTEXT
 70
     1
  9
$LTSCALE
 40
15.24
  9
$ATTMODE
 70
     1
  9
$TEXTSIZE
 40
0.2
  9
$TRACEWID
 40
1.0
  9
$TEXTSTYLE
  7
Standard
  9
$CLAYER
  8
寸法
  9
$CELTYPE
  6
Continuous
  9
$CECOLOR
 62
   256
  9
$CELTSCALE
 40
1.0
  9
$DISPSILH
 70
     0
  9
$DIMSCALE
 40
1.0
  9
$DIMASZ
 40
6.734472656249999
  9
$DIMEXO
 40
4.762499999999999
  9
$DIMDLI
 40
10.16
  9
$DIMRND
 40
0.0
  9
$DIMDLE
 40
1.5875
  9
$DIMEXE
 40
9.524999999999999
  9
$DIMTP
 40
0.0
  9
$DIMTM
 40
0.0
  9
$DIMTXT
 40
11.40188802083333
  9
$DIMCEN
 40
0.0
  9
$DIMTSZ
 40
0.0
  9
$DIMTOL
 70
     0
  9
$DIMLIM
 70
     0
  9
$DIMTIH
 70
     0
  9
$DIMTOH
 70
     0
  9
$DIMSE1
 70
     0
  9
$DIMSE2
 70
     0
  9
$DIMTAD
 70
     1
  9
$DIMZIN
 70
    11
  9
$DIMBLK
  1
VW_SLASH
  9
$DIMASO
 70
     1
  9
$DIMSHO
 70
     1
  9
$DIMPOST
  1
<>
  9
$DIMAPOST
  1
[]
  9
$DIMALT
 70
     0
  9
$DIMALTD
 70
     3
  9
$DIMALTF
 40
0.0010936132983377
  9
$DIMLFAC
 40
1.0
  9
$DIMTOFL
 70
     1
  9
$DIMTVP
 40
0.0
  9
$DIMTIX
 70
     1
  9
$DIMSOXD
 70
     0
  9
$DIMSAH
 70
     0
  9
$DIMBLK1
  1

  9
$DIMBLK2
  1

  9
$DIMSTYLE
  2
Arch
  9
$DIMCLRD
 70
     0
  9
$DIMCLRE
 70
     0
  9
$DIMCLRT
 70
     0
  9
$DIMTFAC
 40
1.0
  9
$DIMGAP
 40
1.5875
  9
$DIMJUST
 70
     0
  9
$DIMSD1
 70
     0
  9
$DIMSD2
 70
     0
  9
$DIMTOLJ
 70
     1
  9
$DIMTZIN
 70
    11
  9
$DIMALTZ
 70
     7
  9
$DIMALTTZ
 70
     7
  9
$DIMUPT
 70
     0
  9
$DIMDEC
 70
     1
  9
$DIMTDEC
 70
     1
  9
$DIMALTU
 70
     2
  9
$DIMALTTD
 70
     2
  9
$DIMTXSTY
  7
ＭＳ ゴシック (bold)
  9
$DIMAUNIT
 70
     0
  9
$DIMADEC
 70
     2
  9
$DIMALTRND
 40
0.0
  9
$DIMAZIN
 70
     0
  9
$DIMDSEP
 70
    46
  9
$DIMATFIT
 70
     0
  9
$DIMFRAC
 70
     2
  9
$DIMLDRBLK
  1

  9
$DIMLUNIT
 70
     2
  9
$DIMLWD
 70
    -2
  9
$DIMLWE
 70
    -2
  9
$DIMTMOVE
 70
     0
  9
$LUNITS
 70
     2
  9
$LUPREC
 70
     4
  9
$SKETCHINC
 40
0.1
  9
$FILLETRAD
 40
0.0
  9
$AUNITS
 70
     0
  9
$AUPREC
 70
     0
  9
$MENU
  1
acad
  9
$ELEVATION
 40
0.0
  9
$PELEVATION
 40
0.0
  9
$THICKNESS
 40
0.0
  9
$LIMCHECK
 70
     0
  9
$CHAMFERA
 40
0.0
  9
$CHAMFERB
 40
0.0
  9
$CHAMFERC
 40
0.0
  9
$CHAMFERD
 40
0.0
  9
$SKPOLY
 70
     0
  9
$TDCREATE
 40
2447893.375
  9
$TDUCREATE
 40
0.0
  9
$TDUPDATE
 40
2447893.375
  9
$TDUUPDATE
 40
0.0
  9
$TDINDWG
 40
0.0
  9
$TDUSRTIMER
 40
0.0
  9
$USRTIMER
 70
     1
  9
$ANGBASE
 50
0.0
  9
$ANGDIR
 70
     0
  9
$PDMODE
 70
     1
  9
$PDSIZE
 40
-2.0
  9
$PLINEWID
 40
0.0
  9
$SPLFRAME
 70
     0
  9
$SPLINETYPE
 70
     6
  9
$SPLINESEGS
 70
     8
  9
$HANDSEED
  5
159
  9
$SURFTAB1
 70
     6
  9
$SURFTAB2
 70
     6
  9
$SURFTYPE
 70
     6
  9
$SURFU
 70
     6
  9
$SURFV
 70
     6
  9
$UCSBASE
  2

  9
$UCSNAME
  2

  9
$UCSORG
 10
0.0
 20
0.0
 30
0.0
  9
$UCSXDIR
 10
1.0
 20
0.0
 30
0.0
  9
$UCSYDIR
 10
0.0
 20
1.0
 30
0.0
  9
$UCSORTHOREF
  2

  9
$UCSORTHOVIEW
 70
     0
  9
$UCSORGTOP
 10
0.0
 20
0.0
 30
0.0
  9
$UCSORGBOTTOM
 10
0.0
 20
0.0
 30
0.0
  9
$UCSORGLEFT
 10
0.0
 20
0.0
 30
0.0
  9
$UCSORGRIGHT
 10
0.0
 20
0.0
 30
0.0
  9
$UCSORGFRONT
 10
0.0
 20
0.0
 30
0.0
  9
$UCSORGBACK
 10
0.0
 20
0.0
 30
0.0
  9
$PUCSBASE
  2

  9
$PUCSNAME
  2

  9
$PUCSORG
 10
0.0
 20
0.0
 30
0.0
  9
$PUCSXDIR
 10
1.0
 20
0.0
 30
0.0
  9
$PUCSYDIR
 10
0.0
 20
1.0
 30
0.0
  9
$PUCSORTHOREF
  2

  9
$PUCSORTHOVIEW
 70
     0
  9
$PUCSORGTOP
 10
0.0
 20
0.0
 30
0.0
  9
$PUCSORGBOTTOM
 10
0.0
 20
0.0
 30
0.0
  9
$PUCSORGLEFT
 10
0.0
 20
0.0
 30
0.0
  9
$PUCSORGRIGHT
 10
0.0
 20
0.0
 30
0.0
  9
$PUCSORGFRONT
 10
0.0
 20
0.0
 30
0.0
  9
$PUCSORGBACK
 10
0.0
 20
0.0
 30
0.0
  9
$USERI1
 70
     0
  9
$USERI2
 70
     0
  9
$USERI3
 70
     0
  9
$USERI4
 70
     0
  9
$USERI5
 70
     0
  9
$USERR1
 40
0.0
  9
$USERR2
 40
0.0
  9
$USERR3
 40
0.0
  9
$USERR4
 40
0.0
  9
$USERR5
 40
0.0
  9
$WORLDVIEW
 70
     1
  9
$SHADEDGE
 70
     3
  9
$SHADEDIF
 70
    70
  9
$TILEMODE
 70
     1
  9
$MAXACTVP
 70
    64
  9
$PINSBASE
 10
0.0
 20
0.0
 30
0.0
  9
$PLIMCHECK
 70
     0
  9
$PEXTMIN
 10
1.000000000000000E+20
 20
1.000000000000000E+20
 30
1.000000000000000E+20
  9
$PEXTMAX
 10
-1.000000000000000E+20
 20
-1.000000000000000E+20
 30
-1.000000000000000E+20
  9
$PLIMMIN
 10
0.0
 20
0.0
  9
$PLIMMAX
 10
12.0
 20
9.0
  9
$UNITMODE
 70
     0
  9
$VISRETAIN
 70
     0
  9
$PLINEGEN
 70
     1
  9
$PSLTSCALE
 70
     0
  9
$TREEDEPTH
 70
  3020
  9
$CMLSTYLE
  2
Standard
  9
$CMLJUST
 70
     0
  9
$CMLSCALE
 40
1.0
  9
$PROXYGRAPHICS
 70
     0
  9
$MEASUREMENT
 70
     1
  9
$CELWEIGHT
370
     0
  9
$ENDCAPS
280
     0
  9
$JOINSTYLE
280
     0
  9
$LWDISPLAY
290
     1
  9
$INSUNITS
 70
     4
  9
$HYPERLINKBASE
  1

  9
$STYLESHEET
  1

  9
$XEDIT
290
     1
  9
$CEPSNTYPE
380
     0
  9
$PSTYLEMODE
290
     1
  9
$FINGERPRINTGUID
  2

  9
$VERSIONGUID
  2

  9
$EXTNAMES
290
     1
  9
$PSVPSCALE
 40
0.0
  9
$OLESTARTUP
290
     0
  9
$SORTENTS
280
   127
  9
$INDEXCTL
280
     0
  9
$HIDETEXT
280
     1
  9
$XCLIPFRAME
290
     0
  9
$HALOGAP
280
     0
  9
$OBSCOLOR
 70
   257
  9
$OBSLTYPE
280
     0
  9
$INTERSECTIONDISPLAY
280
     0
  9
$INTERSECTIONCOLOR
 70
   257
  9
$DIMASSOC
280
     2
  9
$PROJECTNAME
  1

  0
ENDSEC
  0
SECTION
  2
CLASSES
  0
CLASS
  1
LWPOLYLINE
  2
AcDbPolyline
  3
AutoCAD 2000
 90
        0
 91
        1
280
     0
281
     1
  0
CLASS
  1
IMAGE
  2
AcDbRasterImage
  3
ISM
 90
      127
 91
        4
280
     0
281
     1
  0
CLASS
  1
OLE2FRAME
  2
AcDbOle2Frame
  3
AutoCAD 2000
 90
        0
 91
        1
280
     0
281
     1
  0
CLASS
  1
HATCH
  2
AcDbHatch
  3
AutoCAD 2000
 90
        0
 91
        1
280
     0
281
     1
  0
CLASS
  1
DICTIONARYVAR
  2
AcDbDictionaryVar
  3
ObjectDBX Classes
 90
        0
 91
        3
280
     0
281
     0
  0
CLASS
  1
RASTERVARIABLES
  2
AcDbRasterVariables
  3
ISM
 90
        0
 91
        3
280
     0
281
     0
  0
CLASS
  1
IMAGEDEF
  2
AcDbRasterImageDef
  3
ISM
 90
        0
 91
        3
280
     0
281
     0
  0
CLASS
  1
IMAGEDEF_REACTOR
  2
AcDbRasterImageDefReactor
  3
ISM
 90
        1
 91
        3
280
     0
281
     0
  0
CLASS
  1
IDBUFFER
  2
AcDbIdBuffer
  3
ObjectDBX Classes
 90
        0
 91
        3
280
     0
281
     0
  0
CLASS
  1
SPATIAL_FILTER
  2
AcDbSpatialFilter
  3
ObjectDBX Classes
 90
        0
 91
        3
280
     0
281
     0
  0
CLASS
  1
XRECORD
  2
AcDbXrecord
  3
AutoCAD 2000
 90
        0
 91
        1
280
     0
281
     0
  0
CLASS
  1
SORTENTSTABLE
  2
AcDbSortentsTable
  3
ObjectDBX Classes
 90
        0
 91
        3
280
     0
281
     0
  0
CLASS
  1
LAYER_INDEX
  2
AcDbLayerIndex
  3
ObjectDBX Classes
 90
        0
 91
        3
280
     0
281
     0
  0
CLASS
  1
SPATIAL_INDEX
  2
AcDbSpatialIndex
  3
AutoCAD 2000
 90
        0
 91
        3
280
     0
281
     0
  0
CLASS
  1
OBJECT_PTR
  2
CAseDLPNTableRecord
  3
ASE-LPNTableRecord
 90
        1
 91
        3
280
     0
281
     0
  0
CLASS
  1
LAYOUT
  2
AcDbLayout
  3
ObjectDBX Classes
 90
        0
 91
        1
280
     0
281
     0
  0
CLASS
  1
PLOTSETTINGS
  2
AcDbPlotSettings
  3
ObjectDBX Classes
 90
        0
 91
        3
280
     0
281
     0
  0
CLASS
  1
ACDBDICTIONARYWDFLT
  2
AcDbDictionaryWithDefault
  3
ObjectDBX Classes
 90
        0
 91
        3
280
     0
281
     0
  0
CLASS
  1
ACDBPLACEHOLDER
  2
AcDbPlaceHolder
  3
ObjectDBX Classes
 90
        0
 91
        1
280
     0
281
     0
  0
CLASS
  1
VBA_PROJECT
  2
AcDbVbaProject
  3
ObjectDBX Classes
 90
        0
 91
        1
280
     0
281
     0
  0
CLASS
  1
WIPEOUT
  2
AcDbWipeout
  3
WipeOut|AutoCAD Express Tool|expresstools@autodesk.com
 90
      127
 91
        3
280
     0
281
     1
  0
CLASS
  1
WIPEOUTVARIABLES
  2
AcDbWipeoutVariables
  3
WipeOut|AutoCAD Express Tool|expresstools@autodesk.com
 90
        0
 91
        3
280
     0
281
     0
  0
CLASS
  1
RTEXT
  2
RText
  3
RText|AutoCAD Express Tool|expresstools@autodesk.com
 90
        0
 91
        3
280
     0
281
     1
  0
CLASS
  1
ARCALIGNEDTEXT
  2
AcDbArcAlignedText
  3
ATEXT|AutoCAD Express Tool|expresstools@autodesk.com
 90
        0
 91
        3
280
     0
281
     1
  0
ENDSEC
  0
SECTION
  2
TABLES
  0
TABLE
  2
VPORT
  5
7
330
0
100
AcDbSymbolTable
 70
     1
  0
VPORT
  5
15
330
7
100
AcDbSymbolTableRecord
100
AcDbViewportTableRecord
  2
*ACTIVE
 70
     0
 10
0.0
 20
0.0
 11
1.0
 21
1.0
 12
164.9976136912663
 22
-43.00969333506885
 13
0.0
 23
0.0
 14
1.0
 24
1.0
 15
0.0
 25
0.0
 16
0.0
 26
0.0
 36
1.0
 17
0.0
 27
0.0
 37
0.0
 40
890.9989800000001
 41
0.688564
 42
50.0
 43
0.0
 44
0.0
 50
0.0
 51
0.0
 71
     0
 72
  2000
 73
     1
 74
     1
 75
     0
 76
     0
 77
     0
 78
     0
281
     0
 65
     0
110
0.0
120
0.0
130
0.0
111
1.0
121
0.0
131
0.0
112
0.0
122
1.0
132
0.0
 79
     0
146
0.0
  0
ENDTAB
  0
TABLE
  2
LTYPE
  5
4
330
0
100
AcDbSymbolTable
 70
    11
  0
LTYPE
  5
11
330
4
100
AcDbSymbolTableRecord
100
AcDbLinetypeTableRecord
  2
ByBlock
 70
     0
  3

 72
    65
 73
     0
 40
0.0
  0
LTYPE
  5
12
330
4
100
AcDbSymbolTableRecord
100
AcDbLinetypeTableRecord
  2
ByLayer
 70
     0
  3

 72
    65
 73
     0
 40
0.0
  0
LTYPE
  5
13
330
4
100
AcDbSymbolTableRecord
100
AcDbLinetypeTableRecord
  2
Continuous
 70
     0
  3
Solid line
 72
    65
 73
     0
 40
0.0
  0
LTYPE
  5
38
330
4
100
AcDbSymbolTableRecord
100
AcDbLinetypeTableRecord
  2
STYLE_01
 70
     0
  3

 72
    65
 73
     2
 40
0.41664
 49
0.20828
 74
     0
 49
-0.20836
 74
     0
  0
LTYPE
  5
39
330
4
100
AcDbSymbolTableRecord
100
AcDbLinetypeTableRecord
  2
STYLE_02
 70
     0
  3

 72
    65
 73
     2
 40
0.6944250000000001
 49
0.48607
 74
     0
 49
-0.2083550000000001
 74
     0
  0
LTYPE
  5
3A
330
4
100
AcDbSymbolTableRecord
100
AcDbLinetypeTableRecord
  2
STYLE_03
 70
     0
  3

 72
    65
 73
     2
 40
1.25
 49
1.04164
 74
     0
 49
-0.2083599999999999
 74
     0
  0
LTYPE
  5
3B
330
4
100
AcDbSymbolTableRecord
100
AcDbLinetypeTableRecord
  2
STYLE_04
 70
     0
  3

 72
    65
 73
     2
 40
1.52771
 49
1.319425
 74
     0
 49
-0.208285
 74
     0
  0
LTYPE
  5
3C
330
4
100
AcDbSymbolTableRecord
100
AcDbLinetypeTableRecord
  2
STYLE_05
 70
     0
  3

 72
    65
 73
     2
 40
0.20828
 49
0.069425
 74
     0
 49
-0.138855
 74
     0
  0
LTYPE
  5
3D
330
4
100
AcDbSymbolTableRecord
100
AcDbLinetypeTableRecord
  2
STYLE_06
 70
     0
  3

 72
    65
 73
     4
 40
1.04164
 49
0.625
 74
     0
 49
-0.20828
 74
     0
 49
0.06943
 74
     0
 49
-0.13893
 74
     0
  0
LTYPE
  5
3E
330
4
100
AcDbSymbolTableRecord
100
AcDbLinetypeTableRecord
  2
STYLE_07
 70
     0
  3

 72
    65
 73
     6
 40
1.875
 49
0.625
 74
     0
 49
-0.20828
 74
     0
 49
0.6250000000000001
 74
     0
 49
-0.2083599999999999
 74
     0
 49
0.06943
 74
     0
 49
-0.1389299999999999
 74
     0
  0
LTYPE
  5
3F
330
4
100
AcDbSymbolTableRecord
100
AcDbLinetypeTableRecord
  2
STYLE_08
 70
     0
  3

 72
    65
 73
     6
 40
1.25
 49
0.625
 74
     0
 49
-0.20828
 74
     0
 49
0.06943
 74
     0
 49
-0.13893
 74
     0
 49
0.0694299999999999
 74
     0
 49
-0.13893
 74
     0
  0
LTYPE
  5
40
330
4
100
AcDbSymbolTableRecord
100
AcDbLinetypeTableRecord
  2
STYLE_09
 70
     0
  3

 72
    65
 73
     4
 40
5.0
 49
3.75
 74
     0
 49
-0.2777849999999998
 74
     0
 49
0.6944300000000003
 74
     0
 49
-0.2777849999999998
 74
     0
  0
LTYPE
  5
41
330
4
100
AcDbSymbolTableRecord
100
AcDbLinetypeTableRecord
  2
STYLE_10
 70
     0
  3

 72
    65
 73
     6
 40
5.9375
 49
3.75
 74
     0
 49
-0.2777849999999998
 74
     0
 49
0.6944300000000003
 74
     0
 49
-0.2777849999999998
 74
     0
 49
0.625
 74
     0
 49
-0.3125
 74
     0
  0
ENDTAB
  0
TABLE
  2
LAYER
  5
2
330
0
100
AcDbSymbolTable
 70
     4
  0
LAYER
  5
14
330
2
100
AcDbSymbolTableRecord
100
AcDbLayerTableRecord
  2
0
 70
     0
 62
     7
  6
Continuous
370
    -3
390
1D
  0
LAYER
  5
42
330
2
100
AcDbSymbolTableRecord
100
AcDbLayerTableRecord
  2
一般
 70
     0
 62
     7
  6
Continuous
370
   100
390
1D
  0
LAYER
  5
43
330
2
100
AcDbSymbolTableRecord
100
AcDbLayerTableRecord
  2
寸法
 70
     0
 62
     7
  6
Continuous
370
   100
390
1D
  0
LAYER
  5
44
330
2
100
AcDbSymbolTableRecord
100
AcDbLayerTableRecord
  2
Defpoints
 70
     0
 62
     7
  6
Continuous
290
     0
370
    -3
390
1D
  0
ENDTAB
  0
TABLE
  2
STYLE
  5
3
330
0
100
AcDbSymbolTable
 70
     2
  0
STYLE
  5
17
330
3
100
AcDbSymbolTableRecord
100
AcDbTextStyleTableRecord
  2
Standard
 70
     0
 40
0.0
 41
1.0
 50
0.0
 71
     0
 42
0.0
  3
txt
  4
BIGFONT.SHX
  0
STYLE
  5
37
330
3
100
AcDbSymbolTableRecord
100
AcDbTextStyleTableRecord
  2
ＭＳ ゴシック (bold)
 70
     0
 40
0.0
 41
1.0
 50
0.0
 71
     0
 42
0.0
  3

  4
ＭＳ ゴシック
1001
ACAD
1000
ＭＳ ゴシック
1071
 33554432
  0
ENDTAB
  0
TABLE
  2
VIEW
  5
5
330
0
100
AcDbSymbolTable
 70
     0
  0
ENDTAB
  0
TABLE
  2
UCS
  5
6
330
0
100
AcDbSymbolTable
 70
     0
  0
ENDTAB
  0
TABLE
  2
APPID
  5
8
330
0
100
AcDbSymbolTable
 70
     1
  0
APPID
  5
16
330
8
100
AcDbSymbolTableRecord
100
AcDbRegAppTableRecord
  2
ACAD
 70
     0
  0
ENDTAB
  0
TABLE
  2
DIMSTYLE
  5
9
330
0
100
AcDbSymbolTable
 70
     2
100
AcDbDimStyleTable
  0
DIMSTYLE
105
18
330
9
100
AcDbSymbolTableRecord
100
AcDbDimStyleTableRecord
  2
Standard
 70
     0
340
17
  0
DIMSTYLE
105
4E
330
9
100
AcDbSymbolTableRecord
100
AcDbDimStyleTableRecord
  2
Arch
 70
     0
  3
<>
  4
[]
 41
6.734472656249999
 42
4.762499999999999
 43
10.16
 44
9.524999999999999
 46
1.5875
 73
     0
 74
     0
 77
     1
 78
    11
140
11.40188802083333
141
0.0
143
0.0010936132983377
147
1.5875
171
     3
172
     1
174
     1
179
     2
271
     1
272
     1
276
     2
284
    11
285
     7
286
     7
289
     0
340
37
341
4A
342
45
  0
ENDTAB
  0
TABLE
  2
BLOCK_RECORD
  5
1
330
0
100
AcDbSymbolTable
 70
    21
  0
BLOCK_RECORD
  5
A
330
1
100
AcDbSymbolTableRecord
100
AcDbBlockTableRecord
  2
*MODEL_SPACE
340
20
  0
BLOCK_RECORD
  5
B
330
1
100
AcDbSymbolTableRecord
100
AcDbBlockTableRecord
  2
*PAPER_SPACE
340
21
  0
BLOCK_RECORD
  5
45
330
1
100
AcDbSymbolTableRecord
100
AcDbBlockTableRecord
  2
VW_SLASH
340
0
  0
BLOCK_RECORD
  5
4A
330
1
100
AcDbSymbolTableRecord
100
AcDbBlockTableRecord
  2
VW_FILLEDARROW
340
0
  0
BLOCK_RECORD
  5
24
330
1
100
AcDbSymbolTableRecord
100
AcDbBlockTableRecord
  2
グループ
340
0
102
{BLKREFS
331
61
102
}
  0
BLOCK_RECORD
  5
25
330
1
100
AcDbSymbolTableRecord
100
AcDbBlockTableRecord
  2
グループ-1
340
0
102
{BLKREFS
331
62
102
}
  0
BLOCK_RECORD
  5
26
330
1
100
AcDbSymbolTableRecord
100
AcDbBlockTableRecord
  2
グループ-2
340
0
102
{BLKREFS
331
63
102
}
  0
BLOCK_RECORD
  5
27
330
1
100
AcDbSymbolTableRecord
100
AcDbBlockTableRecord
  2
グループ-3
340
0
102
{BLKREFS
331
7C
102
}
  0
BLOCK_RECORD
  5
28
330
1
100
AcDbSymbolTableRecord
100
AcDbBlockTableRecord
  2
グループ-4
340
0
102
{BLKREFS
331
77
102
}
  0
BLOCK_RECORD
  5
29
330
1
100
AcDbSymbolTableRecord
100
AcDbBlockTableRecord
  2
グループ-5
340
0
102
{BLKREFS
331
78
102
}
  0
BLOCK_RECORD
  5
2A
330
1
100
AcDbSymbolTableRecord
100
AcDbBlockTableRecord
  2
グループ-6
340
0
102
{BLKREFS
331
79
102
}
  0
BLOCK_RECORD
  5
2B
330
1
100
AcDbSymbolTableRecord
100
AcDbBlockTableRecord
  2
グループ-7
340
0
102
{BLKREFS
331
84
102
}
  0
BLOCK_RECORD
  5
2C
330
1
100
AcDbSymbolTableRecord
100
AcDbBlockTableRecord
  2
グループ-8
340
0
102
{BLKREFS
331
8B
102
}
  0
BLOCK_RECORD
  5
2D
330
1
100
AcDbSymbolTableRecord
100
AcDbBlockTableRecord
  2
グループ-9
340
0
102
{BLKREFS
331
149
102
}
  0
BLOCK_RECORD
  5
2E
330
1
100
AcDbSymbolTableRecord
100
AcDbBlockTableRecord
  2
グループ-10
340
0
102
{BLKREFS
331
D8
102
}
  0
BLOCK_RECORD
  5
2F
330
1
100
AcDbSymbolTableRecord
100
AcDbBlockTableRecord
  2
Drawing Border - Universal
340
0
102
{BLKREFS
331
150
102
}
  0
BLOCK_RECORD
  5
30
330
1
100
AcDbSymbolTableRecord
100
AcDbBlockTableRecord
  2
グループ-11
340
0
102
{BLKREFS
331
152
102
}
  0
BLOCK_RECORD
  5
31
330
1
100
AcDbSymbolTableRecord
100
AcDbBlockTableRecord
  2
*D15
340
0
  0
BLOCK_RECORD
  5
32
330
1
100
AcDbSymbolTableRecord
100
AcDbBlockTableRecord
  2
*D16
340
0
  0
BLOCK_RECORD
  5
33
330
1
100
AcDbSymbolTableRecord
100
AcDbBlockTableRecord
  2
*D17
340
0
  0
BLOCK_RECORD
  5
34
330
1
100
AcDbSymbolTableRecord
100
AcDbBlockTableRecord
  2
*D18
340
0
  0
BLOCK_RECORD
  5
35
330
1
100
AcDbSymbolTableRecord
100
AcDbBlockTableRecord
  2
*D19
340
0
  0
BLOCK_RECORD
  5
36
330
1
100
AcDbSymbolTableRecord
100
AcDbBlockTableRecord
  2
*D20
340
0
  0
ENDTAB
  0
ENDSEC
  0
SECTION
  2
BLOCKS
  0
BLOCK
  5
D
330
A
100
AcDbEntity
  8
0
390
1D
100
AcDbBlockBegin
  2
*MODEL_SPACE
 70
     0
 71
     0
 10
0.0
 20
0.0
 30
0.0
  3
*MODEL_SPACE
  1

  0
ENDBLK
  5
E
330
A
100
AcDbEntity
  8
0
390
1D
100
AcDbBlockEnd
  0
BLOCK
  5
F
330
B
100
AcDbEntity
 67
     1
  8
0
390
1D
100
AcDbBlockBegin
  2
*PAPER_SPACE
 70
     0
 71
     0
 10
0.0
 20
0.0
 30
0.0
  3
*PAPER_SPACE
  1

  0
ENDBLK
  5
10
330
B
100
AcDbEntity
 67
     1
  8
0
390
1D
100
AcDbBlockEnd
  0
BLOCK
  5
46
330
45
100
AcDbEntity
  8
0
  6
ByBlock
 62
     0
370
    -2
390
1D
100
AcDbBlockBegin
  2
VW_SLASH
 70
     0
 71
     0
 10
0.0
 20
0.0
 30
0.0
  3
VW_SLASH
  1

  0
LINE
  5
47
330
45
100
AcDbEntity
  8
0
  6
ByBlock
 62
     0
370
    -2
390
1D
100
AcDbLine
 10
0.0
 20
0.0
 30
0.0
 11
-1.0
 21
0.0
 31
0.0
  0
LINE
  5
48
330
45
100
AcDbEntity
  8
0
  6
ByBlock
 62
     0
370
    20
390
1D
100
AcDbLine
 10
-0.1666258459964003
 20
-0.1666258459964003
 30
0.0
 11
0.1666258459964003
 21
0.1666258459964003
 31
0.0
  0
ENDBLK
  5
49
330
45
100
AcDbEntity
  8
0
390
1D
100
AcDbBlockEnd
  0
BLOCK
  5
4B
330
4A
100
AcDbEntity
  8
0
  6
ByBlock
 62
     0
370
    -2
390
1D
100
AcDbBlockBegin
  2
VW_FILLEDARROW
 70
     0
 71
     0
 10
0.0
 20
0.0
 30
0.0
  3
VW_FILLEDARROW
  1

  0
SOLID
  5
4C
330
4A
100
AcDbEntity
  8
0
 62
     0
370
    -2
390
1D
100
AcDbTrace
 10
0.0
 20
0.0
 30
0.0
 11
-0.4712890624999999
 21
-0.1262815236984959
 31
0.0
 12
-0.4712890624999999
 22
0.126281523698496
 32
0.0
 13
-0.4712890624999999
 23
0.126281523698496
 33
0.0
  0
ENDBLK
  5
4D
330
4A
100
AcDbEntity
  8
0
390
1D
100
AcDbBlockEnd
  0
BLOCK
  5
4F
330
24
100
AcDbEntity
  8
一般
390
1D
100
AcDbBlockBegin
  2
グループ
 70
     0
 71
     0
 10
0.0
 20
0.0
 30
0.0
  3
グループ
  1

  0
POLYLINE
  5
50
330
24
100
AcDbEntity
  8
一般
  6
Continuous
 62
     7
370
    18
390
1D
100
AcDb2dPolyline
 66
     1
 10
0.0
 20
0.0
 30
0.0
 70
     1
 75
     5
  0
VERTEX
  5
51
330
50
100
AcDbEntity
  8
一般
  6
Continuous
 62
     7
370
    18
390
1D
100
AcDbVertex
100
AcDb2dVertex
 10
-186.9976136912668
 20
160.5096933350688
 30
0.0
  0
VERTEX
  5
52
330
50
100
AcDbEntity
  8
一般
  6
Continuous
 62
     7
370
    18
390
1D
100
AcDbVertex
100
AcDb2dVertex
 10
-176.9976136912668
 20
160.5096933350688
 30
0.0
  0
VERTEX
  5
53
330
50
100
AcDbEntity
  8
一般
  6
Continuous
 62
     7
370
    18
390
1D
100
AcDbVertex
100
AcDb2dVertex
 10
-176.9976136912668
 20
-74.49030666493118
 30
0.0
  0
VERTEX
  5
54
330
50
100
AcDbEntity
  8
一般
  6
Continuous
 62
     7
370
    18
390
1D
100
AcDbVertex
100
AcDb2dVertex
 10
-186.9976136912668
 20
-74.49030666493118
 30
0.0
  0
SEQEND
  5
55
330
50
100
AcDbEntity
  8
一般
  6
Continuous
 62
     7
370
    18
390
1D
  0
ENDBLK
  5
57
330
24
100
AcDbEntity
  8
一般
390
1D
100
AcDbBlockEnd
  0
BLOCK
  5
58
330
25
100
AcDbEntity
  8
一般
390
1D
100
AcDbBlockBegin
  2
グループ-1
 70
     0
 71
     0
 10
0.0
 20
0.0
 30
0.0
  3
グループ-1
  1

  0
LINE
  5
59
330
25
100
AcDbEntity
  8
一般
  6
Continuous
 62
     7
370
    18
390
1D
100
AcDbLine
 10
-186.997613691267
 20
153.0096933350688
 30
0.0
 11
-176.9976136912669
 21
153.0096933350688
 31
0.0
  0
LINE
  5
5A
330
25
100
AcDbEntity
  8
一般
  6
Continuous
 62
     7
370
    18
390
1D
100
AcDbLine
 10
-186.997613691267
 20
143.0096933350688
 30
0.0
 11
-176.9976136912669
 21
143.0096933350688
 31
0.0
  0
ENDBLK
  5
5B
330
25
100
AcDbEntity
  8
一般
390
1D
100
AcDbBlockEnd
  0
BLOCK
  5
5C
330
26
100
AcDbEntity
  8
一般
390
1D
100
AcDbBlockBegin
  2
グループ-2
 70
     0
 71
     0
 10
0.0
 20
0.0
 30
0.0
  3
グループ-2
  1

  0
LINE
  5
5D
330
26
100
AcDbEntity
  8
一般
  6
Continuous
 62
     7
370
    18
390
1D
100
AcDbLine
 10
-186.9976136912668
 20
-56.99030666493118
 30
0.0
 11
-176.9976136912668
 21
-56.99030666493118
 31
0.0
  0
LINE
  5
5E
330
26
100
AcDbEntity
  8
一般
  6
Continuous
 62
     7
370
    18
390
1D
100
AcDbLine
 10
-186.9976136912668
 20
-66.99030666493118
 30
0.0
 11
-176.9976136912668
 21
-66.99030666493118
 31
0.0
  0
ENDBLK
  5
5F
330
26
100
AcDbEntity
  8
一般
390
1D
100
AcDbBlockEnd
  0
BLOCK
  5
60
330
27
100
AcDbEntity
  8
一般
390
1D
100
AcDbBlockBegin
  2
グループ-3
 70
     0
 71
     0
 10
0.0
 20
0.0
 30
0.0
  3
グループ-3
  1

  0
INSERT
  5
61
330
27
100
AcDbEntity
  8
一般
 62
     7
390
1D
100
AcDbBlockReference
  2
グループ
 10
0.0
 20
0.0
 30
0.0
  0
INSERT
  5
62
330
27
100
AcDbEntity
  8
一般
 62
     7
390
1D
100
AcDbBlockReference
  2
グループ-1
 10
0.0
 20
0.0
 30
0.0
  0
INSERT
  5
63
330
27
100
AcDbEntity
  8
一般
 62
     7
390
1D
100
AcDbBlockReference
  2
グループ-2
 10
0.0
 20
0.0
 30
0.0
  0
ENDBLK
  5
64
330
27
100
AcDbEntity
  8
一般
390
1D
100
AcDbBlockEnd
  0
BLOCK
  5
65
330
28
100
AcDbEntity
  8
一般
390
1D
100
AcDbBlockBegin
  2
グループ-4
 70
     0
 71
     0
 10
0.0
 20
0.0
 30
0.0
  3
グループ-4
  1

  0
POLYLINE
  5
66
330
28
100
AcDbEntity
  8
一般
  6
Continuous
 62
     7
370
    18
390
1D
100
AcDb2dPolyline
 66
     1
 10
0.0
 20
0.0
 30
0.0
 70
     1
 75
     5
  0
VERTEX
  5
67
330
66
100
AcDbEntity
  8
一般
  6
Continuous
 62
     7
370
    18
390
1D
100
AcDbVertex
100
AcDb2dVertex
 10
-264.9976136912667
 20
218.0096933350688
 30
0.0
  0
VERTEX
  5
68
330
66
100
AcDbEntity
  8
一般
  6
Continuous
 62
     7
370
    18
390
1D
100
AcDbVertex
100
AcDb2dVertex
 10
-254.9976136912668
 20
218.0096933350688
 30
0.0
  0
VERTEX
  5
69
330
66
100
AcDbEntity
  8
一般
  6
Continuous
 62
     7
370
    18
390
1D
100
AcDbVertex
100
AcDb2dVertex
 10
-254.9976136912668
 20
-131.9903066649312
 30
0.0
  0
VERTEX
  5
6A
330
66
100
AcDbEntity
  8
一般
  6
Continuous
 62
     7
370
    18
390
1D
100
AcDbVertex
100
AcDb2dVertex
 10
-264.9976136912667
 20
-131.9903066649312
 30
0.0
  0
SEQEND
  5
6B
330
66
100
AcDbEntity
  8
一般
  6
Continuous
 62
     7
370
    18
390
1D
  0
ENDBLK
  5
6D
330
28
100
AcDbEntity
  8
一般
390
1D
100
AcDbBlockEnd
  0
BLOCK
  5
6E
330
29
100
AcDbEntity
  8
一般
390
1D
100
AcDbBlockBegin
  2
グループ-5
 70
     0
 71
     0
 10
0.0
 20
0.0
 30
0.0
  3
グループ-5
  1

  0
LINE
  5
6F
330
29
100
AcDbEntity
  8
一般
  6
Continuous
 62
     7
370
    18
390
1D
100
AcDbLine
 10
-264.9976136912668
 20
210.5096933350688
 30
0.0
 11
-254.997613691267
 21
210.5096933350688
 31
0.0
  0
LINE
  5
70
330
29
100
AcDbEntity
  8
一般
  6
Continuous
 62
     7
370
    18
390
1D
100
AcDbLine
 10
-264.9976136912668
 20
195.5096933350689
 30
0.0
 11
-254.997613691267
 21
195.5096933350689
 31
0.0
  0
ENDBLK
  5
71
330
29
100
AcDbEntity
  8
一般
390
1D
100
AcDbBlockEnd
  0
BLOCK
  5
72
330
2A
100
AcDbEntity
  8
一般
390
1D
100
AcDbBlockBegin
  2
グループ-6
 70
     0
 71
     0
 10
0.0
 20
0.0
 30
0.0
  3
グループ-6
  1

  0
LINE
  5
73
330
2A
100
AcDbEntity
  8
一般
  6
Continuous
 62
     7
370
    18
390
1D
100
AcDbLine
 10
-264.9976136912668
 20
-109.4903066649312
 30
0.0
 11
-254.997613691267
 21
-109.4903066649312
 31
0.0
  0
LINE
  5
74
330
2A
100
AcDbEntity
  8
一般
  6
Continuous
 62
     7
370
    18
390
1D
100
AcDbLine
 10
-264.9976136912668
 20
-124.4903066649312
 30
0.0
 11
-254.997613691267
 21
-124.4903066649312
 31
0.0
  0
ENDBLK
  5
75
330
2A
100
AcDbEntity
  8
一般
390
1D
100
AcDbBlockEnd
  0
BLOCK
  5
76
330
2B
100
AcDbEntity
  8
一般
390
1D
100
AcDbBlockBegin
  2
グループ-7
 70
     0
 71
     0
 10
0.0
 20
0.0
 30
0.0
  3
グループ-7
  1

  0
INSERT
  5
77
330
2B
100
AcDbEntity
  8
一般
 62
     7
390
1D
100
AcDbBlockReference
  2
グループ-4
 10
0.0
 20
0.0
 30
0.0
  0
INSERT
  5
78
330
2B
100
AcDbEntity
  8
一般
 62
     7
390
1D
100
AcDbBlockReference
  2
グループ-5
 10
0.0
 20
0.0
 30
0.0
  0
INSERT
  5
79
330
2B
100
AcDbEntity
  8
一般
 62
     7
390
1D
100
AcDbBlockReference
  2
グループ-6
 10
0.0
 20
0.0
 30
0.0
  0
ENDBLK
  5
7A
330
2B
100
AcDbEntity
  8
一般
390
1D
100
AcDbBlockEnd
  0
BLOCK
  5
7B
330
2C
100
AcDbEntity
  8
一般
390
1D
100
AcDbBlockBegin
  2
グループ-8
 70
     0
 71
     0
 10
0.0
 20
0.0
 30
0.0
  3
グループ-8
  1

  0
INSERT
  5
7C
330
2C
100
AcDbEntity
  8
一般
 62
     7
390
1D
100
AcDbBlockReference
  2
グループ-3
 10
0.0
 20
0.0
 30
0.0
  0
POLYLINE
  5
7D
330
2C
100
AcDbEntity
  8
一般
  6
Continuous
 62
     7
370
    18
390
1D
100
AcDb2dPolyline
 66
     1
 10
0.0
 20
0.0
 30
0.0
 70
     1
 75
     5
  0
VERTEX
  5
7E
330
7D
100
AcDbEntity
  8
一般
  6
Continuous
 62
     7
370
    18
390
1D
100
AcDbVertex
100
AcDb2dVertex
 10
-254.9976136912668
 20
125.6096933350688
 30
0.0
  0
VERTEX
  5
7F
330
7D
100
AcDbEntity
  8
一般
  6
Continuous
 62
     7
370
    18
390
1D
100
AcDbVertex
100
AcDb2dVertex
 10
-186.9976136912668
 20
125.6096933350688
 30
0.0
  0
VERTEX
  5
80
330
7D
100
AcDbEntity
  8
一般
  6
Continuous
 62
     7
370
    18
390
1D
100
AcDbVertex
100
AcDb2dVertex
 10
-186.9976136912668
 20
-39.59030666493118
 30
0.0
  0
VERTEX
  5
81
330
7D
100
AcDbEntity
  8
一般
  6
Continuous
 62
     7
370
    18
390
1D
100
AcDbVertex
100
AcDb2dVertex
 10
-254.9976136912668
 20
-39.59030666493118
 30
0.0
  0
SEQEND
  5
82
330
7D
100
AcDbEntity
  8
一般
  6
Continuous
 62
     7
370
    18
390
1D
  0
INSERT
  5
84
330
2C
100
AcDbEntity
  8
一般
 62
     7
390
1D
100
AcDbBlockReference
  2
グループ-7
 10
0.0
 20
0.0
 30
0.0
  0
LINE
  5
85
330
2C
100
AcDbEntity
  8
寸法
  6
STYLE_01
 62
     7
370
    25
390
1D
100
AcDbLine
 10
-186.9976136912664
 20
125.6096933350688
 30
0.0
 11
-176.9976136912663
 21
125.6096933350688
 31
0.0
  0
LINE
  5
86
330
2C
100
AcDbEntity
  8
寸法
  6
STYLE_01
 62
     7
370
    25
390
1D
100
AcDbLine
 10
-186.9976136912664
 20
-39.59030666493118
 30
0.0
 11
-176.9976136912663
 21
-39.59030666493118
 31
0.0
  0
LINE
  5
87
330
2C
100
AcDbEntity
  8
寸法
  6
STYLE_01
 62
     7
370
    25
390
1D
100
AcDbLine
 10
-264.9976136912667
 20
125.6096933350688
 30
0.0
 11
-254.9976136912666
 21
125.6096933350688
 31
0.0
  0
LINE
  5
88
330
2C
100
AcDbEntity
  8
寸法
  6
STYLE_01
 62
     7
370
    25
390
1D
100
AcDbLine
 10
-264.9976136912667
 20
-39.59030666493118
 30
0.0
 11
-254.9976136912666
 21
-39.59030666493118
 31
0.0
  0
ENDBLK
  5
89
330
2C
100
AcDbEntity
  8
一般
390
1D
100
AcDbBlockEnd
  0
BLOCK
  5
8A
330
2D
100
AcDbEntity
  8
一般
390
1D
100
AcDbBlockBegin
  2
グループ-9
 70
     0
 71
     0
 10
0.0
 20
0.0
 30
0.0
  3
グループ-9
  1

  0
INSERT
  5
8B
330
2D
100
AcDbEntity
  8
一般
 62
     7
390
1D
100
AcDbBlockReference
  2
グループ-8
 10
0.0
 20
0.0
 30
0.0
  0
POLYLINE
  5
8C
330
2D
100
AcDbEntity
  8
一般
  6
Continuous
 62
     7
370
    25
390
1D
100
AcDb2dPolyline
 66
     1
 10
0.0
 20
0.0
 30
0.0
 70
     1
 75
     5
  0
VERTEX
  5
8D
330
8C
100
AcDbEntity
  8
一般
  6
Continuous
 62
     7
370
    25
390
1D
100
AcDbVertex
100
AcDb2dVertex
 10
-264.9976136912667
 20
187.5096933350688
 30
0.0
  0
VERTEX
  5
8E
330
8C
100
AcDbEntity
  8
一般
  6
Continuous
 62
     7
370
    25
390
1D
100
AcDbVertex
100
AcDb2dVertex
 10
-260.7976136912668
 20
187.5096933350688
 30
0.0
  0
VERTEX
  5
8F
330
8C
100
AcDbEntity
  8
一般
  6
Continuous
 62
     7
370
    25
390
1D
100
AcDbVertex
100
AcDb2dVertex
 10
-260.7976136912668
 20
180.5096933350688
 30
0.0
  0
VERTEX
  5
90
330
8C
100
AcDbEntity
  8
一般
  6
Continuous
 62
     7
370
    25
390
1D
100
AcDbVertex
100
AcDb2dVertex
 10
-264.9976136912667
 20
180.5096933350688
 30
0.0
  0
SEQEND
  5
91
330
8C
100
AcDbEntity
  8
一般
  6
Continuous
 62
     7
370
    25
390
1D
  0
POLYLINE
  5
93
330
2D
100
AcDbEntity
  8
一般
  6
Continuous
 62
     7
370
    25
390
1D
100
AcDb2dPolyline
 66
     1
 10
0.0
 20
0.0
 30
0.0
 70
     1
 75
     5
  0
VERTEX
  5
94
330
93
100
AcDbEntity
  8
一般
  6
Continuous
 62
     7
370
    25
390
1D
100
AcDbVertex
100
AcDb2dVertex
 10
-264.9976136912667
 20
-94.49030666493118
 30
0.0
  0
VERTEX
  5
95
330
93
100
AcDbEntity
  8
一般
  6
Continuous
 62
     7
370
    25
390
1D
100
AcDbVertex
100
AcDb2dVertex
 10
-260.7976136912668
 20
-94.49030666493118
 30
0.0
  0
VERTEX
  5
96
330
93
100
AcDbEntity
  8
一般
  6
Continuous
 62
     7
370
    25
390
1D
100
AcDbVertex
100
AcDb2dVertex
 10
-260.7976136912668
 20
-101.4903066649312
 30
0.0
  0
VERTEX
  5
97
330
93
100
AcDbEntity
  8
一般
  6
Continuous
 62
     7
370
    25
390
1D
100
AcDbVertex
100
AcDb2dVertex
 10
-264.9976136912667
 20
-101.4903066649312
 30
0.0
  0
SEQEND
  5
98
330
93
100
AcDbEntity
  8
一般
  6
Continuous
 62
     7
370
    25
390
1D
  0
ENDBLK
  5
9A
330
2D
100
AcDbEntity
  8
一般
390
1D
100
AcDbBlockEnd
  0
BLOCK
  5
9B
330
2E
100
AcDbEntity
  8
一般
390
1D
100
AcDbBlockBegin
  2
グループ-10
 70
     0
 71
     0
 10
0.0
 20
0.0
 30
0.0
  3
グループ-10
  1

  0
POLYLINE
  5
9C
330
2E
100
AcDbEntity
  8
一般
  6
Continuous
 62
     7
370
    13
390
1D
100
AcDb2dPolyline
 66
     1
 10
0.0
 20
0.0
 30
0.0
 70
     1
 75
     5
  0
VERTEX
  5
9D
330
9C
100
AcDbEntity
  8
一般
  6
Continuous
 62
     7
370
    13
390
1D
100
AcDbVertex
100
AcDb2dVertex
 10
-629.99874
 20
445.49949
 30
0.0
  0
VERTEX
  5
9E
330
9C
100
AcDbEntity
  8
一般
  6
Continuous
 62
     7
370
    13
390
1D
100
AcDbVertex
100
AcDb2dVertex
 10
629.99874
 20
445.49949
 30
0.0
  0
VERTEX
  5
9F
330
9C
100
AcDbEntity
  8
一般
  6
Continuous
 62
     7
370
    13
390
1D
100
AcDbVertex
100
AcDb2dVertex
 10
629.99874
 20
-445.49949
 30
0.0
  0
VERTEX
  5
A0
330
9C
100
AcDbEntity
  8
一般
  6
Continuous
 62
     7
370
    13
390
1D
100
AcDbVertex
100
AcDb2dVertex
 10
-629.99874
 20
-445.49949
 30
0.0
  0
SEQEND
  5
A1
330
9C
100
AcDbEntity
  8
一般
  6
Continuous
 62
     7
370
    13
390
1D
  0
POLYLINE
  5
A3
330
2E
100
AcDbEntity
  8
一般
  6
Continuous
 62
     7
370
    18
390
1D
100
AcDb2dPolyline
 66
     1
 10
0.0
 20
0.0
 30
0.0
 70
     1
 75
     5
  0
VERTEX
  5
A4
330
A3
100
AcDbEntity
  8
一般
  6
Continuous
 62
     7
370
    18
390
1D
100
AcDbVertex
100
AcDb2dVertex
 10
-569.99886
 20
385.4996100000001
 30
0.0
  0
VERTEX
  5
A5
330
A3
100
AcDbEntity
  8
一般
  6
Continuous
 62
     7
370
    18
390
1D
100
AcDbVertex
100
AcDb2dVertex
 10
569.99886
 20
385.4996100000001
 30
0.0
  0
VERTEX
  5
A6
330
A3
100
AcDbEntity
  8
一般
  6
Continuous
 62
     7
370
    18
390
1D
100
AcDbVertex
100
AcDb2dVertex
 10
569.99886
 20
-385.4996100000001
 30
0.0
  0
VERTEX
  5
A7
330
A3
100
AcDbEntity
  8
一般
  6
Continuous
 62
     7
370
    18
390
1D
100
AcDbVertex
100
AcDb2dVertex
 10
-569.99886
 20
-385.4996100000001
 30
0.0
  0
SEQEND
  5
A8
330
A3
100
AcDbEntity
  8
一般
  6
Continuous
 62
     7
370
    18
390
1D
  0
LINE
  5
AA
330
2E
100
AcDbEntity
  8
一般
  6
Continuous
 62
     7
370
    18
390
1D
100
AcDbLine
 10
-569.99886
 20
385.4996100000001
 30
0.0
 11
-569.99886
 21
414.4556100000001
 31
0.0
  0
LINE
  5
AB
330
2E
100
AcDbEntity
  8
一般
  6
Continuous
 62
     7
370
    18
390
1D
100
AcDbLine
 10
-379.9992400000001
 20
385.4996100000001
 30
0.0
 11
-379.9992400000001
 21
414.4556100000001
 31
0.0
  0
LINE
  5
AC
330
2E
100
AcDbEntity
  8
一般
  6
Continuous
 62
     7
370
    18
390
1D
100
AcDbLine
 10
-189.9996200000001
 20
385.4996100000001
 30
0.0
 11
-189.9996200000001
 21
414.4556100000001
 31
0.0
  0
LINE
  5
AD
330
2E
100
AcDbEntity
  8
一般
  6
Continuous
 62
     7
370
    18
390
1D
100
AcDbLine
 10
-0.0000000000001705
 20
385.4996100000001
 30
0.0
 11
-0.0000000000001705
 21
414.4556100000001
 31
0.0
  0
LINE
  5
AE
330
2E
100
AcDbEntity
  8
一般
  6
Continuous
 62
     7
370
    18
390
1D
100
AcDbLine
 10
189.9996199999998
 20
385.4996100000001
 30
0.0
 11
189.9996199999998
 21
414.4556100000001
 31
0.0
  0
LINE
  5
AF
330
2E
100
AcDbEntity
  8
一般
  6
Continuous
 62
     7
370
    18
390
1D
100
AcDbLine
 10
379.9992399999998
 20
385.4996100000001
 30
0.0
 11
379.9992399999998
 21
414.4556100000001
 31
0.0
  0
LINE
  5
B0
330
2E
100
AcDbEntity
  8
一般
  6
Continuous
 62
     7
370
    18
390
1D
100
AcDbLine
 10
569.9988599999997
 20
385.4996100000001
 30
0.0
 11
569.9988599999997
 21
414.4556100000001
 31
0.0
  0
LINE
  5
B1
330
2E
100
AcDbEntity
  8
一般
  6
Continuous
 62
     7
370
    18
390
1D
100
AcDbLine
 10
-569.99886
 20
-385.4996100000001
 30
0.0
 11
-569.99886
 21
-414.4556100000001
 31
0.0
  0
LINE
  5
B2
330
2E
100
AcDbEntity
  8
一般
  6
Continuous
 62
     7
370
    18
390
1D
100
AcDbLine
 10
-379.9992400000001
 20
-385.4996100000001
 30
0.0
 11
-379.9992400000001
 21
-414.4556100000001
 31
0.0
  0
LINE
  5
B3
330
2E
100
AcDbEntity
  8
一般
  6
Continuous
 62
     7
370
    18
390
1D
100
AcDbLine
 10
-189.9996200000001
 20
-385.4996100000001
 30
0.0
 11
-189.9996200000001
 21
-414.4556100000001
 31
0.0
  0
LINE
  5
B4
330
2E
100
AcDbEntity
  8
一般
  6
Continuous
 62
     7
370
    18
390
1D
100
AcDbLine
 10
-0.0000000000001705
 20
-385.4996100000001
 30
0.0
 11
-0.0000000000001705
 21
-414.4556100000001
 31
0.0
  0
LINE
  5
B5
330
2E
100
AcDbEntity
  8
一般
  6
Continuous
 62
     7
370
    18
390
1D
100
AcDbLine
 10
189.9996199999998
 20
-385.4996100000001
 30
0.0
 11
189.9996199999998
 21
-414.4556100000001
 31
0.0
  0
LINE
  5
B6
330
2E
100
AcDbEntity
  8
一般
  6
Continuous
 62
     7
370
    18
390
1D
100
AcDbLine
 10
379.9992399999998
 20
-385.4996100000001
 30
0.0
 11
379.9992399999998
 21
-414.4556100000001
 31
0.0
  0
LINE
  5
B7
330
2E
100
AcDbEntity
  8
一般
  6
Continuous
 62
     7
370
    18
390
1D
100
AcDbLine
 10
569.9988599999997
 20
-385.4996100000001
 30
0.0
 11
569.9988599999997
 21
-414.4556100000001
 31
0.0
  0
LINE
  5
B8
330
2E
100
AcDbEntity
  8
一般
  6
Continuous
 62
     7
370
    18
390
1D
100
AcDbLine
 10
-569.99886
 20
385.4996100000001
 30
0.0
 11
-598.95486
 21
385.4996100000001
 31
0.0
  0
LINE
  5
B9
330
2E
100
AcDbEntity
  8
一般
  6
Continuous
 62
     7
370
    18
390
1D
100
AcDbLine
 10
-569.99886
 20
192.749805
 30
0.0
 11
-598.95486
 21
192.749805
 31
0.0
  0
LINE
  5
BA
330
2E
100
AcDbEntity
  8
一般
  6
Continuous
 62
     7
370
    18
390
1D
100
AcDbLine
 10
-569.99886
 20
0.0
 30
0.0
 11
-598.95486
 21
0.0
 31
0.0
  0
LINE
  5
BB
330
2E
100
AcDbEntity
  8
一般
  6
Continuous
 62
     7
370
    18
390
1D
100
AcDbLine
 10
-569.99886
 20
-192.749805
 30
0.0
 11
-598.95486
 21
-192.749805
 31
0.0
  0
LINE
  5
BC
330
2E
100
AcDbEntity
  8
一般
  6
Continuous
 62
     7
370
    18
390
1D
100
AcDbLine
 10
-569.99886
 20
-385.4996100000001
 30
0.0
 11
-598.95486
 21
-385.4996100000001
 31
0.0
  0
LINE
  5
BD
330
2E
100
AcDbEntity
  8
一般
  6
Continuous
 62
     7
370
    18
390
1D
100
AcDbLine
 10
569.99886
 20
385.4996100000001
 30
0.0
 11
598.95486
 21
385.4996100000001
 31
0.0
  0
LINE
  5
BE
330
2E
100
AcDbEntity
  8
一般
  6
Continuous
 62
     7
370
    18
390
1D
100
AcDbLine
 10
569.99886
 20
192.749805
 30
0.0
 11
598.95486
 21
192.749805
 31
0.0
  0
LINE
  5
BF
330
2E
100
AcDbEntity
  8
一般
  6
Continuous
 62
     7
370
    18
390
1D
100
AcDbLine
 10
569.99886
 20
0.0
 30
0.0
 11
598.95486
 21
0.0
 31
0.0
  0
LINE
  5
C0
330
2E
100
AcDbEntity
  8
一般
  6
Continuous
 62
     7
370
    18
390
1D
100
AcDbLine
 10
569.99886
 20
-192.749805
 30
0.0
 11
598.95486
 21
-192.749805
 31
0.0
  0
LINE
  5
C1
330
2E
100
AcDbEntity
  8
一般
  6
Continuous
 62
     7
370
    18
390
1D
100
AcDbLine
 10
569.99886
 20
-385.4996100000001
 30
0.0
 11
598.95486
 21
-385.4996100000001
 31
0.0
  0
MTEXT
  5
C2
330
2E
100
AcDbEntity
  8
一般
 62
     7
390
1D
100
AcDbMText
 10
-474.9990500000001
 20
404.5496100000001
 30
0.0
 40
14.6595703125
 41
0.0
 71
     5
 72
     1
  1
1
  7
ＭＳ ゴシック (bold)
 73
     1
 44
0.7828267384257843
  0
MTEXT
  5
C3
330
2E
100
AcDbEntity
  8
一般
 62
     7
390
1D
100
AcDbMText
 10
-474.9990500000001
 20
-404.54961
 30
0.0
 40
14.6595703125
 41
0.0
 71
     5
 72
     1
  1
1
  7
ＭＳ ゴシック (bold)
 73
     1
 44
0.7828267384257843
  0
MTEXT
  5
C4
330
2E
100
AcDbEntity
  8
一般
 62
     7
390
1D
100
AcDbMText
 10
-284.9994300000001
 20
404.5496100000001
 30
0.0
 40
14.6595703125
 41
0.0
 71
     5
 72
     1
  1
2
  7
ＭＳ ゴシック (bold)
 73
     1
 44
0.7828267384257843
  0
MTEXT
  5
C5
330
2E
100
AcDbEntity
  8
一般
 62
     7
390
1D
100
AcDbMText
 10
-284.9994300000001
 20
-404.54961
 30
0.0
 40
14.6595703125
 41
0.0
 71
     5
 72
     1
  1
2
  7
ＭＳ ゴシック (bold)
 73
     1
 44
0.7828267384257843
  0
MTEXT
  5
C6
330
2E
100
AcDbEntity
  8
一般
 62
     7
390
1D
100
AcDbMText
 10
-94.99981000000011
 20
404.5496100000001
 30
0.0
 40
14.6595703125
 41
0.0
 71
     5
 72
     1
  1
3
  7
ＭＳ ゴシック (bold)
 73
     1
 44
0.7828267384257843
  0
MTEXT
  5
C7
330
2E
100
AcDbEntity
  8
一般
 62
     7
390
1D
100
AcDbMText
 10
-94.99981000000011
 20
-404.54961
 30
0.0
 40
14.6595703125
 41
0.0
 71
     5
 72
     1
  1
3
  7
ＭＳ ゴシック (bold)
 73
     1
 44
0.7828267384257843
  0
MTEXT
  5
C8
330
2E
100
AcDbEntity
  8
一般
 62
     7
390
1D
100
AcDbMText
 10
94.99980999999985
 20
404.5496100000001
 30
0.0
 40
14.6595703125
 41
0.0
 71
     5
 72
     1
  1
4
  7
ＭＳ ゴシック (bold)
 73
     1
 44
0.7828267384257843
  0
MTEXT
  5
C9
330
2E
100
AcDbEntity
  8
一般
 62
     7
390
1D
100
AcDbMText
 10
94.99980999999985
 20
-404.54961
 30
0.0
 40
14.6595703125
 41
0.0
 71
     5
 72
     1
  1
4
  7
ＭＳ ゴシック (bold)
 73
     1
 44
0.7828267384257843
  0
MTEXT
  5
CA
330
2E
100
AcDbEntity
  8
一般
 62
     7
390
1D
100
AcDbMText
 10
284.9994299999998
 20
404.5496100000001
 30
0.0
 40
14.6595703125
 41
0.0
 71
     5
 72
     1
  1
5
  7
ＭＳ ゴシック (bold)
 73
     1
 44
0.7828267384257843
  0
MTEXT
  5
CB
330
2E
100
AcDbEntity
  8
一般
 62
     7
390
1D
100
AcDbMText
 10
284.9994299999998
 20
-404.54961
 30
0.0
 40
14.6595703125
 41
0.0
 71
     5
 72
     1
  1
5
  7
ＭＳ ゴシック (bold)
 73
     1
 44
0.7828267384257843
  0
MTEXT
  5
CC
330
2E
100
AcDbEntity
  8
一般
 62
     7
390
1D
100
AcDbMText
 10
474.9990499999998
 20
404.5496100000001
 30
0.0
 40
14.6595703125
 41
0.0
 71
     5
 72
     1
  1
6
  7
ＭＳ ゴシック (bold)
 73
     1
 44
0.7828267384257843
  0
MTEXT
  5
CD
330
2E
100
AcDbEntity
  8
一般
 62
     7
390
1D
100
AcDbMText
 10
474.9990499999998
 20
-404.54961
 30
0.0
 40
14.6595703125
 41
0.0
 71
     5
 72
     1
  1
6
  7
ＭＳ ゴシック (bold)
 73
     1
 44
0.7828267384257843
  0
MTEXT
  5
CE
330
2E
100
AcDbEntity
  8
一般
 62
     7
390
1D
100
AcDbMText
 10
-589.04886
 20
289.1247075000001
 30
0.0
 40
14.6595703125
 41
0.0
 71
     5
 72
     1
  1
A
  7
ＭＳ ゴシック (bold)
 73
     1
 44
0.7828267384257843
  0
MTEXT
  5
CF
330
2E
100
AcDbEntity
  8
一般
 62
     7
390
1D
100
AcDbMText
 10
589.0488599999999
 20
289.1247075000001
 30
0.0
 40
14.6595703125
 41
0.0
 71
     5
 72
     1
  1
A
  7
ＭＳ ゴシック (bold)
 73
     1
 44
0.7828267384257843
  0
MTEXT
  5
D0
330
2E
100
AcDbEntity
  8
一般
 62
     7
390
1D
100
AcDbMText
 10
-589.04886
 20
96.37490250000002
 30
0.0
 40
14.6595703125
 41
0.0
 71
     5
 72
     1
  1
B
  7
ＭＳ ゴシック (bold)
 73
     1
 44
0.7828267384257843
  0
MTEXT
  5
D1
330
2E
100
AcDbEntity
  8
一般
 62
     7
390
1D
100
AcDbMText
 10
589.0488599999999
 20
96.37490250000002
 30
0.0
 40
14.6595703125
 41
0.0
 71
     5
 72
     1
  1
B
  7
ＭＳ ゴシック (bold)
 73
     1
 44
0.7828267384257843
  0
MTEXT
  5
D2
330
2E
100
AcDbEntity
  8
一般
 62
     7
390
1D
100
AcDbMText
 10
-589.04886
 20
-96.37490250000002
 30
0.0
 40
14.6595703125
 41
0.0
 71
     5
 72
     1
  1
C
  7
ＭＳ ゴシック (bold)
 73
     1
 44
0.7828267384257843
  0
MTEXT
  5
D3
330
2E
100
AcDbEntity
  8
一般
 62
     7
390
1D
100
AcDbMText
 10
589.0488599999999
 20
-96.37490250000002
 30
0.0
 40
14.6595703125
 41
0.0
 71
     5
 72
     1
  1
C
  7
ＭＳ ゴシック (bold)
 73
     1
 44
0.7828267384257843
  0
MTEXT
  5
D4
330
2E
100
AcDbEntity
  8
一般
 62
     7
390
1D
100
AcDbMText
 10
-589.04886
 20
-289.1247075000001
 30
0.0
 40
14.6595703125
 41
0.0
 71
     5
 72
     1
  1
D
  7
ＭＳ ゴシック (bold)
 73
     1
 44
0.7828267384257843
  0
MTEXT
  5
D5
330
2E
100
AcDbEntity
  8
一般
 62
     7
390
1D
100
AcDbMText
 10
589.0488599999999
 20
-289.1247075000001
 30
0.0
 40
14.6595703125
 41
0.0
 71
     5
 72
     1
  1
D
  7
ＭＳ ゴシック (bold)
 73
     1
 44
0.7828267384257843
  0
ENDBLK
  5
D6
330
2E
100
AcDbEntity
  8
一般
390
1D
100
AcDbBlockEnd
  0
BLOCK
  5
D7
330
2F
100
AcDbEntity
  8
一般
390
1D
100
AcDbBlockBegin
  2
Drawing Border - Universal
 70
     0
 71
     0
 10
0.0
 20
0.0
 30
0.0
  3
Drawing Border - Universal
  1

  0
INSERT
  5
D8
330
2F
100
AcDbEntity
  8
一般
 62
     7
390
1D
100
AcDbBlockReference
  2
グループ-10
 10
0.0
 20
0.0
 30
0.0
  0
ENDBLK
  5
D9
330
2F
100
AcDbEntity
  8
一般
390
1D
100
AcDbBlockEnd
  0
BLOCK
  5
DA
330
30
100
AcDbEntity
  8
寸法
390
1D
100
AcDbBlockBegin
  2
グループ-11
 70
     0
 71
     0
 10
0.0
 20
0.0
 30
0.0
  3
グループ-11
  1

  0
CIRCLE
  5
DB
330
30
100
AcDbEntity
  8
寸法
  6
Continuous
 62
     7
370
    18
390
1D
100
AcDbCircle
 10
135.0023863087336
 20
43.00969333506882
 30
0.0
 40
175.0000000000007
  0
CIRCLE
  5
DC
330
30
100
AcDbEntity
  8
寸法
  6
Continuous
 62
     7
370
    18
390
1D
100
AcDbCircle
 10
135.0023863087336
 20
43.00969333506882
 30
0.0
 40
82.6
  0
CIRCLE
  5
DD
330
30
100
AcDbEntity
  8
寸法
  6
Continuous
 62
     7
370
    18
390
1D
100
AcDbCircle
 10
135.0023863087336
 20
43.00969333506882
 30
0.0
 40
117.5000000000007
  0
CIRCLE
  5
DE
330
30
100
AcDbEntity
  8
寸法
  6
Continuous
 62
     7
370
    18
390
1D
100
AcDbCircle
 10
175.1841467070682
 20
140.017044248754
 30
0.0
 40
6.000000000000068
  0
CIRCLE
  5
DF
330
30
100
AcDbEntity
  8
寸法
  6
Continuous
 62
     7
370
    18
390
1D
100
AcDbCircle
 10
175.1841467070682
 20
-53.9976575786163
 30
0.0
 40
6.000000000000068
  0
CIRCLE
  5
E0
330
30
100
AcDbEntity
  8
寸法
  6
Continuous
 62
     7
370
    18
390
1D
100
AcDbCircle
 10
37.99503539504846
 20
83.19145373340326
 30
0.0
 40
6.000000000000008
  0
CIRCLE
  5
E1
330
30
100
AcDbEntity
  8
寸法
  6
Continuous
 62
     7
370
    18
390
1D
100
AcDbCircle
 10
37.99503539504848
 20
2.827932936734403
 30
0.0
 40
6.000000000000001
  0
CIRCLE
  5
E2
330
30
100
AcDbEntity
  8
寸法
  6
Continuous
 62
     7
370
    18
390
1D
100
AcDbCircle
 10
94.82062591039917
 20
140.0170442487539
 30
0.0
 40
6.000000000000008
  0
CIRCLE
  5
E3
330
30
100
AcDbEntity
  8
寸法
  6
Continuous
 62
     7
370
    18
390
1D
100
AcDbCircle
 10
232.0097372224197
 20
83.19145373340324
 30
0.0
 40
5.999999999999988
  0
CIRCLE
  5
E4
330
30
100
AcDbEntity
  8
寸法
  6
Continuous
 62
     7
370
    18
390
1D
100
AcDbCircle
 10
94.82062591039914
 20
-53.9976575786163
 30
0.0
 40
6.000000000000008
  0
CIRCLE
  5
E5
330
30
100
AcDbEntity
  8
寸法
  6
Continuous
 62
     7
370
    18
390
1D
100
AcDbCircle
 10
232.0097372224197
 20
2.827932936734388
 30
0.0
 40
6.000000000000031
  0
CIRCLE
  5
E6
330
30
100
AcDbEntity
  8
寸法
  6
STYLE_05
 62
     7
370
    18
390
1D
100
AcDbCircle
 10
135.0023863087336
 20
43.00969333506882
 30
0.0
 40
105.0
  0
CIRCLE
  5
E7
330
30
100
AcDbEntity
  8
寸法
  6
Continuous
 62
     7
370
    18
390
1D
100
AcDbCircle
 10
176.4134335251371
 20
-111.5384388711821
 30
0.0
 40
7.500000000000057
  0
CIRCLE
  5
E8
330
30
100
AcDbEntity
  8
寸法
  6
Continuous
 62
     7
370
    18
390
1D
100
AcDbCircle
 10
-19.54574589751726
 20
84.42074055147216
 30
0.0
 40
7.5
  0
CIRCLE
  5
E9
330
30
100
AcDbEntity
  8
寸法
  6
Continuous
 62
     7
370
    18
390
1D
100
AcDbCircle
 10
248.1394712985822
 20
156.1467783249164
 30
0.0
 40
7.499999999999975
  0
CIRCLE
  5
EA
330
30
100
AcDbEntity
  8
寸法
  6
Continuous
 62
     7
370
    18
390
1D
100
AcDbCircle
 10
-19.54574589751729
 20
1.598646118665531
 30
0.0
 40
7.500000000000004
  0
CIRCLE
  5
EB
330
30
100
AcDbEntity
  8
寸法
  6
Continuous
 62
     7
370
    18
390
1D
100
AcDbCircle
 10
176.4134335251371
 20
197.5578255413197
 30
0.0
 40
7.500000000000057
  0
CIRCLE
  5
EC
330
30
100
AcDbEntity
  8
寸法
  6
Continuous
 62
     7
370
    18
390
1D
100
AcDbCircle
 10
289.5505185149856
 20
1.598646118665418
 30
0.0
 40
7.500000000000004
  0
CIRCLE
  5
ED
330
30
100
AcDbEntity
  8
寸法
  6
Continuous
 62
     7
370
    18
390
1D
100
AcDbCircle
 10
248.1394712985822
 20
-70.12739165477879
 30
0.0
 40
7.5
  0
CIRCLE
  5
EE
330
30
100
AcDbEntity
  8
寸法
  6
Continuous
 62
     7
370
    18
390
1D
100
AcDbCircle
 10
94.82062591039914
 20
-111.5384388711821
 30
0.0
 40
7.5
  0
CIRCLE
  5
EF
330
30
100
AcDbEntity
  8
寸法
  6
Continuous
 62
     7
370
    18
390
1D
100
AcDbCircle
 10
21.86530131888601
 20
-70.12739165477873
 30
0.0
 40
7.5
  0
CIRCLE
  5
F0
330
30
100
AcDbEntity
  8
寸法
  6
Continuous
 62
     7
370
    18
390
1D
100
AcDbCircle
 10
289.5505185149855
 20
84.42074055147216
 30
0.0
 40
7.5
  0
CIRCLE
  5
F1
330
30
100
AcDbEntity
  8
寸法
  6
Continuous
 62
     7
370
    18
390
1D
100
AcDbCircle
 10
21.86530131888607
 20
156.1467783249165
 30
0.0
 40
7.499999999999975
  0
CIRCLE
  5
F2
330
30
100
AcDbEntity
  8
寸法
  6
Continuous
 62
     7
370
    18
390
1D
100
AcDbCircle
 10
93.59133909233032
 20
197.5578255413198
 30
0.0
 40
7.5
  0
CIRCLE
  5
F3
330
30
100
AcDbEntity
  8
寸法
  6
STYLE_05
 62
     7
370
    18
390
1D
100
AcDbCircle
 10
135.0023863087336
 20
43.00969333506882
 30
0.0
 40
160.0
  0
ENDBLK
  5
F4
330
30
100
AcDbEntity
  8
寸法
390
1D
100
AcDbBlockEnd
  0
BLOCK
  5
F5
330
31
100
AcDbEntity
  8
寸法
390
1D
100
AcDbBlockBegin
  2
*D15
 70
     1
 71
     0
 10
0.0
 20
0.0
 30
0.0
  3
*D15
  1

  0
LINE
  5
F6
330
31
100
AcDbEntity
  8
寸法
  6
STYLE_01
 62
     0
370
    -2
390
1D
100
AcDbLine
 10
295.2375
 20
117.5000000000007
 30
0.0
 11
-283.525
 21
117.5000000000007
 31
0.0
  0
LINE
  5
F7
330
31
100
AcDbEntity
  8
寸法
  6
STYLE_01
 62
     0
370
    -2
390
1D
100
AcDbLine
 10
295.2375
 20
-117.5000000000007
 30
0.0
 11
-283.525
 21
-117.5000000000007
 31
0.0
  0
LINE
  5
F8
330
31
100
AcDbEntity
  8
寸法
  6
STYLE_01
 62
     0
370
    -2
390
1D
100
AcDbLine
 10
-274.0
 20
122.2625000000006
 30
0.0
 11
-274.0
 21
117.5000000000007
 31
0.0
  0
LINE
  5
F9
330
31
100
AcDbEntity
  8
寸法
  6
STYLE_01
 62
     0
370
    -2
390
1D
100
AcDbLine
 10
-274.0
 20
-117.5000000000007
 30
0.0
 11
-274.0
 21
-122.2625000000007
 31
0.0
  0
LINE
  5
FA
330
31
100
AcDbEntity
  8
寸法
  6
STYLE_01
 62
     0
370
    -2
390
1D
100
AcDbLine
 10
-274.0
 20
117.5000000000007
 30
0.0
 11
-274.0
 21
-117.5000000000007
 31
0.0
  0
LINE
  5
FB
330
31
100
AcDbEntity
  8
寸法
  6
STYLE_01
 62
     0
370
    20
390
1D
100
AcDbLine
 10
-270.632403954599
 20
114.1324039545997
 30
0.0
 11
-277.3675960454009
 21
120.8675960454016
 31
0.0
  0
LINE
  5
FC
330
31
100
AcDbEntity
  8
寸法
  6
STYLE_01
 62
     0
370
    20
390
1D
100
AcDbLine
 10
-277.3675960454009
 20
-114.1324039545997
 30
0.0
 11
-270.632403954599
 21
-120.8675960454016
 31
0.0
  0
WIPEOUT
  5
FD
330
31
100
AcDbEntity
  8
寸法
  6
STYLE_01
 62
     0
370
    -2
390
1D
 92
      308
310
3401000002000000A80000000B00000044444444445972C0096D3A9685956840000000000000000000000000000000000000000000000000000000000000F03F000000000000F03F0000000000000000000000000000000041634462576970656F757400FFFFFFFF000000000000000000000000000000000000F03F000000
310
0000000000000000000000F03F000000000000000000000000000000000000000074787400424947464F4E542E5348580084000000060000000500000044444444445972C0096D3A96859568400000000000000000CDCC8CFE8DEE70C0096D3A96859568400000000000000000CDCC8CFE8DEE70C0F85BA921F26A6B400000
310
00000000000044444444445972C0F85BA921F26A6B40000000000000000044444444445972C0096D3A96859568400000000000000000
100
AcDbWipeout
 90
        0
 10
-293.5791666666667
 20
196.672556985963
 30
0.0
 11
22.66950008074442
 21
0.0
 31
0.0
 12
0.0
 22
22.66950008074442
 32
0.0
 13
1.0
 23
1.0
340
0
 70
     7
280
     1
281
    50
282
    50
283
     0
360
0
 71
     2
 91
        5
 14
0.1535947689138479
 24
9.675645968612143
 14
0.1535947689138479
 24
8.675645968612145
 14
-0.5
 24
8.675645968612145
 14
-0.5
 24
9.675645968612143
 14
0.1535947689138479
 24
9.675645968612143
  0
MTEXT
  5
FE
330
31
100
AcDbEntity
  8
寸法
 62
     0
390
1D
100
AcDbMText
 10
-292.2387213541667
 20
-11.33475004037221
 30
0.0
 40
11.40188802083333
 41
0.0
 71
     1
 72
     1
  1
235
  7
ＭＳ ゴシック (bold)
 11
0.0
 21
1.0
 31
0.0
 73
     1
 44
0.7828267384257843
  0
POINT
  5
FF
330
31
100
AcDbEntity
  8
Defpoints
 62
     0
370
     0
390
1D
100
AcDbPoint
 10
300.0
 20
-117.5000000000007
 30
0.0
  0
POINT
  5
100
330
31
100
AcDbEntity
  8
Defpoints
 62
     0
370
     0
390
1D
100
AcDbPoint
 10
300.0
 20
117.5000000000007
 30
0.0
  0
POINT
  5
101
330
31
100
AcDbEntity
  8
Defpoints
 62
     0
370
     0
390
1D
100
AcDbPoint
 10
-274.0
 20
117.5000000000007
 30
0.0
  0
ENDBLK
  5
102
330
31
100
AcDbEntity
  8
寸法
390
1D
100
AcDbBlockEnd
  0
BLOCK
  5
103
330
32
100
AcDbEntity
  8
寸法
390
1D
100
AcDbBlockBegin
  2
*D16
 70
     1
 71
     0
 10
0.0
 20
0.0
 30
0.0
  3
*D16
  1

  0
LINE
  5
104
330
32
100
AcDbEntity
  8
寸法
  6
STYLE_01
 62
     0
370
    -2
390
1D
100
AcDbLine
 10
295.2375
 20
175.0000000000007
 30
0.0
 11
-376.525
 21
175.0000000000007
 31
0.0
  0
LINE
  5
105
330
32
100
AcDbEntity
  8
寸法
  6
STYLE_01
 62
     0
370
    -2
390
1D
100
AcDbLine
 10
295.2375
 20
-175.0000000000007
 30
0.0
 11
-376.525
 21
-175.0000000000007
 31
0.0
  0
LINE
  5
106
330
32
100
AcDbEntity
  8
寸法
  6
STYLE_01
 62
     0
370
    -2
390
1D
100
AcDbLine
 10
-367.0
 20
179.7625000000006
 30
0.0
 11
-367.0
 21
175.0000000000007
 31
0.0
  0
LINE
  5
107
330
32
100
AcDbEntity
  8
寸法
  6
STYLE_01
 62
     0
370
    -2
390
1D
100
AcDbLine
 10
-367.0
 20
-175.0000000000007
 30
0.0
 11
-367.0
 21
-179.7625000000006
 31
0.0
  0
LINE
  5
108
330
32
100
AcDbEntity
  8
寸法
  6
STYLE_01
 62
     0
370
    -2
390
1D
100
AcDbLine
 10
-367.0
 20
175.0000000000007
 30
0.0
 11
-367.0
 21
-175.0000000000007
 31
0.0
  0
LINE
  5
109
330
32
100
AcDbEntity
  8
寸法
  6
STYLE_01
 62
     0
370
    20
390
1D
100
AcDbLine
 10
-363.6324039545991
 20
171.6324039545997
 30
0.0
 11
-370.3675960454009
 21
178.3675960454016
 31
0.0
  0
LINE
  5
10A
330
32
100
AcDbEntity
  8
寸法
  6
STYLE_01
 62
     0
370
    20
390
1D
100
AcDbLine
 10
-370.3675960454009
 20
-171.6324039545997
 30
0.0
 11
-363.6324039545991
 21
-178.3675960454016
 31
0.0
  0
WIPEOUT
  5
10B
330
32
100
AcDbEntity
  8
寸法
  6
STYLE_01
 62
     0
370
    -2
390
1D
 92
      308
310
3401000002000000A80000000B00000044444444442978C0096D3A9685956840000000000000000000000000000000000000000000000000000000000000F03F000000000000F03F0000000000000000000000000000000041634462576970656F757400FFFFFFFF000000000000000000000000000000000000F03F000000
310
0000000000000000000000F03F000000000000000000000000000000000000000074787400424947464F4E542E5348580084000000060000000500000044444444442978C0096D3A96859568400000000000000000CDCC8CFE8DBE76C0096D3A96859568400000000000000000CDCC8CFE8DBE76C0F85BA921F26A6B400000
310
00000000000044444444442978C0F85BA921F26A6B40000000000000000044444444442978C0096D3A96859568400000000000000000
100
AcDbWipeout
 90
        0
 10
-386.5791666666667
 20
196.672556985963
 30
0.0
 11
22.66950008074442
 21
0.0
 31
0.0
 12
0.0
 22
22.66950008074442
 32
0.0
 13
1.0
 23
1.0
340
0
 70
     7
280
     1
281
    50
282
    50
283
     0
360
0
 71
     2
 91
        5
 14
0.1535947689138529
 24
9.675645968612143
 14
0.1535947689138529
 24
8.675645968612145
 14
-0.5
 24
8.675645968612145
 14
-0.5
 24
9.675645968612143
 14
0.1535947689138529
 24
9.675645968612143
  0
MTEXT
  5
10C
330
32
100
AcDbEntity
  8
寸法
 62
     0
390
1D
100
AcDbMText
 10
-385.2387213541666
 20
-11.33475004037221
 30
0.0
 40
11.40188802083333
 41
0.0
 71
     1
 72
     1
  1
350
  7
ＭＳ ゴシック (bold)
 11
0.0
 21
1.0
 31
0.0
 73
     1
 44
0.7828267384257843
  0
POINT
  5
10D
330
32
100
AcDbEntity
  8
Defpoints
 62
     0
370
     0
390
1D
100
AcDbPoint
 10
300.0
 20
-175.0000000000007
 30
0.0
  0
POINT
  5
10E
330
32
100
AcDbEntity
  8
Defpoints
 62
     0
370
     0
390
1D
100
AcDbPoint
 10
300.0
 20
175.0000000000007
 30
0.0
  0
POINT
  5
10F
330
32
100
AcDbEntity
  8
Defpoints
 62
     0
370
     0
390
1D
100
AcDbPoint
 10
-367.0
 20
175.0000000000007
 30
0.0
  0
ENDBLK
  5
110
330
32
100
AcDbEntity
  8
寸法
390
1D
100
AcDbBlockEnd
  0
BLOCK
  5
111
330
33
100
AcDbEntity
  8
寸法
390
1D
100
AcDbBlockBegin
  2
*D17
 70
     1
 71
     0
 10
0.0
 20
0.0
 30
0.0
  3
*D17
  1

  0
LINE
  5
112
330
33
100
AcDbEntity
  8
寸法
  6
STYLE_01
 62
     0
370
    -2
390
1D
100
AcDbLine
 10
295.2375
 20
105.0
 30
0.0
 11
-233.5249999999999
 21
105.0
 31
0.0
  0
LINE
  5
113
330
33
100
AcDbEntity
  8
寸法
  6
STYLE_01
 62
     0
370
    -2
390
1D
100
AcDbLine
 10
295.2375
 20
-105.0
 30
0.0
 11
-233.5249999999999
 21
-105.0
 31
0.0
  0
LINE
  5
114
330
33
100
AcDbEntity
  8
寸法
  6
STYLE_01
 62
     0
370
    -2
390
1D
100
AcDbLine
 10
-224.0
 20
109.7625
 30
0.0
 11
-224.0
 21
105.0
 31
0.0
  0
LINE
  5
115
330
33
100
AcDbEntity
  8
寸法
  6
STYLE_01
 62
     0
370
    -2
390
1D
100
AcDbLine
 10
-224.0
 20
-105.0
 30
0.0
 11
-224.0
 21
-109.7625
 31
0.0
  0
LINE
  5
116
330
33
100
AcDbEntity
  8
寸法
  6
STYLE_01
 62
     0
370
    -2
390
1D
100
AcDbLine
 10
-224.0
 20
105.0
 30
0.0
 11
-224.0
 21
-105.0
 31
0.0
  0
LINE
  5
117
330
33
100
AcDbEntity
  8
寸法
  6
STYLE_01
 62
     0
370
    20
390
1D
100
AcDbLine
 10
-220.632403954599
 20
101.632403954599
 30
0.0
 11
-227.3675960454009
 21
108.3675960454009
 31
0.0
  0
LINE
  5
118
330
33
100
AcDbEntity
  8
寸法
  6
STYLE_01
 62
     0
370
    20
390
1D
100
AcDbLine
 10
-227.3675960454009
 20
-101.6324039545991
 30
0.0
 11
-220.632403954599
 21
-108.3675960454009
 31
0.0
  0
WIPEOUT
  5
119
330
33
100
AcDbEntity
  8
寸法
  6
STYLE_01
 62
     0
370
    -2
390
1D
 92
      308
310
3401000002000000A80000000B0000008988888888726EC0086D3A9685956840000000000000000000000000000000000000000000000000000000000000F03F000000000000F03F0000000000000000000000000000000041634462576970656F757400FFFFFFFF000000000000000000000000000000000000F03F000000
310
0000000000000000000000F03F000000000000000000000000000000000000000074787400424947464F4E542E534858008400000006000000050000008988888888726EC0086D3A968595684000000000000000009A9919FD1B9D6BC0086D3A968595684000000000000000009A9919FD1B9D6BC0F75BA921F26A6B400000
310
0000000000008988888888726EC0F75BA921F26A6B4000000000000000008988888888726EC0086D3A96859568400000000000000000
100
AcDbWipeout
 90
        0
 10
-243.5791666666667
 20
196.672556985963
 30
0.0
 11
22.66950008074442
 21
0.0
 31
0.0
 12
0.0
 22
22.66950008074442
 32
0.0
 13
1.0
 23
1.0
340
0
 70
     7
280
     1
281
    50
282
    50
283
     0
360
0
 71
     2
 91
        5
 14
0.1535947689138504
 24
9.675645968612143
 14
0.1535947689138504
 24
8.675645968612143
 14
-0.5
 24
8.675645968612143
 14
-0.5
 24
9.675645968612143
 14
0.1535947689138504
 24
9.675645968612143
  0
MTEXT
  5
11A
330
33
100
AcDbEntity
  8
寸法
 62
     0
390
1D
100
AcDbMText
 10
-242.2387213541667
 20
-11.33475004037221
 30
0.0
 40
11.40188802083333
 41
0.0
 71
     1
 72
     1
  1
210
  7
ＭＳ ゴシック (bold)
 11
0.0
 21
1.0
 31
0.0
 73
     1
 44
0.7828267384257843
  0
POINT
  5
11B
330
33
100
AcDbEntity
  8
Defpoints
 62
     0
370
     0
390
1D
100
AcDbPoint
 10
300.0
 20
-105.0
 30
0.0
  0
POINT
  5
11C
330
33
100
AcDbEntity
  8
Defpoints
 62
     0
370
     0
390
1D
100
AcDbPoint
 10
300.0
 20
105.0
 30
0.0
  0
POINT
  5
11D
330
33
100
AcDbEntity
  8
Defpoints
 62
     0
370
     0
390
1D
100
AcDbPoint
 10
-224.0
 20
105.0
 30
0.0
  0
ENDBLK
  5
11E
330
33
100
AcDbEntity
  8
寸法
390
1D
100
AcDbBlockEnd
  0
BLOCK
  5
11F
330
34
100
AcDbEntity
  8
寸法
390
1D
100
AcDbBlockBegin
  2
*D18
 70
     1
 71
     0
 10
0.0
 20
0.0
 30
0.0
  3
*D18
  1

  0
LINE
  5
120
330
34
100
AcDbEntity
  8
寸法
  6
STYLE_01
 62
     0
370
    -2
390
1D
100
AcDbLine
 10
295.2375000000001
 20
160.0
 30
0.0
 11
-327.525
 21
160.0
 31
0.0
  0
LINE
  5
121
330
34
100
AcDbEntity
  8
寸法
  6
STYLE_01
 62
     0
370
    -2
390
1D
100
AcDbLine
 10
295.2375000000001
 20
-160.0
 30
0.0
 11
-327.525
 21
-160.0
 31
0.0
  0
LINE
  5
122
330
34
100
AcDbEntity
  8
寸法
  6
STYLE_01
 62
     0
370
    -2
390
1D
100
AcDbLine
 10
-318.0
 20
164.7625
 30
0.0
 11
-318.0
 21
160.0
 31
0.0
  0
LINE
  5
123
330
34
100
AcDbEntity
  8
寸法
  6
STYLE_01
 62
     0
370
    -2
390
1D
100
AcDbLine
 10
-318.0
 20
-160.0
 30
0.0
 11
-318.0
 21
-164.7625
 31
0.0
  0
LINE
  5
124
330
34
100
AcDbEntity
  8
寸法
  6
STYLE_01
 62
     0
370
    -2
390
1D
100
AcDbLine
 10
-318.0
 20
160.0
 30
0.0
 11
-318.0
 21
-160.0
 31
0.0
  0
LINE
  5
125
330
34
100
AcDbEntity
  8
寸法
  6
STYLE_01
 62
     0
370
    20
390
1D
100
AcDbLine
 10
-314.632403954599
 20
156.6324039545991
 30
0.0
 11
-321.3675960454009
 21
163.3675960454009
 31
0.0
  0
LINE
  5
126
330
34
100
AcDbEntity
  8
寸法
  6
STYLE_01
 62
     0
370
    20
390
1D
100
AcDbLine
 10
-321.3675960454009
 20
-156.6324039545991
 30
0.0
 11
-314.632403954599
 21
-163.3675960454009
 31
0.0
  0
WIPEOUT
  5
127
330
34
100
AcDbEntity
  8
寸法
  6
STYLE_01
 62
     0
370
    -2
390
1D
 92
      308
310
3401000002000000A80000000B00000044444444441975C0096D3A9685956840000000000000000000000000000000000000000000000000000000000000F03F000000000000F03F0000000000000000000000000000000041634462576970656F757400FFFFFFFF000000000000000000000000000000000000F03F000000
310
0000000000000000000000F03F000000000000000000000000000000000000000074787400424947464F4E542E5348580084000000060000000500000044444444441975C0096D3A96859568400000000000000000CDCC8CFE8DAE73C0096D3A96859568400000000000000000CDCC8CFE8DAE73C0F85BA921F26A6B400000
310
00000000000044444444441975C0F85BA921F26A6B40000000000000000044444444441975C0096D3A96859568400000000000000000
100
AcDbWipeout
 90
        0
 10
-337.5791666666667
 20
196.672556985963
 30
0.0
 11
22.66950008074442
 21
0.0
 31
0.0
 12
0.0
 22
22.66950008074442
 32
0.0
 13
1.0
 23
1.0
340
0
 70
     7
280
     1
281
    50
282
    50
283
     0
360
0
 71
     2
 91
        5
 14
0.1535947689138479
 24
9.675645968612143
 14
0.1535947689138479
 24
8.675645968612145
 14
-0.5
 24
8.675645968612145
 14
-0.5
 24
9.675645968612143
 14
0.1535947689138479
 24
9.675645968612143
  0
MTEXT
  5
128
330
34
100
AcDbEntity
  8
寸法
 62
     0
390
1D
100
AcDbMText
 10
-336.2387213541667
 20
-11.33475004037221
 30
0.0
 40
11.40188802083333
 41
0.0
 71
     1
 72
     1
  1
320
  7
ＭＳ ゴシック (bold)
 11
0.0
 21
1.0
 31
0.0
 73
     1
 44
0.7828267384257843
  0
POINT
  5
129
330
34
100
AcDbEntity
  8
Defpoints
 62
     0
370
     0
390
1D
100
AcDbPoint
 10
300.0
 20
-160.0
 30
0.0
  0
POINT
  5
12A
330
34
100
AcDbEntity
  8
Defpoints
 62
     0
370
     0
390
1D
100
AcDbPoint
 10
300.0
 20
160.0
 30
0.0
  0
POINT
  5
12B
330
34
100
AcDbEntity
  8
Defpoints
 62
     0
370
     0
390
1D
100
AcDbPoint
 10
-318.0
 20
160.0
 30
0.0
  0
ENDBLK
  5
12C
330
34
100
AcDbEntity
  8
寸法
390
1D
100
AcDbBlockEnd
  0
BLOCK
  5
12D
330
35
100
AcDbEntity
  8
寸法
390
1D
100
AcDbBlockBegin
  2
*D19
 70
     1
 71
     0
 10
0.0
 20
0.0
 30
0.0
  3
*D19
  1

  0
LINE
  5
12E
330
35
100
AcDbEntity
  8
寸法
  6
STYLE_01
 62
     0
370
    -2
390
1D
100
AcDbLine
 10
295.2375
 20
82.6
 30
0.0
 11
-189.5249999999999
 21
82.6
 31
0.0
  0
LINE
  5
12F
330
35
100
AcDbEntity
  8
寸法
  6
STYLE_01
 62
     0
370
    -2
390
1D
100
AcDbLine
 10
295.2375
 20
-82.6
 30
0.0
 11
-189.5249999999999
 21
-82.6
 31
0.0
  0
LINE
  5
130
330
35
100
AcDbEntity
  8
寸法
  6
STYLE_01
 62
     0
370
    -2
390
1D
100
AcDbLine
 10
-180.0
 20
87.36249999999998
 30
0.0
 11
-180.0
 21
82.6
 31
0.0
  0
LINE
  5
131
330
35
100
AcDbEntity
  8
寸法
  6
STYLE_01
 62
     0
370
    -2
390
1D
100
AcDbLine
 10
-180.0
 20
-82.6
 30
0.0
 11
-180.0
 21
-87.3625
 31
0.0
  0
LINE
  5
132
330
35
100
AcDbEntity
  8
寸法
  6
STYLE_01
 62
     0
370
    -2
390
1D
100
AcDbLine
 10
-180.0
 20
82.6
 30
0.0
 11
-180.0
 21
-82.6
 31
0.0
  0
LINE
  5
133
330
35
100
AcDbEntity
  8
寸法
  6
STYLE_01
 62
     0
370
    20
390
1D
100
AcDbLine
 10
-176.632403954599
 20
79.23240395459906
 30
0.0
 11
-183.3675960454009
 21
85.96759604540094
 31
0.0
  0
LINE
  5
134
330
35
100
AcDbEntity
  8
寸法
  6
STYLE_01
 62
     0
370
    20
390
1D
100
AcDbLine
 10
-183.3675960454009
 20
-79.23240395459906
 30
0.0
 11
-176.632403954599
 21
-85.96759604540092
 31
0.0
  0
WIPEOUT
  5
135
330
35
100
AcDbEntity
  8
寸法
  6
STYLE_01
 62
     0
370
    -2
390
1D
 92
      308
310
3401000002000000A80000000B0000008788888888F268C06FD360BCB6A36740000000000000000000000000000000000000000000000000000000000000F03F000000000000F03F0000000000000000000000000000000041634462576970656F757400FFFFFFFF000000000000000000000000000000000000F03F000000
310
0000000000000000000000F03F000000000000000000000000000000000000000074787400424947464F4E542E534858008400000006000000050000008788888888F268C06FD360BCB6A367400000000000000000656666497E3964C06FD360BCB6A367400000000000000000656666497E3964C091F582FBC05C6C400000
310
0000000000008788888888F268C091F582FBC05C6C4000000000000000008788888888F268C06FD360BCB6A367400000000000000000
100
AcDbWipeout
 90
        0
 10
-199.5791666666666
 20
189.1160566226131
 30
0.0
 11
37.78250080744425
 21
0.0
 31
0.0
 12
0.0
 22
37.78250080744425
 32
0.0
 13
1.0
 23
1.0
340
0
 70
     7
280
     1
281
    50
282
    50
283
     0
360
0
 71
     2
 91
        5
 14
-0.1078431456356285
 24
6.005387483121596
 14
-0.1078431456356285
 24
5.005387483121596
 14
-0.5
 24
5.005387483121596
 14
-0.5
 24
6.005387483121596
 14
-0.1078431456356285
 24
6.005387483121596
  0
MTEXT
  5
136
330
35
100
AcDbEntity
  8
寸法
 62
     0
390
1D
100
AcDbMText
 10
-198.2387213541666
 20
-18.89125040372213
 30
0.0
 40
11.40188802083333
 41
0.0
 71
     1
 72
     1
  1
165.2
  7
ＭＳ ゴシック (bold)
 11
0.0
 21
1.0
 31
0.0
 73
     1
 44
0.7828267384257843
  0
POINT
  5
137
330
35
100
AcDbEntity
  8
Defpoints
 62
     0
370
     0
390
1D
100
AcDbPoint
 10
300.0
 20
-82.6
 30
0.0
  0
POINT
  5
138
330
35
100
AcDbEntity
  8
Defpoints
 62
     0
370
     0
390
1D
100
AcDbPoint
 10
300.0
 20
82.6
 30
0.0
  0
POINT
  5
139
330
35
100
AcDbEntity
  8
Defpoints
 62
     0
370
     0
390
1D
100
AcDbPoint
 10
-180.0
 20
82.6
 30
0.0
  0
ENDBLK
  5
13A
330
35
100
AcDbEntity
  8
寸法
390
1D
100
AcDbBlockEnd
  0
BLOCK
  5
13B
330
36
100
AcDbEntity
  8
寸法
390
1D
100
AcDbBlockBegin
  2
*D20
 70
     1
 71
     0
 10
0.0
 20
0.0
 30
0.0
  3
*D20
  1

  0
LINE
  5
13C
330
36
100
AcDbEntity
  8
寸法
  6
STYLE_01
 62
     0
370
    -2
390
1D
100
AcDbLine
 10
-100.0000000000003
 20
-179.7625
 30
0.0
 11
-100.0000000000003
 21
-220.525
 31
0.0
  0
LINE
  5
13D
330
36
100
AcDbEntity
  8
寸法
  6
STYLE_01
 62
     0
370
    -2
390
1D
100
AcDbLine
 10
-12.0000000000004
 20
-122.2625
 30
0.0
 11
-12.0000000000004
 21
-220.525
 31
0.0
  0
LINE
  5
13E
330
36
100
AcDbEntity
  8
寸法
  6
STYLE_01
 62
     0
370
    -2
390
1D
100
AcDbLine
 10
-104.7625000000003
 20
-211.0
 30
0.0
 11
-100.0000000000003
 21
-211.0
 31
0.0
  0
LINE
  5
13F
330
36
100
AcDbEntity
  8
寸法
  6
STYLE_01
 62
     0
370
    -2
390
1D
100
AcDbLine
 10
-12.0000000000004
 20
-211.0
 30
0.0
 11
-7.237500000000409
 21
-211.0
 31
0.0
  0
LINE
  5
140
330
36
100
AcDbEntity
  8
寸法
  6
STYLE_01
 62
     0
370
    -2
390
1D
100
AcDbLine
 10
-100.0000000000003
 20
-211.0
 30
0.0
 11
-12.0000000000004
 21
-211.0
 31
0.0
  0
LINE
  5
141
330
36
100
AcDbEntity
  8
寸法
  6
STYLE_01
 62
     0
370
    20
390
1D
100
AcDbLine
 10
-96.63240395459937
 20
-207.6324039545991
 30
0.0
 11
-103.3675960454013
 21
-214.3675960454009
 31
0.0
  0
LINE
  5
142
330
36
100
AcDbEntity
  8
寸法
  6
STYLE_01
 62
     0
370
    20
390
1D
100
AcDbLine
 10
-15.36759604540134
 20
-214.3675960454009
 30
0.0
 11
-8.632403954599454
 21
-207.6324039545991
 31
0.0
  0
WIPEOUT
  5
143
330
36
100
AcDbEntity
  8
寸法
  6
STYLE_01
 62
     0
370
    -2
390
1D
 92
      308
310
3401000002000000A80000000B000000E0AA2A633BC74FC00073252C2151FC3F000000000000000000000000000000000000000000000000000000000000F03F000000000000F03F0000000000000000000000000000000041634462576970656F757400FFFFFFFF000000000000000000000000000000000000F03F000000
310
0000000000000000000000F03F000000000000000000000000000000000000000074787400424947464F4E542E53485800840000000600000005000000E0AA2A633BC74FC00073252C2151FC3F00000000000000008C55D59CC43848C00073252C2151FC3F00000000000000008C55D59CC43848C0D8016D9FFFE130400000
310
000000000000E0AA2A633BC74FC0D8016D9FFFE130400000000000000000E0AA2A633BC74FC00073252C2151FC3F0000000000000000
100
AcDbWipeout
 90
        0
 10
-63.55649985869763
 20
1.769807026335172
 30
0.0
 11
15.1129997173945
 21
0.0
 31
0.0
 12
0.0
 22
15.1129997173945
 32
0.0
 13
1.0
 23
1.0
340
0
 70
     7
280
     1
281
    50
282
    50
283
     0
360
0
 71
     2
 91
        5
 14
-0.5
 24
14.26346925931101
 14
0.5
 24
14.26346925931101
 14
0.5
 24
13.28307708411542
 14
-0.5
 24
13.28307708411542
 14
-0.5
 24
14.26346925931101
  0
MTEXT
  5
144
330
36
100
AcDbEntity
  8
寸法
 62
     0
390
1D
100
AcDbMText
 10
-63.55649985869763
 20
-192.7612786458334
 30
0.0
 40
11.40188802083333
 41
0.0
 71
     1
 72
     1
  1
88
  7
ＭＳ ゴシック (bold)
 73
     1
 44
0.7828267384257843
  0
POINT
  5
145
330
36
100
AcDbEntity
  8
Defpoints
 62
     0
370
     0
390
1D
100
AcDbPoint
 10
-12.0000000000004
 20
-117.5
 30
0.0
  0
POINT
  5
146
330
36
100
AcDbEntity
  8
Defpoints
 62
     0
370
     0
390
1D
100
AcDbPoint
 10
-100.0000000000003
 20
-175.0
 30
0.0
  0
POINT
  5
147
330
36
100
AcDbEntity
  8
Defpoints
 62
     0
370
     0
390
1D
100
AcDbPoint
 10
-100.0000000000003
 20
-211.0
 30
0.0
  0
ENDBLK
  5
148
330
36
100
AcDbEntity
  8
寸法
390
1D
100
AcDbBlockEnd
  0
ENDSEC
  0
SECTION
  2
ENTITIES
  0
INSERT
  5
149
330
A
100
AcDbEntity
  8
一般
 62
     7
390
1D
100
AcDbBlockReference
  2
グループ-9
 10
164.9976136912664
 20
-43.00969333506882
 30
0.0
  0
WIPEOUT
  5
14A
330
A
100
AcDbEntity
  8
一般
  6
Continuous
 62
     7
370
    25
390
1D
 92
      308
310
3401000002000000A80000000B00000032BA540B022976C02682EEA4170D7F40000000000000000000000000000000000000000000000000000000000000F03F000000000000F03F0000000000000000000000000000000041634462576970656F757400FFFFFFFF000000000000000000000000000000000000F03F000000
310
0000000000000000000000F03F000000000000000000000000000000000000000074787400424947464F4E542E5348580084000000060000000500000032BA540B022976C02682EEA4170D7F400000000000000000385A2E0339AB40C02682EEA4170D7F400000000000000000385A2E0339AB40C088B8EE47599089400000
310
00000000000032BA540B022976C088B8EE4759908940000000000000000032BA540B022976C02682EEA4170D7F400000000000000000
100
AcDbWipeout
 90
        0
 10
-354.5629990873014
 20
496.8182725254759
 30
0.0
 11
321.2253217061358
 21
0.0
 31
0.0
 12
0.0
 22
321.2253217061358
 32
0.0
 13
1.0
 23
1.0
340
0
 70
     7
280
     1
281
    50
282
    50
283
     0
360
0
 71
     2
 91
        5
 14
-0.5
 24
1.147543306740385
 14
0.5000000000000002
 24
1.147543306740385
 14
0.5000000000000002
 24
1.086042689508135
 14
-0.5
 24
1.086042689508135
 14
-0.5
 24
1.147543306740385
  0
MTEXT
  5
14B
330
A
100
AcDbEntity
  8
一般
 62
     7
390
1D
100
AcDbMText
 10
-354.5629990873014
 20
306.7792606380295
 30
0.0
 40
15.20251736111111
 41
0.0
 71
     1
 72
     1
  1
A. VG250-VF150 I管（両間：88mm）
  7
ＭＳ ゴシック (bold)
 73
     1
 44
0.7828267384257843
  0
WIPEOUT
  5
14C
330
A
100
AcDbEntity
  8
一般
  6
Continuous
 62
     7
370
    25
390
1D
 92
      308
310
3401000002000000A80000000B000000E3A15482CCD56EC0DAE264222F5E50C0000000000000000000000000000000000000000000000000000000000000F03F000000000000F03F0000000000000000000000000000000041634462576970656F757400FFFFFFFF000000000000000000000000000000000000F03F000000
310
0000000000000000000000F03F000000000000000000000000000000000000000074787400424947464F4E542E53485800840000000600000005000000E3A15482CCD56EC0DAE264222F5E50C0000000000000000000000000008051C0DAE264222F5E50C0000000000000000000000000008051C0EC6044E269CD5B400000
310
000000000000E3A15482CCD56EC0EC6044E269CD5B400000000000000000E3A15482CCD56EC0DAE264222F5E50C00000000000000000
100
AcDbWipeout
 90
        0
 10
-246.6812144902206
 20
-65.47162685253298
 30
0.0
 11
176.6812144902206
 21
0.0
 31
0.0
 12
0.0
 22
176.6812144902206
 32
0.0
 13
1.0
 23
1.0
340
0
 70
     7
280
     1
281
    50
282
    50
283
     0
360
0
 71
     2
 91
        5
 14
-0.5
 24
1.677302904706083
 14
0.5
 24
1.677302904706083
 14
0.5
 24
1.389779411353529
 14
-0.5
 24
1.389779411353529
 14
-0.5
 24
1.677302904706083
  0
MTEXT
  5
14D
330
A
100
AcDbEntity
  8
一般
 62
     7
390
1D
100
AcDbMText
 10
-246.6812144902206
 20
-224.2108713788682
 30
0.0
 40
13.03072916666667
 41
176.6812144902206
 71
     1
 72
     1
  1
VG250F\P12-φ15（振り分け）\POリング : V275
  7
ＭＳ ゴシック (bold)
 73
     1
 44
0.7828267384257843
  0
WIPEOUT
  5
14E
330
A
100
AcDbEntity
  8
一般
  6
Continuous
 62
     7
370
    25
390
1D
 92
      308
310
3401000002000000A80000000B000000A038B0248A3E1C40BEF2D703443B52C0000000000000000000000000000000000000000000000000000000000000F03F000000000000F03F0000000000000000000000000000000041634462576970656F757400FFFFFFFF000000000000000000000000000000000000F03F000000
310
0000000000000000000000F03F000000000000000000000000000000000000000074787400424947464F4E542E53485800840000000600000005000000A038B0248A3E1C40BEF2D703443B52C000000000000000000000000000806740BEF2D703443B52C000000000000000000000000000806740B809DD59D3005B400000
310
000000000000A038B0248A3E1C40B809DD59D3005B400000000000000000A038B0248A3E1C40BEF2D703443B52C00000000000000000
100
AcDbWipeout
 90
        0
 10
7.061073849921883
 20
-72.92602630699818
 30
0.0
 11
180.9389261500781
 21
0.0
 31
0.0
 12
0.0
 22
180.9389261500781
 32
0.0
 13
1.0
 23
1.0
340
0
 70
     7
280
     1
281
    50
282
    50
283
     0
360
0
 71
     2
 91
        5
 14
-0.5
 24
1.649599544178821
 14
0.5
 24
1.649599544178821
 14
0.5
 24
1.368841826196874
 14
-0.5
 24
1.368841826196874
 14
-0.5
 24
1.649599544178821
  0
MTEXT
  5
14F
330
A
100
AcDbEntity
  8
一般
 62
     7
390
1D
100
AcDbMText
 10
7.061073849921883
 20
-231.6652708333334
 30
0.0
 40
13.03072916666667
 41
180.9389261500781
 71
     1
 72
     1
  1
VF150F\P8-φ12（振り分け）\POリング : なし
  7
ＭＳ ゴシック (bold)
 73
     1
 44
0.7828267384257843
  0
INSERT
  5
150
330
A
100
AcDbEntity
  8
一般
 62
     7
390
1D
100
AcDbBlockReference
  2
Drawing Border - Universal
 10
164.9976136912664
 20
-43.00969333506882
 30
0.0
  0
MTEXT
  5
151
330
A
100
AcDbEntity
  8
一般
 62
     7
390
1D
100
AcDbMText
 10
535.9731520770722
 20
-363.2505112422012
 30
0.0
 40
11.40188802083333
 41
0.0
 71
     5
 72
     1
  1
〒351-0198　埼玉県和光市広沢2-1\P理化学研究所　仁科加速器研究センタ ー　\P重イオン核物理研究室　RIBF棟 314号室\P松下　昌史\PTEL : 048-467-9475\PFAX : 048-462-4464\PMail : matsushi@ribf.riken.jp
  7
ＭＳ ゴシック (bold)
 73
     1
 44
0.7828267384257844
  0
INSERT
  5
152
330
A
100
AcDbEntity
  8
寸法
 62
     7
390
1D
100
AcDbBlockReference
  2
グループ-11
 10
164.9976136912664
 20
-43.00969333506882
 30
0.0
  0
DIMENSION
  5
153
330
A
100
AcDbEntity
  8
寸法
  6
STYLE_01
 62
     7
370
    25
390
1D
100
AcDbDimension
  2
*D15
 10
-274.0
 20
117.5000000000007
 30
0.0
 11
-274.0
 21
0.0
 31
0.0
 70
    32
 71
     5
 42
-1.0
  3
Arch
100
AcDbAlignedDimension
 13
300.0
 23
-117.5000000000007
 33
0.0
 14
300.0
 24
117.5000000000007
 34
0.0
 50
90.0
100
AcDbRotatedDimension
1001
ACAD
1000
DSTYLE
1002
{
1070
   279
1070
     2
1070
   340
1005
37
1070
   147
1040
4.762499999999999
1002
}
  0
DIMENSION
  5
154
330
A
100
AcDbEntity
  8
寸法
  6
STYLE_01
 62
     7
370
    25
390
1D
100
AcDbDimension
  2
*D16
 10
-367.0
 20
175.0000000000007
 30
0.0
 11
-371.7625
 21
0.0
 31
0.0
 70
   128
 71
     5
 42
-1.0
  3
Arch
100
AcDbAlignedDimension
 13
300.0
 23
-175.0000000000007
 33
0.0
 14
300.0
 24
175.0000000000007
 34
0.0
 50
90.0
100
AcDbRotatedDimension
1001
ACAD
1000
DSTYLE
1002
{
1070
   279
1070
     2
1070
   340
1005
37
1070
   147
1040
4.762499999999999
1002
}
  0
DIMENSION
  5
155
330
A
100
AcDbEntity
  8
寸法
  6
STYLE_01
 62
     7
370
    25
390
1D
100
AcDbDimension
  2
*D17
 10
-224.0
 20
105.0
 30
0.0
 11
-224.0
 21
0.0
 31
0.0
 70
    32
 71
     5
 42
-1.0
  3
Arch
100
AcDbAlignedDimension
 13
300.0
 23
-105.0
 33
0.0
 14
300.0
 24
105.0
 34
0.0
 50
90.0
100
AcDbRotatedDimension
1001
ACAD
1000
DSTYLE
1002
{
1070
   279
1070
     2
1070
   340
1005
37
1070
   147
1040
4.762499999999999
1002
}
  0
DIMENSION
  5
156
330
A
100
AcDbEntity
  8
寸法
  6
STYLE_01
 62
     7
370
    25
390
1D
100
AcDbDimension
  2
*D18
 10
-318.0
 20
160.0
 30
0.0
 11
-318.0
 21
0.0
 31
0.0
 70
    32
 71
     5
 42
-1.0
  3
Arch
100
AcDbAlignedDimension
 13
300.0
 23
-160.0
 33
0.0
 14
300.0
 24
160.0
 34
0.0
 50
90.0
100
AcDbRotatedDimension
1001
ACAD
1000
DSTYLE
1002
{
1070
   279
1070
     2
1070
   340
1005
37
1070
   147
1040
4.762499999999999
1002
}
  0
DIMENSION
  5
157
330
A
100
AcDbEntity
  8
寸法
  6
STYLE_01
 62
     7
370
    25
390
1D
100
AcDbDimension
  2
*D19
 10
-180.0
 20
82.6
 30
0.0
 11
-180.0
 21
0.0
 31
0.0
 70
    32
 71
     5
 42
-1.0
  3
Arch
100
AcDbAlignedDimension
 13
300.0
 23
-82.6
 33
0.0
 14
300.0
 24
82.6
 34
0.0
 50
90.0
100
AcDbRotatedDimension
1001
ACAD
1000
DSTYLE
1002
{
1070
   279
1070
     2
1070
   340
1005
37
1070
   147
1040
4.762499999999999
1002
}
  0
DIMENSION
  5
158
330
A
100
AcDbEntity
  8
寸法
  6
STYLE_01
 62
     7
370
    25
390
1D
100
AcDbDimension
  2
*D20
 10
-100.0000000000003
 20
-211.0
 30
0.0
 11
-56.00000000000037
 21
-211.0
 31
0.0
 70
    32
 71
     5
 42
-1.0
  3
Arch
100
AcDbAlignedDimension
 13
-12.0000000000004
 23
-117.5
 33
0.0
 14
-100.0000000000003
 24
-175.0
 34
0.0
100
AcDbRotatedDimension
1001
ACAD
1000
DSTYLE
1002
{
1070
   279
1070
     2
1070
   340
1005
37
1070
   147
1040
4.762499999999999
1002
}
  0
ENDSEC
  0
SECTION
  2
OBJECTS
  0
DICTIONARY
  5
19
330
0
100
AcDbDictionary
281
     1
  3
ACAD_GROUP
350
1A
  3
ACAD_LAYOUT
350
1E
  3
ACAD_MLINESTYLE
350
1B
  3
ACAD_PLOTSETTINGS
350
22
  3
ACAD_PLOTSTYLENAME
350
1F
  3
ACAD_WIPEOUT_VARS
350
23
  0
DICTIONARY
  5
1A
102
{ACAD_REACTORS
330
19
102
}
330
19
100
AcDbDictionary
281
     1
  0
DICTIONARY
  5
1E
102
{ACAD_REACTORS
330
19
102
}
330
19
100
AcDbDictionary
281
     1
  3
Layout1
350
21
  3
Model
350
20
  0
DICTIONARY
  5
1B
102
{ACAD_REACTORS
330
19
102
}
330
19
100
AcDbDictionary
281
     1
  3
Standard
350
1C
  0
DICTIONARY
  5
22
102
{ACAD_REACTORS
330
19
102
}
330
19
100
AcDbDictionary
281
     1
  0
ACDBDICTIONARYWDFLT
  5
1F
102
{ACAD_REACTORS
330
19
102
}
330
19
100
AcDbDictionary
281
     1
  3
Normal
350
1D
100
AcDbDictionaryWithDefault
340
1D
  0
WIPEOUTVARIABLES
  5
23
330
19
100
AcDbWipeoutVariables
 70
     0
  0
LAYOUT
  5
21
102
{ACAD_REACTORS
330
1E
102
}
330
1E
100
AcDbPlotSettings
  1

  2

  4

  6

 40
0.0
 41
0.0
 42
0.0
 43
0.0
 44
0.0
 45
0.0
 46
0.0
 47
0.0
 48
0.0
 49
0.0
140
0.0
141
0.0
142
1.0
143
1.0
 70
     0
 72
     0
 73
     0
 74
     0
  7

 75
     0
 76
     0
 77
     2
 78
   300
147
1.0
148
0.0
149
0.0
100
AcDbLayout
  1
Layout1
 70
     0
 71
     0
 10
0.0
 20
0.0
 11
0.0
 21
0.0
 12
0.0
 22
0.0
 32
0.0
 14
0.0
 24
0.0
 34
0.0
 15
0.0
 25
0.0
 35
0.0
146
0.0
 13
0.0
 23
0.0
 33
0.0
 16
0.0
 26
0.0
 36
0.0
 17
0.0
 27
0.0
 37
0.0
 76
     0
330
B
  0
LAYOUT
  5
20
102
{ACAD_REACTORS
330
1E
102
}
330
1E
100
AcDbPlotSettings
  1

  2

  4

  6

 40
0.0
 41
0.0
 42
0.0
 43
0.0
 44
0.0
 45
0.0
 46
0.0
 47
0.0
 48
0.0
 49
0.0
140
0.0
141
0.0
142
1.0
143
1.0
 70
  1024
 72
     0
 73
     0
 74
     0
  7

 75
     0
 76
     0
 77
     2
 78
   300
147
1.0
148
0.0
149
0.0
100
AcDbLayout
  1
Model
 70
     0
 71
     0
 10
0.0
 20
0.0
 11
0.0
 21
0.0
 12
0.0
 22
0.0
 32
0.0
 14
0.0
 24
0.0
 34
0.0
 15
0.0
 25
0.0
 35
0.0
146
0.0
 13
0.0
 23
0.0
 33
0.0
 16
0.0
 26
0.0
 36
0.0
 17
0.0
 27
0.0
 37
0.0
 76
     0
330
A
  0
MLINESTYLE
  5
1C
102
{ACAD_REACTORS
330
1B
102
}
330
1B
100
AcDbMlineStyle
  2
Standard
 70
     0
  3

 62
     0
 51
90.0
 52
90.0
 71
     2
 49
0.5
 62
   256
  6
BYLAYER
 49
-0.5
 62
   256
  6
BYLAYER
  0
ACDBPLACEHOLDER
  5
1D
102
{ACAD_REACTORS
330
1F
102
}
330
1F
  0
ENDSEC
  0
EOF
