  0
SECTION
  2
HEADER
  9
$ACADVER
  1
AC1015
  9
$ACADMAINTVER
 70
               6
  9
$DWGCODEPAGE
  3
ANSI_932
  9
$INSBASE
 10
0.0
 20
0.0
 30
0.0
  9
$EXTMIN
 10
-787.6863729202579
 20
-355.758368453407
 30
-5.1477333333333339
  9
$EXTMAX
 10
241.86029374640896
 20
366.236631546593
 30
5.1477333333333339
  9
$LIMMIN
 10
0.0
 20
0.0
  9
$LIMMAX
 10
0.0
 20
0.0
  9
$ORTHOMODE
 70
               0
  9
$REGENMODE
 70
               1
  9
$FILLMODE
 70
               1
  9
$QTEXTMODE
 70
               0
  9
$MIRRTEXT
 70
               1
  9
$LTSCALE
 40
5.0800000000000001
  9
$ATTMODE
 70
               1
  9
$TEXTSIZE
 40
0.2
  9
$TRACEWID
 40
1.0
  9
$TEXTSTYLE
  7
Standard
  9
$CLAYER
  8
一般
  9
$CELTYPE
  6
Continuous
  9
$CECOLOR
 62
             256
  9
$CELTSCALE
 40
1.0
  9
$DISPSILH
 70
               0
  9
$DIMSCALE
 40
1.0
  9
$DIMASZ
 40
3.1749999999999998
  9
$DIMEXO
 40
1.5874999999999999
  9
$DIMDLI
 40
10.16
  9
$DIMRND
 40
0.0
  9
$DIMDLE
 40
1.5874999999999999
  9
$DIMEXE
 40
3.1749999999999998
  9
$DIMTP
 40
0.0
  9
$DIMTM
 40
0.0
  9
$DIMTXT
 40
10.73216145833333
  9
$DIMCEN
 40
0.0
  9
$DIMTSZ
 40
0.0
  9
$DIMTOL
 70
               0
  9
$DIMLIM
 70
               0
  9
$DIMTIH
 70
               0
  9
$DIMTOH
 70
               0
  9
$DIMSE1
 70
               0
  9
$DIMSE2
 70
               0
  9
$DIMTAD
 70
               1
  9
$DIMZIN
 70
              11
  9
$DIMBLK
  1
VW_SLASH
  9
$DIMASO
 70
               1
  9
$DIMSHO
 70
               1
  9
$DIMPOST
  1
<>
  9
$DIMAPOST
  1
[]
  9
$DIMALT
 70
               0
  9
$DIMALTD
 70
               3
  9
$DIMALTF
 40
0.0010936132983377
  9
$DIMLFAC
 40
1.0
  9
$DIMTOFL
 70
               1
  9
$DIMTVP
 40
0.0
  9
$DIMTIX
 70
               1
  9
$DIMSOXD
 70
               0
  9
$DIMSAH
 70
               0
  9
$DIMBLK1
  1

  9
$DIMBLK2
  1

  9
$DIMSTYLE
  2
Arch
  9
$DIMCLRD
 70
               0
  9
$DIMCLRE
 70
               0
  9
$DIMCLRT
 70
               0
  9
$DIMTFAC
 40
1.0
  9
$DIMGAP
 40
1.5874999999999999
  9
$DIMJUST
 70
               0
  9
$DIMSD1
 70
               0
  9
$DIMSD2
 70
               0
  9
$DIMTOLJ
 70
               1
  9
$DIMTZIN
 70
              11
  9
$DIMALTZ
 70
               7
  9
$DIMALTTZ
 70
               7
  9
$DIMUPT
 70
               0
  9
$DIMDEC
 70
               0
  9
$DIMTDEC
 70
               0
  9
$DIMALTU
 70
               2
  9
$DIMALTTD
 70
               2
  9
$DIMTXSTY
  7
Calibri (bold)
  9
$DIMAUNIT
 70
               0
  9
$DIMADEC
 70
               2
  9
$DIMALTRND
 40
0.0
  9
$DIMAZIN
 70
               0
  9
$DIMDSEP
 70
              46
  9
$DIMATFIT
 70
               0
  9
$DIMFRAC
 70
               2
  9
$DIMLDRBLK
  1

  9
$DIMLUNIT
 70
               2
  9
$DIMLWD
 70
              -2
  9
$DIMLWE
 70
              -2
  9
$DIMTMOVE
 70
               0
  9
$LUNITS
 70
               2
  9
$LUPREC
 70
               4
  9
$SKETCHINC
 40
0.1
  9
$FILLETRAD
 40
0.0
  9
$AUNITS
 70
               0
  9
$AUPREC
 70
               0
  9
$MENU
  1
acad
  9
$ELEVATION
 40
0.0
  9
$PELEVATION
 40
0.0
  9
$THICKNESS
 40
0.0
  9
$LIMCHECK
 70
               0
  9
$CHAMFERA
 40
0.0
  9
$CHAMFERB
 40
0.0
  9
$CHAMFERC
 40
0.0
  9
$CHAMFERD
 40
0.0
  9
$SKPOLY
 70
               0
  9
$TDCREATE
 40
2455906.564178241
  9
$TDUCREATE
 40
0.000000000
  9
$TDUPDATE
 40
2455906.564178241
  9
$TDUUPDATE
 40
0.000000000
  9
$TDINDWG
 40
0.0000000000
  9
$TDUSRTIMER
 40
0.0000000000
  9
$USRTIMER
 70
               1
  9
$ANGBASE
 50
0.0
  9
$ANGDIR
 70
               0
  9
$PDMODE
 70
               1
  9
$PDSIZE
 40
-2.0
  9
$PLINEWID
 40
0.0
  9
$SPLFRAME
 70
               0
  9
$SPLINETYPE
 70
               6
  9
$SPLINESEGS
 70
               8
  9
$HANDSEED
  5
10E
  9
$SURFTAB1
 70
               6
  9
$SURFTAB2
 70
               6
  9
$SURFTYPE
 70
               6
  9
$SURFU
 70
               6
  9
$SURFV
 70
               6
  9
$UCSBASE
  2

  9
$UCSNAME
  2

  9
$UCSORG
 10
0.0
 20
0.0
 30
0.0
  9
$UCSXDIR
 10
1.0
 20
0.0
 30
0.0
  9
$UCSYDIR
 10
0.0
 20
1.0
 30
0.0
  9
$UCSORTHOREF
  2

  9
$UCSORTHOVIEW
 70
               0
  9
$UCSORGTOP
 10
0.0
 20
0.0
 30
0.0
  9
$UCSORGBOTTOM
 10
0.0
 20
0.0
 30
0.0
  9
$UCSORGLEFT
 10
0.0
 20
0.0
 30
0.0
  9
$UCSORGRIGHT
 10
0.0
 20
0.0
 30
0.0
  9
$UCSORGFRONT
 10
0.0
 20
0.0
 30
0.0
  9
$UCSORGBACK
 10
0.0
 20
0.0
 30
0.0
  9
$PUCSBASE
  2

  9
$PUCSNAME
  2

  9
$PUCSORG
 10
0.0
 20
0.0
 30
0.0
  9
$PUCSXDIR
 10
1.0
 20
0.0
 30
0.0
  9
$PUCSYDIR
 10
0.0
 20
1.0
 30
0.0
  9
$PUCSORTHOREF
  2

  9
$PUCSORTHOVIEW
 70
               0
  9
$PUCSORGTOP
 10
0.0
 20
0.0
 30
0.0
  9
$PUCSORGBOTTOM
 10
0.0
 20
0.0
 30
0.0
  9
$PUCSORGLEFT
 10
0.0
 20
0.0
 30
0.0
  9
$PUCSORGRIGHT
 10
0.0
 20
0.0
 30
0.0
  9
$PUCSORGFRONT
 10
0.0
 20
0.0
 30
0.0
  9
$PUCSORGBACK
 10
0.0
 20
0.0
 30
0.0
  9
$USERI1
 70
               0
  9
$USERI2
 70
               0
  9
$USERI3
 70
               0
  9
$USERI4
 70
               0
  9
$USERI5
 70
               0
  9
$USERR1
 40
0.0
  9
$USERR2
 40
0.0
  9
$USERR3
 40
0.0
  9
$USERR4
 40
0.0
  9
$USERR5
 40
0.0
  9
$WORLDVIEW
 70
               1
  9
$SHADEDGE
 70
               3
  9
$SHADEDIF
 70
              70
  9
$TILEMODE
 70
               1
  9
$MAXACTVP
 70
              64
  9
$PINSBASE
 10
0.0
 20
0.0
 30
0.0
  9
$PLIMCHECK
 70
               0
  9
$PEXTMIN
 10
1.0000000000000000E+20
 20
1.0000000000000000E+20
 30
1.0000000000000000E+20
  9
$PEXTMAX
 10
-1.0000000000000000E+20
 20
-1.0000000000000000E+20
 30
-1.0000000000000000E+20
  9
$PLIMMIN
 10
0.0
 20
0.0
  9
$PLIMMAX
 10
12.0
 20
9.0
  9
$UNITMODE
 70
               0
  9
$VISRETAIN
 70
               0
  9
$PLINEGEN
 70
               1
  9
$PSLTSCALE
 70
               0
  9
$TREEDEPTH
 70
            3020
  9
$CMLSTYLE
  2
Standard
  9
$CMLJUST
 70
               0
  9
$CMLSCALE
 40
1.0
  9
$PROXYGRAPHICS
 70
               0
  9
$MEASUREMENT
 70
               1
  9
$CELWEIGHT
370
               0
  9
$ENDCAPS
280
               0
  9
$JOINSTYLE
280
               0
  9
$LWDISPLAY
290
               1
  9
$INSUNITS
 70
               4
  9
$HYPERLINKBASE
  1

  9
$STYLESHEET
  1

  9
$XEDIT
290
               1
  9
$CEPSNTYPE
380
               0
  9
$PSTYLEMODE
290
               1
  9
$FINGERPRINTGUID
  2

  9
$VERSIONGUID
  2

  9
$EXTNAMES
290
               1
  9
$PSVPSCALE
 40
0.0
  0
ENDSEC
  0
SECTION
  2
CLASSES
  0
CLASS
  1
LWPOLYLINE
  2
AcDbPolyline
  3
AutoCAD 2000
 90
        0
280
               0
281
               1
  0
CLASS
  1
IMAGE
  2
AcDbRasterImage
  3
ISM
 90
      127
280
               0
281
               1
  0
CLASS
  1
OLE2FRAME
  2
AcDbOle2Frame
  3
AutoCAD 2000
 90
        0
280
               0
281
               1
  0
CLASS
  1
HATCH
  2
AcDbHatch
  3
AutoCAD 2000
 90
        0
280
               0
281
               1
  0
CLASS
  1
DICTIONARYVAR
  2
AcDbDictionaryVar
  3
AutoCAD 2000
 90
        0
280
               0
281
               0
  0
CLASS
  1
RASTERVARIABLES
  2
AcDbRasterVariables
  3
ISM
 90
        0
280
               0
281
               0
  0
CLASS
  1
IMAGEDEF
  2
AcDbRasterImageDef
  3
ISM
 90
        0
280
               0
281
               0
  0
CLASS
  1
IMAGEDEF_REACTOR
  2
AcDbRasterImageDefReactor
  3
ISM
 90
        1
280
               0
281
               0
  0
CLASS
  1
IDBUFFER
  2
AcDbIdBuffer
  3
AutoCAD 2000
 90
        0
280
               0
281
               0
  0
CLASS
  1
SPATIAL_FILTER
  2
AcDbSpatialFilter
  3
AutoCAD 2000
 90
        0
280
               0
281
               0
  0
CLASS
  1
XRECORD
  2
AcDbXrecord
  3
AutoCAD 2000
 90
        0
280
               0
281
               0
  0
CLASS
  1
SORTENTSTABLE
  2
AcDbSortentsTable
  3
AutoCAD 2000
 90
        0
280
               0
281
               0
  0
CLASS
  1
LAYER_INDEX
  2
AcDbLayerIndex
  3
AutoCAD 2000
 90
        0
280
               0
281
               0
  0
CLASS
  1
SPATIAL_INDEX
  2
AcDbSpatialIndex
  3
AutoCAD 2000
 90
        0
280
               0
281
               0
  0
CLASS
  1
OBJECT_PTR
  2
CAseDLPNTableRecord
  3
"ASE-LPNTableRecord"
 90
        1
280
               0
281
               0
  0
CLASS
  1
LAYOUT
  2
AcDbLayout
  3
AutoCAD 2000
 90
        0
280
               0
281
               0
  0
CLASS
  1
PLOTSETTINGS
  2
AcDbPlotSettings
  3
AutoCAD 2000
 90
        0
280
               0
281
               0
  0
CLASS
  1
ACDBDICTIONARYWDFLT
  2
AcDbDictionaryWithDefault
  3
AutoCAD 2000
 90
        0
280
               0
281
               0
  0
CLASS
  1
ACDBPLACEHOLDER
  2
AcDbPlaceHolder
  3
AutoCAD 2000
 90
        0
280
               0
281
               0
  0
CLASS
  1
VBA_PROJECT
  2
AcDbVbaProject
  3
acadvba
 90
        0
280
               0
281
               0
  0
CLASS
  1
WIPEOUT
  2
AcDbWipeout
  3
WipeOut|AutoCAD Express Tool|expresstools@autodesk.com
 90
      127
280
               0
281
               1
  0
CLASS
  1
WIPEOUTVARIABLES
  2
AcDbWipeoutVariables
  3
WipeOut|AutoCAD Express Tool|expresstools@autodesk.com
 90
        0
280
               0
281
               0
  0
CLASS
  1
RTEXT
  2
RText
  3
RText|AutoCAD Express Tool|expresstools@autodesk.com
 90
        0
280
               0
281
               1
  0
CLASS
  1
ARCALIGNEDTEXT
  2
AcDbArcAlignedText
  3
ATEXT|AutoCAD Express Tool|expresstools@autodesk.com
 90
        0
280
               0
281
               1
  0
ENDSEC
  0
SECTION
  2
TABLES
  0
TABLE
  2
VPORT
  5
7
100
AcDbSymbolTable
 70
               1
  0
VPORT
  5
15
100
AcDbSymbolTableRecord
100
AcDbViewportTableRecord
  2
*ACTIVE
 70
               0
 10
0.0
 20
0.0
 11
1.0
 21
1.0
 12
-272.91303958692447
 22
5.2391315465930006
 13
0.0
 23
0.0
 14
1.0
 24
1.0
 15
0.0
 25
0.0
 16
0.0
 26
0.0
 36
1.0
 17
0.0
 27
0.0
 37
0.0
 40
721.995
 41
0.688564
 42
50.0
 43
0.0
 44
0.0
 50
0.0
 51
0.0
 71
               0
 72
            2000
 73
               1
 74
               1
 75
               0
 76
               0
 77
               0
 78
               0
281
               0
 65
               0
110
0.0
120
0.0
130
0.0
111
1.0
121
0.0
131
0.0
112
0.0
122
1.0
132
0.0
345
0
346
0
 79
               0
146
0.0
  0
ENDTAB
  0
TABLE
  2
LTYPE
  5
4
100
AcDbSymbolTable
 70
              13
  0
LTYPE
  5
11
100
AcDbSymbolTableRecord
100
AcDbLinetypeTableRecord
  2
ByBlock
 70
              64
  3

 72
              65
 73
               0
 40
0.0
  0
LTYPE
  5
12
100
AcDbSymbolTableRecord
100
AcDbLinetypeTableRecord
  2
ByLayer
 70
              64
  3

 72
              65
 73
               0
 40
0.0
  0
LTYPE
  5
13
100
AcDbSymbolTableRecord
100
AcDbLinetypeTableRecord
  2
Continuous
 70
              64
  3
Solid line
 72
              65
 73
               0
 40
0.0
  0
LTYPE
  5
30
100
AcDbSymbolTableRecord
100
AcDbLinetypeTableRecord
  2
STYLE_01
 70
               0
  3

 72
              65
 73
               2
 40
0.41664
 49
0.20828
 74
               0
 49
-0.20836
 74
               0
  0
LTYPE
  5
31
100
AcDbSymbolTableRecord
100
AcDbLinetypeTableRecord
  2
STYLE_02
 70
               0
  3

 72
              65
 73
               2
 40
0.6944250000000001
 49
0.48607
 74
               0
 49
-0.2083550000000001
 74
               0
  0
LTYPE
  5
32
100
AcDbSymbolTableRecord
100
AcDbLinetypeTableRecord
  2
STYLE_03
 70
               0
  3

 72
              65
 73
               2
 40
1.25
 49
1.0416400000000001
 74
               0
 49
-0.2083599999999999
 74
               0
  0
LTYPE
  5
33
100
AcDbSymbolTableRecord
100
AcDbLinetypeTableRecord
  2
STYLE_04
 70
               0
  3

 72
              65
 73
               2
 40
1.5277099999999999
 49
1.3194249999999998
 74
               0
 49
-0.208285
 74
               0
  0
LTYPE
  5
34
100
AcDbSymbolTableRecord
100
AcDbLinetypeTableRecord
  2
STYLE_05
 70
               0
  3

 72
              65
 73
               2
 40
0.20828
 49
0.069425
 74
               0
 49
-0.138855
 74
               0
  0
LTYPE
  5
35
100
AcDbSymbolTableRecord
100
AcDbLinetypeTableRecord
  2
STYLE_06
 70
               0
  3

 72
              65
 73
               4
 40
1.0416400000000001
 49
0.625
 74
               0
 49
-0.20828
 74
               0
 49
0.06943
 74
               0
 49
-0.13893
 74
               0
  0
LTYPE
  5
36
100
AcDbSymbolTableRecord
100
AcDbLinetypeTableRecord
  2
STYLE_07
 70
               0
  3

 72
              65
 73
               6
 40
1.875
 49
0.625
 74
               0
 49
-0.20828
 74
               0
 49
0.6250000000000001
 74
               0
 49
-0.2083599999999999
 74
               0
 49
0.06943
 74
               0
 49
-0.1389299999999999
 74
               0
  0
LTYPE
  5
37
100
AcDbSymbolTableRecord
100
AcDbLinetypeTableRecord
  2
STYLE_08
 70
               0
  3

 72
              65
 73
               6
 40
1.25
 49
0.625
 74
               0
 49
-0.20828
 74
               0
 49
0.06943
 74
               0
 49
-0.13893
 74
               0
 49
0.0694299999999999
 74
               0
 49
-0.13893
 74
               0
  0
LTYPE
  5
38
100
AcDbSymbolTableRecord
100
AcDbLinetypeTableRecord
  2
STYLE_09
 70
               0
  3

 72
              65
 73
               4
 40
5.0
 49
3.75
 74
               0
 49
-0.2777849999999998
 74
               0
 49
0.6944300000000003
 74
               0
 49
-0.2777849999999998
 74
               0
  0
LTYPE
  5
39
100
AcDbSymbolTableRecord
100
AcDbLinetypeTableRecord
  2
STYLE_10
 70
               0
  3

 72
              65
 73
               6
 40
5.9375
 49
3.75
 74
               0
 49
-0.2777849999999998
 74
               0
 49
0.6944300000000003
 74
               0
 49
-0.2777849999999998
 74
               0
 49
0.625
 74
               0
 49
-0.3125
 74
               0
  0
ENDTAB
  0
TABLE
  2
LAYER
  5
2
100
AcDbSymbolTable
 70
               4
  0
LAYER
  5
14
100
AcDbSymbolTableRecord
100
AcDbLayerTableRecord
  2
0
 70
               0
 62
               7
  6
Continuous
290
               1
370
              -3
390
1D
  0
LAYER
  5
3A
100
AcDbSymbolTableRecord
100
AcDbLayerTableRecord
  2
一般
 70
               0
 62
               7
  6
Continuous
290
               1
370
               5
390
1D
  0
LAYER
  5
3B
100
AcDbSymbolTableRecord
100
AcDbLayerTableRecord
  2
寸法
 70
               0
 62
               7
  6
Continuous
290
               1
370
               5
390
1D
  0
LAYER
  5
3C
100
AcDbSymbolTableRecord
100
AcDbLayerTableRecord
  2
Defpoints
 70
               0
 62
               7
  6
Continuous
290
               0
370
              -3
390
1D
  0
ENDTAB
  0
TABLE
  2
STYLE
  5
3
100
AcDbSymbolTable
 70
               2
  0
STYLE
  5
17
100
AcDbSymbolTableRecord
100
AcDbTextStyleTableRecord
  2
Standard
 70
               0
 40
0.0
 41
1.0
 50
0.0
 71
               0
 42
0.0
  3
txt
  4
BIGFONT.SHX
  0
STYLE
  5
2F
100
AcDbSymbolTableRecord
100
AcDbTextStyleTableRecord
  2
Calibri (bold)
 70
               0
 40
0.0
 41
1.0
 50
0.0
 71
               0
 42
0.0
  3

  4
Calibri
1001
ACAD
1000
Calibri
1071
 33554432
  0
ENDTAB
  0
TABLE
  2
VIEW
  5
5
100
AcDbSymbolTable
 70
               0
  0
ENDTAB
  0
TABLE
  2
UCS
  5
6
100
AcDbSymbolTable
 70
               0
  0
ENDTAB
  0
TABLE
  2
APPID
  5
8
100
AcDbSymbolTable
 70
               1
  0
APPID
  5
16
100
AcDbSymbolTableRecord
100
AcDbRegAppTableRecord
  2
ACAD
 70
               0
  0
ENDTAB
  0
TABLE
  2
DIMSTYLE
  5
9
100
AcDbSymbolTable
 70
               2
100
AcDbDimStyleTable
 71
               0
  0
DIMSTYLE
105
18
100
AcDbSymbolTableRecord
100
AcDbDimStyleTableRecord
  2
Standard
 70
               0
  3

  4

 40
1.0
 41
0.18
 42
0.0625
 43
0.38
 44
0.18
 45
0.0
 46
0.0
 47
0.0
 48
0.0
 71
               0
 72
               0
 73
               1
 74
               1
 75
               0
 76
               0
 77
               0
 78
               0
 79
               0
140
0.18
141
0.09
142
0.0
143
25.399999999999999
144
1.0
145
0.0
146
1.0
147
0.09
148
0.0
170
               0
171
               2
172
               0
173
               0
174
               0
175
               0
176
               0
177
               0
178
               0
179
               0
271
               4
272
               4
273
               2
274
               2
275
               0
276
               0
277
               2
278
              46
279
               0
280
               0
281
               0
282
               0
283
               1
284
               0
285
               0
286
               0
288
               0
289
               3
340
17
341
0
342
0
343
0
344
0
371
              -2
372
              -2
  0
DIMSTYLE
105
4E
100
AcDbSymbolTableRecord
100
AcDbDimStyleTableRecord
  2
Arch
 70
               0
  3
<>
  4
[]
 40
1.0
 41
3.1749999999999998
 42
1.5874999999999999
 43
10.16
 44
3.1749999999999998
 45
0.0
 46
1.5874999999999999
 47
0.0
 48
0.0
 71
               0
 72
               0
 73
               0
 74
               0
 75
               0
 76
               0
 77
               1
 78
              11
 79
               0
140
10.73216145833333
141
0.0
142
0.0
143
0.0010936132983377
144
1.0
145
0.0
146
1.0
147
1.5874999999999999
148
0.0
170
               0
171
               3
172
               1
173
               0
174
               1
175
               0
176
               0
177
               0
178
               0
179
               2
271
               0
272
               0
273
               2
274
               2
275
               0
276
               2
277
               2
278
              46
279
               0
280
               0
281
               0
282
               0
283
               1
284
              11
285
               7
286
               7
288
               0
289
               0
340
2F
341
45
342
3D
343
0
344
0
371
              -2
372
              -2
  0
ENDTAB
  0
TABLE
  2
BLOCK_RECORD
  5
1
100
AcDbSymbolTable
 70
              13
  0
BLOCK_RECORD
  5
A
100
AcDbSymbolTableRecord
100
AcDbBlockTableRecord
  2
*MODEL_SPACE
340
20
  0
BLOCK_RECORD
  5
B
100
AcDbSymbolTableRecord
100
AcDbBlockTableRecord
  2
*PAPER_SPACE
340
21
  0
BLOCK_RECORD
  5
3D
100
AcDbSymbolTableRecord
100
AcDbBlockTableRecord
  2
VW_SLASH
340
0
  0
BLOCK_RECORD
  5
45
100
AcDbSymbolTableRecord
100
AcDbBlockTableRecord
  2
VW_FILLEDARROW
340
0
  0
BLOCK_RECORD
  5
24
100
AcDbSymbolTableRecord
100
AcDbBlockTableRecord
  2
グループ
340
0
102
{BLKREFS
331
7D
102
}
  0
BLOCK_RECORD
  5
25
100
AcDbSymbolTableRecord
100
AcDbBlockTableRecord
  2
グループ-1
340
0
102
{BLKREFS
331
7E
102
}
  0
BLOCK_RECORD
  5
26
100
AcDbSymbolTableRecord
100
AcDbBlockTableRecord
  2
グループ-2
340
0
102
{BLKREFS
331
7F
102
}
  0
BLOCK_RECORD
  5
27
100
AcDbSymbolTableRecord
100
AcDbBlockTableRecord
  2
グループ-3
340
0
102
{BLKREFS
331
82
102
}
  0
BLOCK_RECORD
  5
28
100
AcDbSymbolTableRecord
100
AcDbBlockTableRecord
  2
グループ-4
340
0
102
{BLKREFS
331
107
102
}
  0
BLOCK_RECORD
  5
29
100
AcDbSymbolTableRecord
100
AcDbBlockTableRecord
  2
グループ-5
340
0
102
{BLKREFS
331
109
102
}
  0
BLOCK_RECORD
  5
2A
100
AcDbSymbolTableRecord
100
AcDbBlockTableRecord
  2
*D8
340
0
  0
BLOCK_RECORD
  5
2B
100
AcDbSymbolTableRecord
100
AcDbBlockTableRecord
  2
*D9
340
0
  0
BLOCK_RECORD
  5
2C
100
AcDbSymbolTableRecord
100
AcDbBlockTableRecord
  2
グループ-6
340
0
102
{BLKREFS
331
F7
102
}
  0
BLOCK_RECORD
  5
2D
100
AcDbSymbolTableRecord
100
AcDbBlockTableRecord
  2
Drawing Border - Universal
340
0
102
{BLKREFS
331
10C
102
}
  0
BLOCK_RECORD
  5
2E
100
AcDbSymbolTableRecord
100
AcDbBlockTableRecord
  2
グループ-7
340
0
102
{BLKREFS
331
10D
102
}
  0
ENDTAB
  0
ENDSEC
  0
SECTION
  2
BLOCKS
  0
BLOCK
  5
D
100
AcDbEntity
  8
0
390
0
100
AcDbBlockBegin
  2
*MODEL_SPACE
 70
               0
 10
0.0
 20
0.0
 30
0.0
  3
*MODEL_SPACE
  1

  0
ENDBLK
  5
E
100
AcDbEntity
  8
0
390
0
100
AcDbBlockEnd
  0
BLOCK
  5
F
100
AcDbEntity
 67
               1
  8
0
390
0
100
AcDbBlockBegin
  2
*PAPER_SPACE
 70
               0
 10
0.0
 20
0.0
 30
0.0
  3
*PAPER_SPACE
  1

  0
ENDBLK
  5
10
100
AcDbEntity
 67
               1
  8
0
390
0
100
AcDbBlockEnd
  0
BLOCK
  5
3E
100
AcDbEntity
  8
0
370
              -2
390
0
  6
ByBlock
 62
               0
100
AcDbBlockBegin
  2
VW_SLASH
 70
               0
 10
0.0
 20
0.0
 30
0.0
  3
VW_SLASH
  1

  0
LINE
  5
3F
100
AcDbEntity
  8
0
370
              -2
390
0
  6
ByBlock
 62
               0
100
AcDbLine
 10
0.0
 20
0.0
 30
0.0
 11
-1.0
 21
0.0
 31
0.0
  0
POLYLINE
  5
40
100
AcDbEntity
  8
一般
370
              20
390
0
  6
Continuous
 62
               0
100
AcDb2dPolyline
 66
               1
 10
0.0
 20
0.0
 30
0.0
 75
               5
  0
VERTEX
  5
41
100
AcDbEntity
  8
一般
370
              20
390
0
  6
Continuous
 62
               0
100
AcDbVertex
100
AcDb2dVertex
 10
0.3535318114068362
 20
0.3535318114068362
 30
0.0
  0
VERTEX
  5
42
100
AcDbEntity
  8
一般
370
              20
390
0
  6
Continuous
 62
               0
100
AcDbVertex
100
AcDb2dVertex
 10
-0.3535318114068362
 20
-0.3535318114068362
 30
0.0
  0
SEQEND
  5
43
100
AcDbEntity
  8
一般
370
              20
390
0
  6
Continuous
 62
               0
  0
ENDBLK
  5
44
100
AcDbEntity
  8
0
390
0
100
AcDbBlockEnd
  0
BLOCK
  5
46
100
AcDbEntity
  8
0
370
              -2
390
0
  6
ByBlock
 62
               0
100
AcDbBlockBegin
  2
VW_FILLEDARROW
 70
               0
 10
0.0
 20
0.0
 30
0.0
  3
VW_FILLEDARROW
  1

  0
POLYLINE
  5
47
102
{ACAD_REACTORS
330
4C
102
}
100
AcDbEntity
  8
一般
370
               5
390
0
  6
Continuous
 62
               0
100
AcDb2dPolyline
 66
               1
 10
0.0
 20
0.0
 30
0.0
 70
               1
 75
               5
  0
VERTEX
  5
48
100
AcDbEntity
  8
一般
370
               5
390
0
  6
Continuous
 62
               0
100
AcDbVertex
100
AcDb2dVertex
 10
-0.99993896484375
 20
0.2679328381102957
 30
0.0
  0
VERTEX
  5
49
100
AcDbEntity
  8
一般
370
               5
390
0
  6
Continuous
 62
               0
100
AcDbVertex
100
AcDb2dVertex
 10
0.0
 20
0.0
 30
0.0
  0
VERTEX
  5
4A
100
AcDbEntity
  8
一般
370
               5
390
0
  6
Continuous
 62
               0
100
AcDbVertex
100
AcDb2dVertex
 10
-0.9999389648437499
 20
-0.2679328381102959
 30
0.0
  0
SEQEND
  5
4B
100
AcDbEntity
  8
一般
370
               5
390
0
  6
Continuous
 62
               0
  0
HATCH
  5
4C
100
AcDbEntity
  8
0
370
               0
390
0
  6
ByBlock
 62
               0
100
AcDbHatch
 10
0.0
 20
0.0
 30
0.0
210
0.0
220
0.0
230
1.0
  2
SOLID
 70
               1
 71
               1
 91
        1
 92
        1
 93
        3
 72
               1
 10
-0.99993896484375
 20
0.2679328381102957
 11
0.0
 21
0.0
 72
               1
 10
0.0
 20
0.0
 11
-0.9999389648437499
 21
-0.2679328381102959
 72
               1
 10
-0.9999389648437499
 20
-0.2679328381102959
 11
-0.99993896484375
 21
0.2679328381102957
 97
        1
330
47
 75
               0
 76
               1
 98
        1
 10
0.0
 20
0.0
  0
ENDBLK
  5
4D
100
AcDbEntity
  8
0
390
0
100
AcDbBlockEnd
  0
BLOCK
  5
4F
100
AcDbEntity
  8
一般
390
0
100
AcDbBlockBegin
  2
グループ
 70
               0
 10
0.0
 20
0.0
 30
0.0
  3
グループ
  1

  0
POLYLINE
  5
50
100
AcDbEntity
  8
一般
370
              18
390
0
  6
Continuous
 62
               7
100
AcDb2dPolyline
 66
               1
 10
0.0
 20
0.0
 30
0.0
 70
               1
 75
               5
  0
VERTEX
  5
51
100
AcDbEntity
  8
一般
370
              18
390
0
  6
Continuous
 62
               7
100
AcDbVertex
100
AcDb2dVertex
 10
-35.387446253933845
 20
112.26086845340701
 30
0.0
  0
VERTEX
  5
52
100
AcDbEntity
  8
一般
370
              18
390
0
  6
Continuous
 62
               7
100
AcDbVertex
100
AcDb2dVertex
 10
-23.387446253933945
 20
112.26086845340701
 30
0.0
  0
VERTEX
  5
53
100
AcDbEntity
  8
一般
370
              18
390
0
  6
Continuous
 62
               7
100
AcDbVertex
100
AcDb2dVertex
 10
-23.387446253933945
 20
-122.73913154659299
 30
0.0
  0
VERTEX
  5
54
100
AcDbEntity
  8
一般
370
              18
390
0
  6
Continuous
 62
               7
100
AcDbVertex
100
AcDb2dVertex
 10
-35.387446253933845
 20
-122.73913154659299
 30
0.0
  0
SEQEND
  5
55
100
AcDbEntity
  8
一般
370
              18
390
0
  6
Continuous
 62
               7
  0
POLYLINE
  5
57
100
AcDbEntity
  8
一般
370
              18
390
0
  6
Continuous
 62
               7
100
AcDb2dPolyline
 66
               1
 10
0.0
 20
0.0
 30
0.0
 70
               1
 75
               5
  0
VERTEX
  5
58
100
AcDbEntity
  8
一般
370
              18
390
0
  6
Continuous
 62
               7
100
AcDbVertex
100
AcDb2dVertex
 10
-26.747446253933891
 20
87.260868453406999
 30
0.0
  0
VERTEX
  5
59
100
AcDbEntity
  8
一般
370
              18
390
0
  6
Continuous
 62
               7
100
AcDbVertex
100
AcDb2dVertex
 10
-23.387446253933994
 20
87.260868453406999
 30
0.0
  0
VERTEX
  5
5A
100
AcDbEntity
  8
一般
370
              18
390
0
  6
Continuous
 62
               7
100
AcDbVertex
100
AcDb2dVertex
 10
-23.387446253933994
 20
82.260868453406999
 30
0.0
  0
VERTEX
  5
5B
100
AcDbEntity
  8
一般
370
              18
390
0
  6
Continuous
 62
               7
100
AcDbVertex
100
AcDb2dVertex
 10
-26.747446253933891
 20
82.260868453406999
 30
0.0
  0
SEQEND
  5
5C
100
AcDbEntity
  8
一般
370
              18
390
0
  6
Continuous
 62
               7
  0
POLYLINE
  5
5E
100
AcDbEntity
  8
一般
370
              18
390
0
  6
Continuous
 62
               7
100
AcDb2dPolyline
 66
               1
 10
0.0
 20
0.0
 30
0.0
 70
               1
 75
               5
  0
VERTEX
  5
5F
100
AcDbEntity
  8
一般
370
              18
390
0
  6
Continuous
 62
               7
100
AcDbVertex
100
AcDb2dVertex
 10
-26.747446253933891
 20
-92.739131546593001
 30
0.0
  0
VERTEX
  5
60
100
AcDbEntity
  8
一般
370
              18
390
0
  6
Continuous
 62
               7
100
AcDbVertex
100
AcDb2dVertex
 10
-23.387446253933994
 20
-92.739131546593001
 30
0.0
  0
VERTEX
  5
61
100
AcDbEntity
  8
一般
370
              18
390
0
  6
Continuous
 62
               7
100
AcDbVertex
100
AcDb2dVertex
 10
-23.387446253933994
 20
-97.739131546593001
 30
0.0
  0
VERTEX
  5
62
100
AcDbEntity
  8
一般
370
              18
390
0
  6
Continuous
 62
               7
100
AcDbVertex
100
AcDb2dVertex
 10
-26.747446253933891
 20
-97.739131546593001
 30
0.0
  0
SEQEND
  5
63
100
AcDbEntity
  8
一般
370
              18
390
0
  6
Continuous
 62
               7
  0
POLYLINE
  5
65
100
AcDbEntity
  8
一般
370
              18
390
0
  6
Continuous
 62
               7
100
AcDb2dPolyline
 66
               1
 10
0.0
 20
0.0
 30
0.0
 70
               1
 75
               5
  0
VERTEX
  5
66
100
AcDbEntity
  8
一般
370
              18
390
0
  6
Continuous
 62
               7
100
AcDbVertex
100
AcDb2dVertex
 10
-35.387446253933845
 20
87.260868453406999
 30
0.0
  0
VERTEX
  5
67
100
AcDbEntity
  8
一般
370
              18
390
0
  6
Continuous
 62
               7
100
AcDbVertex
100
AcDb2dVertex
 10
-32.027446253933945
 20
87.260868453406999
 30
0.0
  0
VERTEX
  5
68
100
AcDbEntity
  8
一般
370
              18
390
0
  6
Continuous
 62
               7
100
AcDbVertex
100
AcDb2dVertex
 10
-32.027446253933945
 20
82.260868453406999
 30
0.0
  0
VERTEX
  5
69
100
AcDbEntity
  8
一般
370
              18
390
0
  6
Continuous
 62
               7
100
AcDbVertex
100
AcDb2dVertex
 10
-35.387446253933845
 20
82.260868453406999
 30
0.0
  0
SEQEND
  5
6A
100
AcDbEntity
  8
一般
370
              18
390
0
  6
Continuous
 62
               7
  0
POLYLINE
  5
6C
100
AcDbEntity
  8
一般
370
              18
390
0
  6
Continuous
 62
               7
100
AcDb2dPolyline
 66
               1
 10
0.0
 20
0.0
 30
0.0
 70
               1
 75
               5
  0
VERTEX
  5
6D
100
AcDbEntity
  8
一般
370
              18
390
0
  6
Continuous
 62
               7
100
AcDbVertex
100
AcDb2dVertex
 10
-35.387446253933845
 20
-92.739131546593001
 30
0.0
  0
VERTEX
  5
6E
100
AcDbEntity
  8
一般
370
              18
390
0
  6
Continuous
 62
               7
100
AcDbVertex
100
AcDb2dVertex
 10
-32.027446253933945
 20
-92.739131546593001
 30
0.0
  0
VERTEX
  5
6F
100
AcDbEntity
  8
一般
370
              18
390
0
  6
Continuous
 62
               7
100
AcDbVertex
100
AcDb2dVertex
 10
-32.027446253933945
 20
-97.739131546593001
 30
0.0
  0
VERTEX
  5
70
100
AcDbEntity
  8
一般
370
              18
390
0
  6
Continuous
 62
               7
100
AcDbVertex
100
AcDb2dVertex
 10
-35.387446253933845
 20
-97.739131546593001
 30
0.0
  0
SEQEND
  5
71
100
AcDbEntity
  8
一般
370
              18
390
0
  6
Continuous
 62
               7
  0
ENDBLK
  5
73
100
AcDbEntity
  8
一般
390
0
100
AcDbBlockEnd
  0
BLOCK
  5
74
100
AcDbEntity
  8
一般
390
0
100
AcDbBlockBegin
  2
グループ-1
 70
               0
 10
0.0
 20
0.0
 30
0.0
  3
グループ-1
  1

  0
LINE
  5
75
100
AcDbEntity
  8
一般
370
              18
390
0
  6
Continuous
 62
               7
100
AcDbLine
 10
-23.387446253933874
 20
105.760868453407
 30
0.0
 11
-35.387446253933732
 21
105.760868453407
 31
0.0
  0
LINE
  5
76
100
AcDbEntity
  8
一般
370
              18
390
0
  6
Continuous
 62
               7
100
AcDbLine
 10
-23.387446253933874
 20
93.760868453406999
 30
0.0
 11
-35.387446253933732
 21
93.760868453406999
 31
0.0
  0
ENDBLK
  5
77
100
AcDbEntity
  8
一般
390
0
100
AcDbBlockEnd
  0
BLOCK
  5
78
100
AcDbEntity
  8
一般
390
0
100
AcDbBlockBegin
  2
グループ-2
 70
               0
 10
0.0
 20
0.0
 30
0.0
  3
グループ-2
  1

  0
LINE
  5
79
100
AcDbEntity
  8
一般
370
              18
390
0
  6
Continuous
 62
               7
100
AcDbLine
 10
-23.387446253933987
 20
-104.239131546593
 30
0.0
 11
-35.387446253933845
 21
-104.239131546593
 31
0.0
  0
LINE
  5
7A
100
AcDbEntity
  8
一般
370
              18
390
0
  6
Continuous
 62
               7
100
AcDbLine
 10
-23.387446253933987
 20
-116.239131546593
 30
0.0
 11
-35.387446253933845
 21
-116.239131546593
 31
0.0
  0
ENDBLK
  5
7B
100
AcDbEntity
  8
一般
390
0
100
AcDbBlockEnd
  0
BLOCK
  5
7C
100
AcDbEntity
  8
一般
390
0
100
AcDbBlockBegin
  2
グループ-3
 70
               0
 10
0.0
 20
0.0
 30
0.0
  3
グループ-3
  1

  0
INSERT
  5
7D
100
AcDbEntity
  8
一般
390
0
 62
               7
100
AcDbBlockReference
  2
グループ
 10
0.0
 20
0.0
 30
0.0
  0
INSERT
  5
7E
100
AcDbEntity
  8
一般
390
0
 62
               7
100
AcDbBlockReference
  2
グループ-1
 10
0.0
 20
0.0
 30
0.0
  0
INSERT
  5
7F
100
AcDbEntity
  8
一般
390
0
 62
               7
100
AcDbBlockReference
  2
グループ-2
 10
0.0
 20
0.0
 30
0.0
  0
ENDBLK
  5
80
100
AcDbEntity
  8
一般
390
0
100
AcDbBlockEnd
  0
BLOCK
  5
81
100
AcDbEntity
  8
一般
390
0
100
AcDbBlockBegin
  2
グループ-4
 70
               0
 10
0.0
 20
0.0
 30
0.0
  3
グループ-4
  1

  0
INSERT
  5
82
100
AcDbEntity
  8
一般
390
0
 62
               7
100
AcDbBlockReference
  2
グループ-3
 10
0.0
 20
0.0
 30
0.0
  0
ENDBLK
  5
83
100
AcDbEntity
  8
一般
390
0
100
AcDbBlockEnd
  0
BLOCK
  5
84
100
AcDbEntity
  8
寸法
390
0
100
AcDbBlockBegin
  2
グループ-5
 70
               0
 10
0.0
 20
0.0
 30
0.0
  3
グループ-5
  1

  0
CIRCLE
  5
85
100
AcDbEntity
  8
寸法
370
              18
390
0
  6
Continuous
 62
               7
100
AcDbCircle
 10
173.6469659007945
 20
-5.2391315465929953
 30
0.0
 40
82.59999999999998
  0
CIRCLE
  5
86
100
AcDbEntity
  8
寸法
370
              18
390
0
  6
Continuous
 62
               7
100
AcDbCircle
 10
173.6469659007945
 20
-5.2391315465929953
 30
0.0
 40
117.50000000000063
  0
CIRCLE
  5
87
100
AcDbEntity
  8
寸法
370
              18
390
0
  6
Continuous
 62
               7
100
AcDbCircle
 10
213.82872629912907
 20
91.768219367092144
 30
0.0
 40
6.0000000000000284
  0
CIRCLE
  5
88
100
AcDbEntity
  8
寸法
370
              18
390
0
  6
Continuous
 62
               7
100
AcDbCircle
 10
213.82872629912907
 20
-102.24648246027812
 30
0.0
 40
6.0000000000000284
  0
CIRCLE
  5
89
100
AcDbEntity
  8
寸法
370
              18
390
0
  6
Continuous
 62
               7
100
AcDbCircle
 10
76.639614987109326
 20
34.942628851741453
 30
0.0
 40
5.9999999999999885
  0
CIRCLE
  5
8A
100
AcDbEntity
  8
寸法
370
              18
390
0
  6
Continuous
 62
               7
100
AcDbCircle
 10
76.639614987109326
 20
-45.420891944927412
 30
0.0
 40
5.9999999999999885
  0
CIRCLE
  5
8B
100
AcDbEntity
  8
寸法
370
              18
390
0
  6
Continuous
 62
               7
100
AcDbCircle
 10
133.46520550245998
 20
91.768219367092115
 30
0.0
 40
6.0000000000000284
  0
CIRCLE
  5
8C
100
AcDbEntity
  8
寸法
370
              18
390
0
  6
Continuous
 62
               7
100
AcDbCircle
 10
270.65431681448058
 20
34.942628851741425
 30
0.0
 40
5.9999999999999885
  0
CIRCLE
  5
8D
100
AcDbEntity
  8
寸法
370
              18
390
0
  6
Continuous
 62
               7
100
AcDbCircle
 10
133.46520550245998
 20
-102.24648246027812
 30
0.0
 40
6.0000000000000284
  0
CIRCLE
  5
8E
100
AcDbEntity
  8
寸法
370
              18
390
0
  6
Continuous
 62
               7
100
AcDbCircle
 10
270.65431681448052
 20
-45.420891944927426
 30
0.0
 40
6.0000000000000284
  0
CIRCLE
  5
8F
100
AcDbEntity
  8
一般
370
               5
390
0
  6
Continuous
 62
               7
100
AcDbCircle
 10
173.6469659007945
 20
-5.2391315465929953
 30
0.0
 40
91.999999999999986
  0
CIRCLE
  5
90
100
AcDbEntity
  8
一般
370
               5
390
0
  6
Continuous
 62
               7
100
AcDbCircle
 10
173.6469659007945
 20
-5.2391315465929953
 30
0.0
 40
87.5
  0
ENDBLK
  5
91
100
AcDbEntity
  8
寸法
390
0
100
AcDbBlockEnd
  0
BLOCK
  5
92
100
AcDbEntity
  8
寸法
390
0
100
AcDbBlockBegin
  2
*D8
 70
               1
 10
0.0
 20
0.0
 30
0.0
  3
*D8
  1

  0
LINE
  5
93
100
AcDbEntity
  8
寸法
370
              -2
390
0
  6
STYLE_01
 62
               0
100
AcDbLine
 10
-97.678573686129965
 20
117.50000000000063
 30
0.0
 11
113.90892631387004
 21
117.50000000000063
 31
0.0
  0
LINE
  5
94
100
AcDbEntity
  8
寸法
370
              -2
390
0
  6
STYLE_01
 62
               0
100
AcDbLine
 10
-97.678573686129965
 20
-117.50000000000063
 30
0.0
 11
113.90892631387004
 21
-117.50000000000063
 31
0.0
  0
LINE
  5
95
100
AcDbEntity
  8
寸法
370
              -2
390
0
  6
STYLE_01
 62
               0
100
AcDbLine
 10
110.73392631387003
 20
119.08750000000063
 30
0.0
 11
110.73392631387003
 21
117.50000000000063
 31
0.0
  0
LINE
  5
96
100
AcDbEntity
  8
寸法
370
              -2
390
0
  6
STYLE_01
 62
               0
100
AcDbLine
 10
110.73392631387003
 20
-117.50000000000063
 30
0.0
 11
110.73392631387003
 21
-119.08750000000063
 31
0.0
  0
LINE
  5
97
100
AcDbEntity
  8
寸法
370
              -2
390
0
  6
STYLE_01
 62
               0
100
AcDbLine
 10
110.73392631387003
 20
117.50000000000063
 30
0.0
 11
110.73392631387003
 21
-117.50000000000063
 31
0.0
  0
POLYLINE
  5
98
100
AcDbEntity
  8
一般
370
              20
390
0
  6
Continuous
 62
               0
100
AcDb2dPolyline
 66
               1
 10
0.0
 20
0.0
 30
0.0
 75
               5
  0
VERTEX
  5
99
100
AcDbEntity
  8
一般
370
              20
390
0
  6
Continuous
 62
               0
100
AcDbVertex
100
AcDb2dVertex
 10
109.6113942987364
 20
118.62253201513427
 30
0.0
  0
VERTEX
  5
9A
100
AcDbEntity
  8
一般
370
              20
390
0
  6
Continuous
 62
               0
100
AcDbVertex
100
AcDb2dVertex
 10
111.85645832900366
 20
116.37746798486698
 30
0.0
  0
SEQEND
  5
9B
100
AcDbEntity
  8
一般
370
              20
390
0
  6
Continuous
 62
               0
  0
POLYLINE
  5
9C
100
AcDbEntity
  8
一般
370
              20
390
0
  6
Continuous
 62
               0
100
AcDb2dPolyline
 66
               1
 10
0.0
 20
0.0
 30
0.0
 75
               5
  0
VERTEX
  5
9D
100
AcDbEntity
  8
一般
370
              20
390
0
  6
Continuous
 62
               0
100
AcDbVertex
100
AcDb2dVertex
 10
111.85645832900366
 20
-118.62253201513427
 30
0.0
  0
VERTEX
  5
9E
100
AcDbEntity
  8
一般
370
              20
390
0
  6
Continuous
 62
               0
100
AcDbVertex
100
AcDb2dVertex
 10
109.6113942987364
 20
-116.37746798486698
 30
0.0
  0
SEQEND
  5
9F
100
AcDbEntity
  8
一般
370
              20
390
0
  6
Continuous
 62
               0
  0
WIPEOUT
  5
A0
100
AcDbEntity
  8
寸法
370
              -2
390
0
  6
STYLE_01
 62
               0
 92
        0
100
AcDbWipeout
 90
        0
 10
88.487759647203347
 20
-291.02580394601745
 30
0.0
 11
25.747265624999994
 21
0.0
 31
0.0
 12
0.0
 22
25.747265624999994
 32
0.0
 13
1.0
 23
1.0
340
0
 70
               7
280
               1
281
              50
282
              50
283
               0
360
0
 71
               2
 91
        5
 14
0.3023635195889548
 24
-10.303173245062505
 14
0.3023635195889548
 24
-11.303173245062503
 14
-0.5
 24
-11.303173245062503
 14
-0.5
 24
-10.303173245062505
 14
0.3023635195889548
 24
-10.303173245062505
  0
MTEXT
  5
A1
100
AcDbEntity
  8
寸法
390
0
 62
               0
100
AcDbMText
 10
98.8170929805367
 20
-12.873632812500004
 30
0.0
 40
10.73216145833333
 41
0.0
 71
               4
 72
               1
  1
235
  7
Calibri (bold)
 11
0.0
 21
1.0
 31
0.0
 73
               1
 44
1.1595967846733624
  0
POINT
  5
A2
100
AcDbEntity
  8
Defpoints
370
               0
390
0
 62
               0
100
AcDbPoint
 10
-99.266073686129971
 20
-117.50000000000063
 30
0.0
  0
POINT
  5
A3
100
AcDbEntity
  8
Defpoints
370
               0
390
0
 62
               0
100
AcDbPoint
 10
-99.266073686129971
 20
117.50000000000063
 30
0.0
  0
POINT
  5
A4
100
AcDbEntity
  8
Defpoints
370
               0
390
0
 62
               0
100
AcDbPoint
 10
110.73392631387003
 20
117.50000000000063
 30
0.0
  0
ENDBLK
  5
A5
100
AcDbEntity
  8
寸法
390
0
100
AcDbBlockEnd
  0
BLOCK
  5
A6
100
AcDbEntity
  8
寸法
390
0
100
AcDbBlockBegin
  2
*D9
 70
               1
 10
0.0
 20
0.0
 30
0.0
  3
*D9
  1

  0
LINE
  5
A7
100
AcDbEntity
  8
寸法
370
              -2
390
0
  6
STYLE_01
 62
               0
100
AcDbLine
 10
-97.678573686129965
 20
82.59999999999998
 30
0.0
 11
71.90892631387004
 21
82.59999999999998
 31
0.0
  0
LINE
  5
A8
100
AcDbEntity
  8
寸法
370
              -2
390
0
  6
STYLE_01
 62
               0
100
AcDbLine
 10
-97.678573686129965
 20
-82.59999999999998
 30
0.0
 11
71.90892631387004
 21
-82.59999999999998
 31
0.0
  0
LINE
  5
A9
100
AcDbEntity
  8
寸法
370
              -2
390
0
  6
STYLE_01
 62
               0
100
AcDbLine
 10
68.733926313870029
 20
84.187499999999986
 30
0.0
 11
68.733926313870029
 21
82.59999999999998
 31
0.0
  0
LINE
  5
AA
100
AcDbEntity
  8
寸法
370
              -2
390
0
  6
STYLE_01
 62
               0
100
AcDbLine
 10
68.733926313870029
 20
-82.59999999999998
 30
0.0
 11
68.733926313870029
 21
-84.187499999999986
 31
0.0
  0
LINE
  5
AB
100
AcDbEntity
  8
寸法
370
              -2
390
0
  6
STYLE_01
 62
               0
100
AcDbLine
 10
68.733926313870029
 20
82.59999999999998
 30
0.0
 11
68.733926313870029
 21
-82.59999999999998
 31
0.0
  0
POLYLINE
  5
AC
100
AcDbEntity
  8
一般
370
              20
390
0
  6
Continuous
 62
               0
100
AcDb2dPolyline
 66
               1
 10
0.0
 20
0.0
 30
0.0
 75
               5
  0
VERTEX
  5
AD
100
AcDbEntity
  8
一般
370
              20
390
0
  6
Continuous
 62
               0
100
AcDbVertex
100
AcDb2dVertex
 10
67.6113942987364
 20
83.722532015133623
 30
0.0
  0
VERTEX
  5
AE
100
AcDbEntity
  8
一般
370
              20
390
0
  6
Continuous
 62
               0
100
AcDbVertex
100
AcDb2dVertex
 10
69.856458329003658
 20
81.477467984866337
 30
0.0
  0
SEQEND
  5
AF
100
AcDbEntity
  8
一般
370
              20
390
0
  6
Continuous
 62
               0
  0
POLYLINE
  5
B0
100
AcDbEntity
  8
一般
370
              20
390
0
  6
Continuous
 62
               0
100
AcDb2dPolyline
 66
               1
 10
0.0
 20
0.0
 30
0.0
 75
               5
  0
VERTEX
  5
B1
100
AcDbEntity
  8
一般
370
              20
390
0
  6
Continuous
 62
               0
100
AcDbVertex
100
AcDb2dVertex
 10
69.856458329003658
 20
-83.722532015133623
 30
0.0
  0
VERTEX
  5
B2
100
AcDbEntity
  8
一般
370
              20
390
0
  6
Continuous
 62
               0
100
AcDbVertex
100
AcDb2dVertex
 10
67.6113942987364
 20
-81.477467984866337
 30
0.0
  0
SEQEND
  5
B3
100
AcDbEntity
  8
一般
370
              20
390
0
  6
Continuous
 62
               0
  0
WIPEOUT
  5
B4
100
AcDbEntity
  8
寸法
370
              -2
390
0
  6
STYLE_01
 62
               0
 92
        0
100
AcDbWipeout
 90
        0
 10
46.487759647203347
 20
-291.02580394601745
 30
0.0
 11
25.747265624999994
 21
0.0
 31
0.0
 12
0.0
 22
25.747265624999994
 32
0.0
 13
1.0
 23
1.0
340
0
 70
               7
280
               1
281
              50
282
              50
283
               0
360
0
 71
               2
 91
        5
 14
0.3023635195889548
 24
-10.303173245062505
 14
0.3023635195889548
 24
-11.303173245062503
 14
-0.5
 24
-11.303173245062503
 14
-0.5
 24
-10.303173245062505
 14
0.3023635195889548
 24
-10.303173245062505
  0
MTEXT
  5
B5
100
AcDbEntity
  8
寸法
390
0
 62
               0
100
AcDbMText
 10
56.8170929805367
 20
-12.873632812500004
 30
0.0
 40
10.73216145833333
 41
0.0
 71
               4
 72
               1
  1
165
  7
Calibri (bold)
 11
0.0
 21
1.0
 31
0.0
 73
               1
 44
1.1595967846733624
  0
POINT
  5
B6
100
AcDbEntity
  8
Defpoints
370
               0
390
0
 62
               0
100
AcDbPoint
 10
-99.266073686129971
 20
-82.59999999999998
 30
0.0
  0
POINT
  5
B7
100
AcDbEntity
  8
Defpoints
370
               0
390
0
 62
               0
100
AcDbPoint
 10
-99.266073686129971
 20
82.59999999999998
 30
0.0
  0
POINT
  5
B8
100
AcDbEntity
  8
Defpoints
370
               0
390
0
 62
               0
100
AcDbPoint
 10
68.733926313870029
 20
82.59999999999998
 30
0.0
  0
ENDBLK
  5
B9
100
AcDbEntity
  8
寸法
390
0
100
AcDbBlockEnd
  0
BLOCK
  5
BA
100
AcDbEntity
  8
一般
390
0
100
AcDbBlockBegin
  2
グループ-6
 70
               0
 10
0.0
 20
0.0
 30
0.0
  3
グループ-6
  1

  0
POLYLINE
  5
BB
100
AcDbEntity
  8
一般
370
              13
390
0
  6
Continuous
 62
               7
100
AcDb2dPolyline
 66
               1
 10
0.0
 20
0.0
 30
0.0
 70
               1
 75
               5
  0
VERTEX
  5
BC
100
AcDbEntity
  8
一般
370
              13
390
0
  6
Continuous
 62
               7
100
AcDbVertex
100
AcDb2dVertex
 10
-514.77333333333343
 20
360.9975
 30
0.0
  0
VERTEX
  5
BD
100
AcDbEntity
  8
一般
370
              13
390
0
  6
Continuous
 62
               7
100
AcDbVertex
100
AcDb2dVertex
 10
514.77333333333343
 20
360.9975
 30
0.0
  0
VERTEX
  5
BE
100
AcDbEntity
  8
一般
370
              13
390
0
  6
Continuous
 62
               7
100
AcDbVertex
100
AcDb2dVertex
 10
514.77333333333343
 20
-360.9975
 30
0.0
  0
VERTEX
  5
BF
100
AcDbEntity
  8
一般
370
              13
390
0
  6
Continuous
 62
               7
100
AcDbVertex
100
AcDb2dVertex
 10
-514.77333333333343
 20
-360.9975
 30
0.0
  0
SEQEND
  5
C0
100
AcDbEntity
  8
一般
370
              13
390
0
  6
Continuous
 62
               7
  0
POLYLINE
  5
C2
100
AcDbEntity
  8
一般
370
              70
390
0
  6
Continuous
 62
               7
100
AcDb2dPolyline
 66
               1
 10
0.0
 20
0.0
 30
0.0
 70
               1
 75
               5
  0
VERTEX
  5
C3
100
AcDbEntity
  8
一般
370
              70
390
0
  6
Continuous
 62
               7
100
AcDbVertex
100
AcDb2dVertex
 10
-494.77337333333344
 20
340.99754000000001
 30
0.0
  0
VERTEX
  5
C4
100
AcDbEntity
  8
一般
370
              70
390
0
  6
Continuous
 62
               7
100
AcDbVertex
100
AcDb2dVertex
 10
494.77337333333344
 20
340.99754000000001
 30
0.0
  0
VERTEX
  5
C5
100
AcDbEntity
  8
一般
370
              70
390
0
  6
Continuous
 62
               7
100
AcDbVertex
100
AcDb2dVertex
 10
494.77337333333344
 20
-340.99754000000001
 30
0.0
  0
VERTEX
  5
C6
100
AcDbEntity
  8
一般
370
              70
390
0
  6
Continuous
 62
               7
100
AcDbVertex
100
AcDb2dVertex
 10
-494.77337333333344
 20
-340.99754000000001
 30
0.0
  0
SEQEND
  5
C7
100
AcDbEntity
  8
一般
370
              70
390
0
  6
Continuous
 62
               7
  0
LINE
  5
C9
100
AcDbEntity
  8
一般
370
              70
390
0
  6
Continuous
 62
               7
100
AcDbLine
 10
-494.77337333333344
 20
340.99754000000001
 30
0.0
 11
-494.77337333333344
 21
350.64954
 31
0.0
  0
LINE
  5
CA
100
AcDbEntity
  8
一般
370
              70
390
0
  6
Continuous
 62
               7
100
AcDbLine
 10
-329.84891555555566
 20
340.99754000000001
 30
0.0
 11
-329.84891555555566
 21
350.64954
 31
0.0
  0
LINE
  5
CB
100
AcDbEntity
  8
一般
370
              70
390
0
  6
Continuous
 62
               7
100
AcDbLine
 10
-164.92445777777786
 20
340.99754000000001
 30
0.0
 11
-164.92445777777786
 21
350.64954
 31
0.0
  0
LINE
  5
CC
100
AcDbEntity
  8
一般
370
              70
390
0
  6
Continuous
 62
               7
100
AcDbLine
 10
-0.0000000000000568
 20
340.99754000000001
 30
0.0
 11
-0.0000000000000568
 21
350.64954
 31
0.0
  0
LINE
  5
CD
100
AcDbEntity
  8
一般
370
              70
390
0
  6
Continuous
 62
               7
100
AcDbLine
 10
164.92445777777775
 20
340.99754000000001
 30
0.0
 11
164.92445777777775
 21
350.64954
 31
0.0
  0
LINE
  5
CE
100
AcDbEntity
  8
一般
370
              70
390
0
  6
Continuous
 62
               7
100
AcDbLine
 10
329.84891555555555
 20
340.99754000000001
 30
0.0
 11
329.84891555555555
 21
350.64954
 31
0.0
  0
LINE
  5
CF
100
AcDbEntity
  8
一般
370
              70
390
0
  6
Continuous
 62
               7
100
AcDbLine
 10
494.77337333333332
 20
340.99754000000001
 30
0.0
 11
494.77337333333332
 21
350.64954
 31
0.0
  0
LINE
  5
D0
100
AcDbEntity
  8
一般
370
              70
390
0
  6
Continuous
 62
               7
100
AcDbLine
 10
-494.77337333333344
 20
-340.99754000000001
 30
0.0
 11
-494.77337333333344
 21
-350.64954
 31
0.0
  0
LINE
  5
D1
100
AcDbEntity
  8
一般
370
              70
390
0
  6
Continuous
 62
               7
100
AcDbLine
 10
-329.84891555555566
 20
-340.99754000000001
 30
0.0
 11
-329.84891555555566
 21
-350.64954
 31
0.0
  0
LINE
  5
D2
100
AcDbEntity
  8
一般
370
              70
390
0
  6
Continuous
 62
               7
100
AcDbLine
 10
-164.92445777777786
 20
-340.99754000000001
 30
0.0
 11
-164.92445777777786
 21
-350.64954
 31
0.0
  0
LINE
  5
D3
100
AcDbEntity
  8
一般
370
              70
390
0
  6
Continuous
 62
               7
100
AcDbLine
 10
-0.0000000000000568
 20
-340.99754000000001
 30
0.0
 11
-0.0000000000000568
 21
-350.64954
 31
0.0
  0
LINE
  5
D4
100
AcDbEntity
  8
一般
370
              70
390
0
  6
Continuous
 62
               7
100
AcDbLine
 10
164.92445777777775
 20
-340.99754000000001
 30
0.0
 11
164.92445777777775
 21
-350.64954
 31
0.0
  0
LINE
  5
D5
100
AcDbEntity
  8
一般
370
              70
390
0
  6
Continuous
 62
               7
100
AcDbLine
 10
329.84891555555555
 20
-340.99754000000001
 30
0.0
 11
329.84891555555555
 21
-350.64954
 31
0.0
  0
LINE
  5
D6
100
AcDbEntity
  8
一般
370
              70
390
0
  6
Continuous
 62
               7
100
AcDbLine
 10
494.77337333333332
 20
-340.99754000000001
 30
0.0
 11
494.77337333333332
 21
-350.64954
 31
0.0
  0
LINE
  5
D7
100
AcDbEntity
  8
一般
370
              70
390
0
  6
Continuous
 62
               7
100
AcDbLine
 10
-494.77337333333344
 20
340.99754000000001
 30
0.0
 11
-504.42537333333343
 21
340.99754000000001
 31
0.0
  0
LINE
  5
D8
100
AcDbEntity
  8
一般
370
              70
390
0
  6
Continuous
 62
               7
100
AcDbLine
 10
-494.77337333333344
 20
170.49877000000001
 30
0.0
 11
-504.42537333333343
 21
170.49877000000001
 31
0.0
  0
LINE
  5
D9
100
AcDbEntity
  8
一般
370
              70
390
0
  6
Continuous
 62
               7
100
AcDbLine
 10
-494.77337333333344
 20
0.0
 30
0.0
 11
-504.42537333333343
 21
0.0
 31
0.0
  0
LINE
  5
DA
100
AcDbEntity
  8
一般
370
              70
390
0
  6
Continuous
 62
               7
100
AcDbLine
 10
-494.77337333333344
 20
-170.49877000000001
 30
0.0
 11
-504.42537333333343
 21
-170.49877000000001
 31
0.0
  0
LINE
  5
DB
100
AcDbEntity
  8
一般
370
              70
390
0
  6
Continuous
 62
               7
100
AcDbLine
 10
-494.77337333333344
 20
-340.99754000000001
 30
0.0
 11
-504.42537333333343
 21
-340.99754000000001
 31
0.0
  0
LINE
  5
DC
100
AcDbEntity
  8
一般
370
              70
390
0
  6
Continuous
 62
               7
100
AcDbLine
 10
494.77337333333344
 20
340.99754000000001
 30
0.0
 11
504.42537333333343
 21
340.99754000000001
 31
0.0
  0
LINE
  5
DD
100
AcDbEntity
  8
一般
370
              70
390
0
  6
Continuous
 62
               7
100
AcDbLine
 10
494.77337333333344
 20
170.49877000000001
 30
0.0
 11
504.42537333333343
 21
170.49877000000001
 31
0.0
  0
LINE
  5
DE
100
AcDbEntity
  8
一般
370
              70
390
0
  6
Continuous
 62
               7
100
AcDbLine
 10
494.77337333333344
 20
0.0
 30
0.0
 11
504.42537333333343
 21
0.0
 31
0.0
  0
LINE
  5
DF
100
AcDbEntity
  8
一般
370
              70
390
0
  6
Continuous
 62
               7
100
AcDbLine
 10
494.77337333333344
 20
-170.49877000000001
 30
0.0
 11
504.42537333333343
 21
-170.49877000000001
 31
0.0
  0
LINE
  5
E0
100
AcDbEntity
  8
一般
370
              70
390
0
  6
Continuous
 62
               7
100
AcDbLine
 10
494.77337333333344
 20
-340.99754000000001
 30
0.0
 11
504.42537333333343
 21
-340.99754000000001
 31
0.0
  0
MTEXT
  5
E1
100
AcDbEntity
  8
一般
390
0
 62
               7
100
AcDbMText
 10
-412.31114444444455
 20
347.34754000000004
 30
0.0
 40
4.0245605468750005
 41
0.0
 71
               5
 72
               1
  1
1
  7
Calibri (bold)
 73
               1
 44
1.1595967846733619
  0
MTEXT
  5
E2
100
AcDbEntity
  8
一般
390
0
 62
               7
100
AcDbMText
 10
-412.31114444444455
 20
-347.34753999999998
 30
0.0
 40
4.0245605468750005
 41
0.0
 71
               5
 72
               1
  1
1
  7
Calibri (bold)
 73
               1
 44
1.1595967846733619
  0
MTEXT
  5
E3
100
AcDbEntity
  8
一般
390
0
 62
               7
100
AcDbMText
 10
-247.38668666666675
 20
347.34754000000004
 30
0.0
 40
4.0245605468750005
 41
0.0
 71
               5
 72
               1
  1
2
  7
Calibri (bold)
 73
               1
 44
1.1595967846733619
  0
MTEXT
  5
E4
100
AcDbEntity
  8
一般
390
0
 62
               7
100
AcDbMText
 10
-247.38668666666675
 20
-347.34753999999998
 30
0.0
 40
4.0245605468750005
 41
0.0
 71
               5
 72
               1
  1
2
  7
Calibri (bold)
 73
               1
 44
1.1595967846733619
  0
MTEXT
  5
E5
100
AcDbEntity
  8
一般
390
0
 62
               7
100
AcDbMText
 10
-82.462228888888944
 20
347.34754000000004
 30
0.0
 40
4.0245605468750005
 41
0.0
 71
               5
 72
               1
  1
3
  7
Calibri (bold)
 73
               1
 44
1.1595967846733619
  0
MTEXT
  5
E6
100
AcDbEntity
  8
一般
390
0
 62
               7
100
AcDbMText
 10
-82.462228888888944
 20
-347.34753999999998
 30
0.0
 40
4.0245605468750005
 41
0.0
 71
               5
 72
               1
  1
3
  7
Calibri (bold)
 73
               1
 44
1.1595967846733619
  0
MTEXT
  5
E7
100
AcDbEntity
  8
一般
390
0
 62
               7
100
AcDbMText
 10
82.462228888888859
 20
347.34754000000004
 30
0.0
 40
4.0245605468750005
 41
0.0
 71
               5
 72
               1
  1
4
  7
Calibri (bold)
 73
               1
 44
1.1595967846733619
  0
MTEXT
  5
E8
100
AcDbEntity
  8
一般
390
0
 62
               7
100
AcDbMText
 10
82.462228888888859
 20
-347.34753999999998
 30
0.0
 40
4.0245605468750005
 41
0.0
 71
               5
 72
               1
  1
4
  7
Calibri (bold)
 73
               1
 44
1.1595967846733619
  0
MTEXT
  5
E9
100
AcDbEntity
  8
一般
390
0
 62
               7
100
AcDbMText
 10
247.38668666666666
 20
347.34754000000004
 30
0.0
 40
4.0245605468750005
 41
0.0
 71
               5
 72
               1
  1
5
  7
Calibri (bold)
 73
               1
 44
1.1595967846733619
  0
MTEXT
  5
EA
100
AcDbEntity
  8
一般
390
0
 62
               7
100
AcDbMText
 10
247.38668666666666
 20
-347.34753999999998
 30
0.0
 40
4.0245605468750005
 41
0.0
 71
               5
 72
               1
  1
5
  7
Calibri (bold)
 73
               1
 44
1.1595967846733619
  0
MTEXT
  5
EB
100
AcDbEntity
  8
一般
390
0
 62
               7
100
AcDbMText
 10
412.31114444444449
 20
347.34754000000004
 30
0.0
 40
4.0245605468750005
 41
0.0
 71
               5
 72
               1
  1
6
  7
Calibri (bold)
 73
               1
 44
1.1595967846733619
  0
MTEXT
  5
EC
100
AcDbEntity
  8
一般
390
0
 62
               7
100
AcDbMText
 10
412.31114444444449
 20
-347.34753999999998
 30
0.0
 40
4.0245605468750005
 41
0.0
 71
               5
 72
               1
  1
6
  7
Calibri (bold)
 73
               1
 44
1.1595967846733619
  0
MTEXT
  5
ED
100
AcDbEntity
  8
一般
390
0
 62
               7
100
AcDbMText
 10
-501.12337333333346
 20
255.748155
 30
0.0
 40
4.0245605468750005
 41
0.0
 71
               5
 72
               1
  1
A
  7
Calibri (bold)
 73
               1
 44
1.1595967846733619
  0
MTEXT
  5
EE
100
AcDbEntity
  8
一般
390
0
 62
               7
100
AcDbMText
 10
501.1233733333334
 20
255.748155
 30
0.0
 40
4.0245605468750005
 41
0.0
 71
               5
 72
               1
  1
A
  7
Calibri (bold)
 73
               1
 44
1.1595967846733619
  0
MTEXT
  5
EF
100
AcDbEntity
  8
一般
390
0
 62
               7
100
AcDbMText
 10
-501.12337333333346
 20
85.24938499999999
 30
0.0
 40
4.0245605468750005
 41
0.0
 71
               5
 72
               1
  1
B
  7
Calibri (bold)
 73
               1
 44
1.1595967846733619
  0
MTEXT
  5
F0
100
AcDbEntity
  8
一般
390
0
 62
               7
100
AcDbMText
 10
501.1233733333334
 20
85.24938499999999
 30
0.0
 40
4.0245605468750005
 41
0.0
 71
               5
 72
               1
  1
B
  7
Calibri (bold)
 73
               1
 44
1.1595967846733619
  0
MTEXT
  5
F1
100
AcDbEntity
  8
一般
390
0
 62
               7
100
AcDbMText
 10
-501.12337333333346
 20
-85.249385000000018
 30
0.0
 40
4.0245605468750005
 41
0.0
 71
               5
 72
               1
  1
C
  7
Calibri (bold)
 73
               1
 44
1.1595967846733619
  0
MTEXT
  5
F2
100
AcDbEntity
  8
一般
390
0
 62
               7
100
AcDbMText
 10
501.1233733333334
 20
-85.249385000000018
 30
0.0
 40
4.0245605468750005
 41
0.0
 71
               5
 72
               1
  1
C
  7
Calibri (bold)
 73
               1
 44
1.1595967846733619
  0
MTEXT
  5
F3
100
AcDbEntity
  8
一般
390
0
 62
               7
100
AcDbMText
 10
-501.12337333333346
 20
-255.74815500000003
 30
0.0
 40
4.0245605468750005
 41
0.0
 71
               5
 72
               1
  1
D
  7
Calibri (bold)
 73
               1
 44
1.1595967846733619
  0
MTEXT
  5
F4
100
AcDbEntity
  8
一般
390
0
 62
               7
100
AcDbMText
 10
501.1233733333334
 20
-255.74815500000003
 30
0.0
 40
4.0245605468750005
 41
0.0
 71
               5
 72
               1
  1
D
  7
Calibri (bold)
 73
               1
 44
1.1595967846733619
  0
ENDBLK
  5
F5
100
AcDbEntity
  8
一般
390
0
100
AcDbBlockEnd
  0
BLOCK
  5
F6
100
AcDbEntity
  8
一般
390
0
100
AcDbBlockBegin
  2
Drawing Border - Universal
 70
               2
 10
0.0
 20
0.0
 30
0.0
  3
Drawing Border - Universal
  1

  0
INSERT
  5
F7
100
AcDbEntity
  8
一般
390
0
 62
               7
100
AcDbBlockReference
  2
グループ-6
 10
0.0
 20
0.0
 30
0.0
  0
ENDBLK
  5
F8
100
AcDbEntity
  8
一般
390
0
100
AcDbBlockEnd
  0
BLOCK
  5
F9
100
AcDbEntity
  8
寸法
390
0
100
AcDbBlockBegin
  2
グループ-7
 70
               0
 10
0.0
 20
0.0
 30
0.0
  3
グループ-7
  1

  0
CIRCLE
  5
FA
100
AcDbEntity
  8
寸法
370
              18
390
0
  6
Continuous
 62
               7
100
AcDbCircle
 10
-239.2046341099749
 20
-5.2391315465930006
 30
0.0
 40
82.59999999999998
  0
CIRCLE
  5
FB
100
AcDbEntity
  8
寸法
370
              18
390
0
  6
Continuous
 62
               7
100
AcDbCircle
 10
-239.2046341099749
 20
-5.2391315465930006
 30
0.0
 40
117.5000000000006
  0
CIRCLE
  5
FC
100
AcDbEntity
  8
寸法
370
              18
390
0
  6
Continuous
 62
               7
100
AcDbCircle
 10
-199.02287371164039
 20
91.768219367092144
 30
0.0
 40
6.0000000000000284
  0
CIRCLE
  5
FD
100
AcDbEntity
  8
寸法
370
              18
390
0
  6
Continuous
 62
               7
100
AcDbCircle
 10
-199.02287371164039
 20
-102.24648246027813
 30
0.0
 40
6.0000000000000284
  0
CIRCLE
  5
FE
100
AcDbEntity
  8
寸法
370
              18
390
0
  6
Continuous
 62
               7
100
AcDbCircle
 10
-336.21198502366008
 20
34.942628851741446
 30
0.0
 40
5.9999999999999885
  0
CIRCLE
  5
FF
100
AcDbEntity
  8
寸法
370
              18
390
0
  6
Continuous
 62
               7
100
AcDbCircle
 10
-336.21198502366008
 20
-45.420891944927419
 30
0.0
 40
5.9999999999999885
  0
CIRCLE
  5
100
100
AcDbEntity
  8
寸法
370
              18
390
0
  6
Continuous
 62
               7
100
AcDbCircle
 10
-279.38639450830942
 20
91.768219367092115
 30
0.0
 40
6.0000000000000284
  0
CIRCLE
  5
101
100
AcDbEntity
  8
寸法
370
              18
390
0
  6
Continuous
 62
               7
100
AcDbCircle
 10
-142.19728319628882
 20
34.942628851741418
 30
0.0
 40
5.9999999999999476
  0
CIRCLE
  5
102
100
AcDbEntity
  8
寸法
370
              18
390
0
  6
Continuous
 62
               7
100
AcDbCircle
 10
-279.38639450830942
 20
-102.24648246027813
 30
0.0
 40
6.0000000000000284
  0
CIRCLE
  5
103
100
AcDbEntity
  8
寸法
370
              18
390
0
  6
Continuous
 62
               7
100
AcDbCircle
 10
-142.19728319628894
 20
-45.420891944927433
 30
0.0
 40
6.0000000000000284
  0
CIRCLE
  5
104
100
AcDbEntity
  8
一般
370
               5
390
0
  6
Continuous
 62
               7
100
AcDbCircle
 10
-239.2046341099749
 20
-5.2391315465930006
 30
0.0
 40
91.999999999999957
  0
CIRCLE
  5
105
100
AcDbEntity
  8
一般
370
               5
390
0
  6
Continuous
 62
               7
100
AcDbCircle
 10
-239.2046341099749
 20
-5.2391315465930006
 30
0.0
 40
87.5
  0
ENDBLK
  5
106
100
AcDbEntity
  8
寸法
390
0
100
AcDbBlockEnd
  0
ENDSEC
  0
SECTION
  2
ENTITIES
  0
INSERT
  5
107
100
AcDbEntity
  8
一般
390
0
 62
               7
100
AcDbBlockReference
  2
グループ-4
 10
-272.91303958692447
 20
5.2391315465929953
 30
0.0
  0
MTEXT
  5
108
100
AcDbEntity
  8
寸法
390
0
 62
               7
100
AcDbMText
 10
-726.91303958692447
 20
301.20737373409298
 30
0.0
 40
16.098242187499999
 41
0.0
 71
               1
 72
               1
  1
B. VG150-VG150 Insulated Frange(10mmt)\P
  7
Calibri (bold)
 73
               1
 44
1.1595967846733621
  0
INSERT
  5
109
100
AcDbEntity
  8
寸法
390
0
 62
               7
100
AcDbBlockReference
  2
グループ-5
 10
-272.91303958692447
 20
5.2391315465929953
 30
0.0
  0
DIMENSION
  5
10A
100
AcDbEntity
  8
寸法
370
               5
390
0
  6
STYLE_01
 62
               7
100
AcDbDimension
  2
*D8
 10
110.73392631387003
 20
117.50000000000063
 30
0.0
 11
110.73392631387003
 21
-0.0000000000000053
 31
0.0
 71
               5
 72
               1
 41
1.0
 42
0.0
  3
Arch
100
AcDbAlignedDimension
 13
-99.266073686129971
 23
-117.50000000000063
 33
0.0
 14
-99.266073686129971
 24
117.50000000000063
 34
0.0
 50
-90.0
100
AcDbRotatedDimension
1001
ACAD
1000
DSTYLE
1002
{
1070
             279
1070
               2
1070
             340
1005
2F
1002
}
  0
DIMENSION
  5
10B
100
AcDbEntity
  8
寸法
370
               5
390
0
  6
STYLE_01
 62
               7
100
AcDbDimension
  2
*D9
 10
68.733926313870029
 20
82.59999999999998
 30
0.0
 11
68.733926313870029
 21
-0.0000000000000053
 31
0.0
 71
               5
 72
               1
 41
1.0
 42
0.0
  3
Arch
100
AcDbAlignedDimension
 13
-99.266073686129971
 23
-82.59999999999998
 33
0.0
 14
-99.266073686129971
 24
82.59999999999998
 34
0.0
 50
-90.0
100
AcDbRotatedDimension
1001
ACAD
1000
DSTYLE
1002
{
1070
             279
1070
               2
1070
             340
1005
2F
1002
}
  0
INSERT
  5
10C
100
AcDbEntity
  8
一般
390
0
 62
               7
100
AcDbBlockReference
  2
Drawing Border - Universal
 10
-272.91303958692447
 20
5.2391315465929953
 30
0.0
  0
INSERT
  5
10D
100
AcDbEntity
  8
寸法
390
0
 62
               7
100
AcDbBlockReference
  2
グループ-7
 10
-272.91303958692447
 20
5.2391315465929953
 30
0.0
  0
ENDSEC
  0
SECTION
  2
OBJECTS
  0
DICTIONARY
  5
19
100
AcDbDictionary
280
               0
281
               1
  3
ACAD_GROUP
350
1A
  3
ACAD_MLINESTYLE
350
1B
  3
ACAD_LAYOUT
350
1E
  3
ACAD_PLOTSETTINGS
350
22
  3
ACAD_PLOTSTYLENAME
350
1F
  3
ACAD_WIPEOUT_VARS
350
23
  0
DICTIONARY
  5
1A
102
{ACAD_REACTORS
330
19
102
}
100
AcDbDictionary
280
               0
281
               1
  0
DICTIONARY
  5
1B
102
{ACAD_REACTORS
330
19
102
}
100
AcDbDictionary
280
               0
281
               1
  3
Standard
350
1C
  0
MLINESTYLE
  5
1C
102
{ACAD_REACTORS
330
1B
102
}
100
AcDbMlineStyle
  2
Standard
 70
               0
  3

 62
               0
 51
90.0
 52
90.0
 71
               2
 49
0.5
 62
             256
  6
ByLayer
 49
-0.5
 62
             256
  6
ByLayer
  0
ACDBDICTIONARYWDFLT
  5
1F
102
{ACAD_REACTORS
330
19
102
}
100
AcDbDictionary
281
               1
  3
Normal
350
1D
100
AcDbDictionaryWithDefault
340
1D
  0
ACDBPLACEHOLDER
  5
1D
102
{ACAD_REACTORS
330
1F
102
}
  0
LAYOUT
  5
20
102
{ACAD_REACTORS
330
1E
102
}
100
AcDbPlotSettings
  1

  2

  4

  6

 40
0.0
 41
0.0
 42
0.0
 43
0.0
 44
0.0
 45
0.0
 46
0.0
 47
0.0
 48
0.0
 49
0.0
140
0.0
141
0.0
142
1.0
143
1.0
 70
            1024
 72
               0
 73
               0
 74
               0
  7

 75
               0
147
1.0
148
0.0
149
0.0
100
AcDbLayout
  1
Model
 70
               0
 71
               0
 10
0.0
 20
0.0
 11
0.0
 21
0.0
 12
0.0
 22
0.0
 32
0.0
 14
0.0
 24
0.0
 34
0.0
 15
0.0
 25
0.0
 35
0.0
146
0.0
 13
0.0
 23
0.0
 33
0.0
 16
0.0
 26
0.0
 36
0.0
 17
0.0
 27
0.0
 37
0.0
 76
               0
330
A
331
0
345
0
346
0
  0
LAYOUT
  5
21
102
{ACAD_REACTORS
330
1E
102
}
100
AcDbPlotSettings
  1

  2

  4

  6

 40
0.0
 41
0.0
 42
0.0
 43
0.0
 44
0.0
 45
0.0
 46
0.0
 47
0.0
 48
0.0
 49
0.0
140
0.0
141
0.0
142
1.0
143
1.0
 70
               0
 72
               0
 73
               0
 74
               0
  7

 75
               0
147
1.0
148
0.0
149
0.0
100
AcDbLayout
  1
Layout1
 70
               0
 71
               0
 10
0.0
 20
0.0
 11
0.0
 21
0.0
 12
0.0
 22
0.0
 32
0.0
 14
0.0
 24
0.0
 34
0.0
 15
0.0
 25
0.0
 35
0.0
146
0.0
 13
0.0
 23
0.0
 33
0.0
 16
0.0
 26
0.0
 36
0.0
 17
0.0
 27
0.0
 37
0.0
 76
               0
330
B
331
0
345
0
346
0
  0
DICTIONARY
  5
1E
102
{ACAD_REACTORS
330
19
102
}
100
AcDbDictionary
280
               0
281
               1
  3
Layout1
350
21
  3
Model
350
20
  0
DICTIONARY
  5
22
102
{ACAD_REACTORS
330
19
102
}
100
AcDbDictionary
280
               0
281
               1
  0
WIPEOUTVARIABLES
  5
23
100
AcDbWipeoutVariables
 70
               0
  0
ENDSEC
  0
EOF
