  0
SECTION
  2
HEADER
  9
$ACADVER
  1
AC1018
  9
$ACADMAINTVER
 70
     0
  9
$DWGCODEPAGE
  3
ANSI_932
  9
$INSBASE
 10
0.0
 20
0.0
 30
0.0
  9
$EXTMIN
 10
-873.2759973901079
 20
-906.9622384858989
 30
-10.50025416666667
  9
$EXTMAX
 10
957.0968800551132
 20
240.7179676972448
 30
10.50025416666667
  9
$LIMMIN
 10
0.0
 20
0.0
  9
$LIMMAX
 10
0.0
 20
0.0
  9
$ORTHOMODE
 70
     0
  9
$REGENMODE
 70
     1
  9
$FILLMODE
 70
     1
  9
$QTEXTMODE
 70
     0
  9
$MIRRTEXT
 70
     1
  9
$LTSCALE
 40
25.4
  9
$ATTMODE
 70
     1
  9
$TEXTSIZE
 40
0.2
  9
$TRACEWID
 40
1.0
  9
$TEXTSTYLE
  7
Standard
  9
$CLAYER
  8
寸法
  9
$CELTYPE
  6
Continuous
  9
$CECOLOR
 62
   256
  9
$CELTSCALE
 40
1.0
  9
$DISPSILH
 70
     0
  9
$DIMSCALE
 40
1.0
  9
$DIMASZ
 40
11.22412109375
  9
$DIMEXO
 40
7.9375
  9
$DIMDLI
 40
10.16
  9
$DIMRND
 40
0.0
  9
$DIMDLE
 40
1.5875
  9
$DIMEXE
 40
15.875
  9
$DIMTP
 40
0.0
  9
$DIMTM
 40
0.0
  9
$DIMTXT
 40
15.65106879340278
  9
$DIMCEN
 40
0.0
  9
$DIMTSZ
 40
0.0
  9
$DIMTOL
 70
     0
  9
$DIMLIM
 70
     0
  9
$DIMTIH
 70
     0
  9
$DIMTOH
 70
     0
  9
$DIMSE1
 70
     0
  9
$DIMSE2
 70
     0
  9
$DIMTAD
 70
     1
  9
$DIMZIN
 70
    11
  9
$DIMBLK
  1
VW_SLASH
  9
$DIMASO
 70
     1
  9
$DIMSHO
 70
     1
  9
$DIMPOST
  1
<>
  9
$DIMAPOST
  1
[]
  9
$DIMALT
 70
     0
  9
$DIMALTD
 70
     3
  9
$DIMALTF
 40
0.0010936132983377
  9
$DIMLFAC
 40
1.0
  9
$DIMTOFL
 70
     1
  9
$DIMTVP
 40
0.0
  9
$DIMTIX
 70
     1
  9
$DIMSOXD
 70
     0
  9
$DIMSAH
 70
     0
  9
$DIMBLK1
  1

  9
$DIMBLK2
  1

  9
$DIMSTYLE
  2
Arch
  9
$DIMCLRD
 70
     0
  9
$DIMCLRE
 70
     0
  9
$DIMCLRT
 70
     0
  9
$DIMTFAC
 40
1.0
  9
$DIMGAP
 40
1.5875
  9
$DIMJUST
 70
     0
  9
$DIMSD1
 70
     0
  9
$DIMSD2
 70
     0
  9
$DIMTOLJ
 70
     1
  9
$DIMTZIN
 70
    11
  9
$DIMALTZ
 70
     7
  9
$DIMALTTZ
 70
     7
  9
$DIMUPT
 70
     0
  9
$DIMDEC
 70
     1
  9
$DIMTDEC
 70
     1
  9
$DIMALTU
 70
     2
  9
$DIMALTTD
 70
     2
  9
$DIMTXSTY
  7
Calibri (bold)
  9
$DIMAUNIT
 70
     0
  9
$DIMADEC
 70
     2
  9
$DIMALTRND
 40
0.0
  9
$DIMAZIN
 70
     0
  9
$DIMDSEP
 70
    46
  9
$DIMATFIT
 70
     0
  9
$DIMFRAC
 70
     2
  9
$DIMLDRBLK
  1

  9
$DIMLUNIT
 70
     2
  9
$DIMLWD
 70
    -2
  9
$DIMLWE
 70
    -2
  9
$DIMTMOVE
 70
     0
  9
$LUNITS
 70
     2
  9
$LUPREC
 70
     4
  9
$SKETCHINC
 40
0.1
  9
$FILLETRAD
 40
0.0
  9
$AUNITS
 70
     0
  9
$AUPREC
 70
     0
  9
$MENU
  1
acad
  9
$ELEVATION
 40
0.0
  9
$PELEVATION
 40
0.0
  9
$THICKNESS
 40
0.0
  9
$LIMCHECK
 70
     0
  9
$CHAMFERA
 40
0.0
  9
$CHAMFERB
 40
0.0
  9
$CHAMFERC
 40
0.0
  9
$CHAMFERD
 40
0.0
  9
$SKPOLY
 70
     0
  9
$TDCREATE
 40
2447893.375
  9
$TDUCREATE
 40
0.0
  9
$TDUPDATE
 40
2447893.375
  9
$TDUUPDATE
 40
0.0
  9
$TDINDWG
 40
0.0
  9
$TDUSRTIMER
 40
0.0
  9
$USRTIMER
 70
     1
  9
$ANGBASE
 50
0.0
  9
$ANGDIR
 70
     0
  9
$PDMODE
 70
     1
  9
$PDSIZE
 40
-2.0
  9
$PLINEWID
 40
0.0
  9
$SPLFRAME
 70
     0
  9
$SPLINETYPE
 70
     6
  9
$SPLINESEGS
 70
     8
  9
$HANDSEED
  5
2FC
  9
$SURFTAB1
 70
     6
  9
$SURFTAB2
 70
     6
  9
$SURFTYPE
 70
     6
  9
$SURFU
 70
     6
  9
$SURFV
 70
     6
  9
$UCSBASE
  2

  9
$UCSNAME
  2

  9
$UCSORG
 10
0.0
 20
0.0
 30
0.0
  9
$UCSXDIR
 10
1.0
 20
0.0
 30
0.0
  9
$UCSYDIR
 10
0.0
 20
1.0
 30
0.0
  9
$UCSORTHOREF
  2

  9
$UCSORTHOVIEW
 70
     0
  9
$UCSORGTOP
 10
0.0
 20
0.0
 30
0.0
  9
$UCSORGBOTTOM
 10
0.0
 20
0.0
 30
0.0
  9
$UCSORGLEFT
 10
0.0
 20
0.0
 30
0.0
  9
$UCSORGRIGHT
 10
0.0
 20
0.0
 30
0.0
  9
$UCSORGFRONT
 10
0.0
 20
0.0
 30
0.0
  9
$UCSORGBACK
 10
0.0
 20
0.0
 30
0.0
  9
$PUCSBASE
  2

  9
$PUCSNAME
  2

  9
$PUCSORG
 10
0.0
 20
0.0
 30
0.0
  9
$PUCSXDIR
 10
1.0
 20
0.0
 30
0.0
  9
$PUCSYDIR
 10
0.0
 20
1.0
 30
0.0
  9
$PUCSORTHOREF
  2

  9
$PUCSORTHOVIEW
 70
     0
  9
$PUCSORGTOP
 10
0.0
 20
0.0
 30
0.0
  9
$PUCSORGBOTTOM
 10
0.0
 20
0.0
 30
0.0
  9
$PUCSORGLEFT
 10
0.0
 20
0.0
 30
0.0
  9
$PUCSORGRIGHT
 10
0.0
 20
0.0
 30
0.0
  9
$PUCSORGFRONT
 10
0.0
 20
0.0
 30
0.0
  9
$PUCSORGBACK
 10
0.0
 20
0.0
 30
0.0
  9
$USERI1
 70
     0
  9
$USERI2
 70
     0
  9
$USERI3
 70
     0
  9
$USERI4
 70
     0
  9
$USERI5
 70
     0
  9
$USERR1
 40
0.0
  9
$USERR2
 40
0.0
  9
$USERR3
 40
0.0
  9
$USERR4
 40
0.0
  9
$USERR5
 40
0.0
  9
$WORLDVIEW
 70
     1
  9
$SHADEDGE
 70
     3
  9
$SHADEDIF
 70
    70
  9
$TILEMODE
 70
     1
  9
$MAXACTVP
 70
    64
  9
$PINSBASE
 10
0.0
 20
0.0
 30
0.0
  9
$PLIMCHECK
 70
     0
  9
$PEXTMIN
 10
1.000000000000000E+20
 20
1.000000000000000E+20
 30
1.000000000000000E+20
  9
$PEXTMAX
 10
-1.000000000000000E+20
 20
-1.000000000000000E+20
 30
-1.000000000000000E+20
  9
$PLIMMIN
 10
0.0
 20
0.0
  9
$PLIMMAX
 10
12.0
 20
9.0
  9
$UNITMODE
 70
     0
  9
$VISRETAIN
 70
     0
  9
$PLINEGEN
 70
     1
  9
$PSLTSCALE
 70
     0
  9
$TREEDEPTH
 70
  3020
  9
$CMLSTYLE
  2
Standard
  9
$CMLJUST
 70
     0
  9
$CMLSCALE
 40
1.0
  9
$PROXYGRAPHICS
 70
     0
  9
$MEASUREMENT
 70
     1
  9
$CELWEIGHT
370
     0
  9
$ENDCAPS
280
     0
  9
$JOINSTYLE
280
     0
  9
$LWDISPLAY
290
     1
  9
$INSUNITS
 70
     4
  9
$HYPERLINKBASE
  1

  9
$STYLESHEET
  1

  9
$XEDIT
290
     1
  9
$CEPSNTYPE
380
     0
  9
$PSTYLEMODE
290
     1
  9
$FINGERPRINTGUID
  2

  9
$VERSIONGUID
  2

  9
$EXTNAMES
290
     1
  9
$PSVPSCALE
 40
0.0
  9
$OLESTARTUP
290
     0
  9
$SORTENTS
280
   127
  9
$INDEXCTL
280
     0
  9
$HIDETEXT
280
     1
  9
$XCLIPFRAME
290
     0
  9
$HALOGAP
280
     0
  9
$OBSCOLOR
 70
   257
  9
$OBSLTYPE
280
     0
  9
$INTERSECTIONDISPLAY
280
     0
  9
$INTERSECTIONCOLOR
 70
   257
  9
$DIMASSOC
280
     2
  9
$PROJECTNAME
  1

  0
ENDSEC
  0
SECTION
  2
CLASSES
  0
CLASS
  1
LWPOLYLINE
  2
AcDbPolyline
  3
AutoCAD 2000
 90
        0
 91
        1
280
     0
281
     1
  0
CLASS
  1
IMAGE
  2
AcDbRasterImage
  3
ISM
 90
      127
 91
        4
280
     0
281
     1
  0
CLASS
  1
OLE2FRAME
  2
AcDbOle2Frame
  3
AutoCAD 2000
 90
        0
 91
        1
280
     0
281
     1
  0
CLASS
  1
HATCH
  2
AcDbHatch
  3
AutoCAD 2000
 90
        0
 91
        1
280
     0
281
     1
  0
CLASS
  1
DICTIONARYVAR
  2
AcDbDictionaryVar
  3
ObjectDBX Classes
 90
        0
 91
        3
280
     0
281
     0
  0
CLASS
  1
RASTERVARIABLES
  2
AcDbRasterVariables
  3
ISM
 90
        0
 91
        3
280
     0
281
     0
  0
CLASS
  1
IMAGEDEF
  2
AcDbRasterImageDef
  3
ISM
 90
        0
 91
        3
280
     0
281
     0
  0
CLASS
  1
IMAGEDEF_REACTOR
  2
AcDbRasterImageDefReactor
  3
ISM
 90
        1
 91
        3
280
     0
281
     0
  0
CLASS
  1
IDBUFFER
  2
AcDbIdBuffer
  3
ObjectDBX Classes
 90
        0
 91
        3
280
     0
281
     0
  0
CLASS
  1
SPATIAL_FILTER
  2
AcDbSpatialFilter
  3
ObjectDBX Classes
 90
        0
 91
        3
280
     0
281
     0
  0
CLASS
  1
XRECORD
  2
AcDbXrecord
  3
AutoCAD 2000
 90
        0
 91
        1
280
     0
281
     0
  0
CLASS
  1
SORTENTSTABLE
  2
AcDbSortentsTable
  3
ObjectDBX Classes
 90
        0
 91
        3
280
     0
281
     0
  0
CLASS
  1
LAYER_INDEX
  2
AcDbLayerIndex
  3
ObjectDBX Classes
 90
        0
 91
        3
280
     0
281
     0
  0
CLASS
  1
SPATIAL_INDEX
  2
AcDbSpatialIndex
  3
AutoCAD 2000
 90
        0
 91
        3
280
     0
281
     0
  0
CLASS
  1
OBJECT_PTR
  2
CAseDLPNTableRecord
  3
ASE-LPNTableRecord
 90
        1
 91
        3
280
     0
281
     0
  0
CLASS
  1
LAYOUT
  2
AcDbLayout
  3
ObjectDBX Classes
 90
        0
 91
        1
280
     0
281
     0
  0
CLASS
  1
PLOTSETTINGS
  2
AcDbPlotSettings
  3
ObjectDBX Classes
 90
        0
 91
        3
280
     0
281
     0
  0
CLASS
  1
ACDBDICTIONARYWDFLT
  2
AcDbDictionaryWithDefault
  3
ObjectDBX Classes
 90
        0
 91
        3
280
     0
281
     0
  0
CLASS
  1
ACDBPLACEHOLDER
  2
AcDbPlaceHolder
  3
ObjectDBX Classes
 90
        0
 91
        1
280
     0
281
     0
  0
CLASS
  1
VBA_PROJECT
  2
AcDbVbaProject
  3
ObjectDBX Classes
 90
        0
 91
        1
280
     0
281
     0
  0
CLASS
  1
WIPEOUT
  2
AcDbWipeout
  3
WipeOut|AutoCAD Express Tool|expresstools@autodesk.com
 90
      127
 91
        3
280
     0
281
     1
  0
CLASS
  1
WIPEOUTVARIABLES
  2
AcDbWipeoutVariables
  3
WipeOut|AutoCAD Express Tool|expresstools@autodesk.com
 90
        0
 91
        3
280
     0
281
     0
  0
CLASS
  1
RTEXT
  2
RText
  3
RText|AutoCAD Express Tool|expresstools@autodesk.com
 90
        0
 91
        3
280
     0
281
     1
  0
CLASS
  1
ARCALIGNEDTEXT
  2
AcDbArcAlignedText
  3
ATEXT|AutoCAD Express Tool|expresstools@autodesk.com
 90
        0
 91
        3
280
     0
281
     1
  0
ENDSEC
  0
SECTION
  2
TABLES
  0
TABLE
  2
VPORT
  5
7
330
0
100
AcDbSymbolTable
 70
     1
  0
VPORT
  5
15
330
7
100
AcDbSymbolTableRecord
100
AcDbViewportTableRecord
  2
*ACTIVE
 70
     0
 10
0.0
 20
0.0
 11
1.0
 21
1.0
 12
41.91044133250261
 22
-333.1221353943271
 13
0.0
 23
0.0
 14
1.0
 24
1.0
 15
0.0
 25
0.0
 16
0.0
 26
0.0
 36
1.0
 17
0.0
 27
0.0
 37
0.0
 40
1147.680206183144
 41
0.688564
 42
50.0
 43
0.0
 44
0.0
 50
0.0
 51
0.0
 71
     0
 72
  2000
 73
     1
 74
     1
 75
     0
 76
     0
 77
     0
 78
     0
281
     0
 65
     0
110
0.0
120
0.0
130
0.0
111
1.0
121
0.0
131
0.0
112
0.0
122
1.0
132
0.0
 79
     0
146
0.0
  0
ENDTAB
  0
TABLE
  2
LTYPE
  5
4
330
0
100
AcDbSymbolTable
 70
    11
  0
LTYPE
  5
11
330
4
100
AcDbSymbolTableRecord
100
AcDbLinetypeTableRecord
  2
ByBlock
 70
     0
  3

 72
    65
 73
     0
 40
0.0
  0
LTYPE
  5
12
330
4
100
AcDbSymbolTableRecord
100
AcDbLinetypeTableRecord
  2
ByLayer
 70
     0
  3

 72
    65
 73
     0
 40
0.0
  0
LTYPE
  5
13
330
4
100
AcDbSymbolTableRecord
100
AcDbLinetypeTableRecord
  2
Continuous
 70
     0
  3
Solid line
 72
    65
 73
     0
 40
0.0
  0
LTYPE
  5
4F
330
4
100
AcDbSymbolTableRecord
100
AcDbLinetypeTableRecord
  2
STYLE_01
 70
     0
  3

 72
    65
 73
     2
 40
0.41664
 49
0.20828
 74
     0
 49
-0.20836
 74
     0
  0
LTYPE
  5
50
330
4
100
AcDbSymbolTableRecord
100
AcDbLinetypeTableRecord
  2
STYLE_02
 70
     0
  3

 72
    65
 73
     2
 40
0.6944250000000001
 49
0.48607
 74
     0
 49
-0.2083550000000001
 74
     0
  0
LTYPE
  5
51
330
4
100
AcDbSymbolTableRecord
100
AcDbLinetypeTableRecord
  2
STYLE_03
 70
     0
  3

 72
    65
 73
     2
 40
1.25
 49
1.04164
 74
     0
 49
-0.2083599999999999
 74
     0
  0
LTYPE
  5
52
330
4
100
AcDbSymbolTableRecord
100
AcDbLinetypeTableRecord
  2
STYLE_04
 70
     0
  3

 72
    65
 73
     2
 40
1.52771
 49
1.319425
 74
     0
 49
-0.208285
 74
     0
  0
LTYPE
  5
53
330
4
100
AcDbSymbolTableRecord
100
AcDbLinetypeTableRecord
  2
STYLE_05
 70
     0
  3

 72
    65
 73
     2
 40
0.20828
 49
0.069425
 74
     0
 49
-0.138855
 74
     0
  0
LTYPE
  5
54
330
4
100
AcDbSymbolTableRecord
100
AcDbLinetypeTableRecord
  2
STYLE_06
 70
     0
  3

 72
    65
 73
     4
 40
1.04164
 49
0.625
 74
     0
 49
-0.20828
 74
     0
 49
0.06943
 74
     0
 49
-0.13893
 74
     0
  0
LTYPE
  5
55
330
4
100
AcDbSymbolTableRecord
100
AcDbLinetypeTableRecord
  2
STYLE_07
 70
     0
  3

 72
    65
 73
     6
 40
1.875
 49
0.625
 74
     0
 49
-0.20828
 74
     0
 49
0.6250000000000001
 74
     0
 49
-0.2083599999999999
 74
     0
 49
0.06943
 74
     0
 49
-0.1389299999999999
 74
     0
  0
LTYPE
  5
56
330
4
100
AcDbSymbolTableRecord
100
AcDbLinetypeTableRecord
  2
STYLE_08
 70
     0
  3

 72
    65
 73
     6
 40
1.25
 49
0.625
 74
     0
 49
-0.20828
 74
     0
 49
0.06943
 74
     0
 49
-0.13893
 74
     0
 49
0.0694299999999999
 74
     0
 49
-0.13893
 74
     0
  0
LTYPE
  5
57
330
4
100
AcDbSymbolTableRecord
100
AcDbLinetypeTableRecord
  2
STYLE_09
 70
     0
  3

 72
    65
 73
     4
 40
5.0
 49
3.75
 74
     0
 49
-0.2777849999999998
 74
     0
 49
0.6944300000000003
 74
     0
 49
-0.2777849999999998
 74
     0
  0
LTYPE
  5
58
330
4
100
AcDbSymbolTableRecord
100
AcDbLinetypeTableRecord
  2
STYLE_10
 70
     0
  3

 72
    65
 73
     6
 40
5.9375
 49
3.75
 74
     0
 49
-0.2777849999999998
 74
     0
 49
0.6944300000000003
 74
     0
 49
-0.2777849999999998
 74
     0
 49
0.625
 74
     0
 49
-0.3125
 74
     0
  0
ENDTAB
  0
TABLE
  2
LAYER
  5
2
330
0
100
AcDbSymbolTable
 70
     4
  0
LAYER
  5
14
330
2
100
AcDbSymbolTableRecord
100
AcDbLayerTableRecord
  2
0
 70
     0
 62
     7
  6
Continuous
370
    18
390
1D
  0
LAYER
  5
59
330
2
100
AcDbSymbolTableRecord
100
AcDbLayerTableRecord
  2
一般
 70
     0
 62
     7
  6
Continuous
370
   100
390
1D
  0
LAYER
  5
5A
330
2
100
AcDbSymbolTableRecord
100
AcDbLayerTableRecord
  2
寸法
 70
     0
 62
     7
  6
Continuous
370
   100
390
1D
  0
LAYER
  5
5B
330
2
100
AcDbSymbolTableRecord
100
AcDbLayerTableRecord
  2
Defpoints
 70
     0
 62
     7
  6
Continuous
290
     0
370
    -3
390
1D
  0
ENDTAB
  0
TABLE
  2
STYLE
  5
3
330
0
100
AcDbSymbolTable
 70
     2
  0
STYLE
  5
17
330
3
100
AcDbSymbolTableRecord
100
AcDbTextStyleTableRecord
  2
Standard
 70
     0
 40
0.0
 41
1.0
 50
0.0
 71
     0
 42
0.0
  3
txt
  4
BIGFONT.SHX
  0
STYLE
  5
4E
330
3
100
AcDbSymbolTableRecord
100
AcDbTextStyleTableRecord
  2
Calibri (bold)
 70
     0
 40
0.0
 41
1.0
 50
0.0
 71
     0
 42
0.0
  3

  4
Calibri
1001
ACAD
1000
Calibri
1071
 33554432
  0
ENDTAB
  0
TABLE
  2
VIEW
  5
5
330
0
100
AcDbSymbolTable
 70
     0
  0
ENDTAB
  0
TABLE
  2
UCS
  5
6
330
0
100
AcDbSymbolTable
 70
     0
  0
ENDTAB
  0
TABLE
  2
APPID
  5
8
330
0
100
AcDbSymbolTable
 70
     1
  0
APPID
  5
16
330
8
100
AcDbSymbolTableRecord
100
AcDbRegAppTableRecord
  2
ACAD
 70
     0
  0
ENDTAB
  0
TABLE
  2
DIMSTYLE
  5
9
330
0
100
AcDbSymbolTable
 70
     2
100
AcDbDimStyleTable
  0
DIMSTYLE
105
18
330
9
100
AcDbSymbolTableRecord
100
AcDbDimStyleTableRecord
  2
Standard
 70
     0
340
17
  0
DIMSTYLE
105
65
330
9
100
AcDbSymbolTableRecord
100
AcDbDimStyleTableRecord
  2
Arch
 70
     0
  3
<>
  4
[]
 41
11.22412109375
 42
7.9375
 43
10.16
 44
15.875
 46
1.5875
 73
     0
 74
     0
 77
     1
 78
    11
140
15.65106879340278
141
0.0
143
0.0010936132983377
147
1.5875
171
     3
172
     1
174
     1
179
     2
271
     1
272
     1
276
     2
284
    11
285
     7
286
     7
289
     0
340
4E
341
61
342
5C
  0
ENDTAB
  0
TABLE
  2
BLOCK_RECORD
  5
1
330
0
100
AcDbSymbolTable
 70
    44
  0
BLOCK_RECORD
  5
A
330
1
100
AcDbSymbolTableRecord
100
AcDbBlockTableRecord
  2
*MODEL_SPACE
340
20
  0
BLOCK_RECORD
  5
B
330
1
100
AcDbSymbolTableRecord
100
AcDbBlockTableRecord
  2
*PAPER_SPACE
340
21
  0
BLOCK_RECORD
  5
5C
330
1
100
AcDbSymbolTableRecord
100
AcDbBlockTableRecord
  2
VW_SLASH
340
0
  0
BLOCK_RECORD
  5
61
330
1
100
AcDbSymbolTableRecord
100
AcDbBlockTableRecord
  2
VW_FILLEDARROW
340
0
  0
BLOCK_RECORD
  5
24
330
1
100
AcDbSymbolTableRecord
100
AcDbBlockTableRecord
  2
グループ
340
0
102
{BLKREFS
331
8D
102
}
  0
BLOCK_RECORD
  5
25
330
1
100
AcDbSymbolTableRecord
100
AcDbBlockTableRecord
  2
グループ-1
340
0
102
{BLKREFS
331
9C
102
}
  0
BLOCK_RECORD
  5
26
330
1
100
AcDbSymbolTableRecord
100
AcDbBlockTableRecord
  2
グループ-2
340
0
102
{BLKREFS
331
9F
102
}
  0
BLOCK_RECORD
  5
27
330
1
100
AcDbSymbolTableRecord
100
AcDbBlockTableRecord
  2
グループ-3
340
0
102
{BLKREFS
331
2D7
102
}
  0
BLOCK_RECORD
  5
28
330
1
100
AcDbSymbolTableRecord
100
AcDbBlockTableRecord
  2
グループ-4
340
0
102
{BLKREFS
331
B9
102
}
  0
BLOCK_RECORD
  5
29
330
1
100
AcDbSymbolTableRecord
100
AcDbBlockTableRecord
  2
グループ-5
340
0
102
{BLKREFS
331
EB
102
}
  0
BLOCK_RECORD
  5
2A
330
1
100
AcDbSymbolTableRecord
100
AcDbBlockTableRecord
  2
グループ-6
340
0
102
{BLKREFS
331
FA
102
}
  0
BLOCK_RECORD
  5
2B
330
1
100
AcDbSymbolTableRecord
100
AcDbBlockTableRecord
  2
グループ-7
340
0
102
{BLKREFS
331
FB
102
}
  0
BLOCK_RECORD
  5
2C
330
1
100
AcDbSymbolTableRecord
100
AcDbBlockTableRecord
  2
グループ-8
340
0
102
{BLKREFS
331
FC
102
}
  0
BLOCK_RECORD
  5
2D
330
1
100
AcDbSymbolTableRecord
100
AcDbBlockTableRecord
  2
グループ-9
340
0
102
{BLKREFS
331
FD
102
}
  0
BLOCK_RECORD
  5
2E
330
1
100
AcDbSymbolTableRecord
100
AcDbBlockTableRecord
  2
グループ-10
340
0
102
{BLKREFS
331
11C
102
}
  0
BLOCK_RECORD
  5
2F
330
1
100
AcDbSymbolTableRecord
100
AcDbBlockTableRecord
  2
グループ-11
340
0
102
{BLKREFS
331
2D8
102
}
  0
BLOCK_RECORD
  5
30
330
1
100
AcDbSymbolTableRecord
100
AcDbBlockTableRecord
  2
グループ-12
340
0
102
{BLKREFS
331
14F
102
}
  0
BLOCK_RECORD
  5
31
330
1
100
AcDbSymbolTableRecord
100
AcDbBlockTableRecord
  2
グループ-13
340
0
102
{BLKREFS
331
150
102
}
  0
BLOCK_RECORD
  5
32
330
1
100
AcDbSymbolTableRecord
100
AcDbBlockTableRecord
  2
グループ-14
340
0
102
{BLKREFS
331
163
102
}
  0
BLOCK_RECORD
  5
33
330
1
100
AcDbSymbolTableRecord
100
AcDbBlockTableRecord
  2
グループ-15
340
0
102
{BLKREFS
331
164
102
}
  0
BLOCK_RECORD
  5
34
330
1
100
AcDbSymbolTableRecord
100
AcDbBlockTableRecord
  2
グループ-16
340
0
102
{BLKREFS
331
18F
102
}
  0
BLOCK_RECORD
  5
35
330
1
100
AcDbSymbolTableRecord
100
AcDbBlockTableRecord
  2
グループ-17
340
0
102
{BLKREFS
331
192
102
}
  0
BLOCK_RECORD
  5
36
330
1
100
AcDbSymbolTableRecord
100
AcDbBlockTableRecord
  2
グループ-18
340
0
102
{BLKREFS
331
2D9
102
}
  0
BLOCK_RECORD
  5
37
330
1
100
AcDbSymbolTableRecord
100
AcDbBlockTableRecord
  2
*D21
340
0
  0
BLOCK_RECORD
  5
38
330
1
100
AcDbSymbolTableRecord
100
AcDbBlockTableRecord
  2
*D22
340
0
  0
BLOCK_RECORD
  5
39
330
1
100
AcDbSymbolTableRecord
100
AcDbBlockTableRecord
  2
*D23
340
0
  0
BLOCK_RECORD
  5
3A
330
1
100
AcDbSymbolTableRecord
100
AcDbBlockTableRecord
  2
*D24
340
0
  0
BLOCK_RECORD
  5
3B
330
1
100
AcDbSymbolTableRecord
100
AcDbBlockTableRecord
  2
*D25
340
0
  0
BLOCK_RECORD
  5
3C
330
1
100
AcDbSymbolTableRecord
100
AcDbBlockTableRecord
  2
*D26
340
0
  0
BLOCK_RECORD
  5
3D
330
1
100
AcDbSymbolTableRecord
100
AcDbBlockTableRecord
  2
*D27
340
0
  0
BLOCK_RECORD
  5
3E
330
1
100
AcDbSymbolTableRecord
100
AcDbBlockTableRecord
  2
*D28
340
0
  0
BLOCK_RECORD
  5
3F
330
1
100
AcDbSymbolTableRecord
100
AcDbBlockTableRecord
  2
*D29
340
0
  0
BLOCK_RECORD
  5
40
330
1
100
AcDbSymbolTableRecord
100
AcDbBlockTableRecord
  2
*D30
340
0
  0
BLOCK_RECORD
  5
41
330
1
100
AcDbSymbolTableRecord
100
AcDbBlockTableRecord
  2
*D31
340
0
  0
BLOCK_RECORD
  5
42
330
1
100
AcDbSymbolTableRecord
100
AcDbBlockTableRecord
  2
*D32
340
0
  0
BLOCK_RECORD
  5
43
330
1
100
AcDbSymbolTableRecord
100
AcDbBlockTableRecord
  2
*D33
340
0
  0
BLOCK_RECORD
  5
44
330
1
100
AcDbSymbolTableRecord
100
AcDbBlockTableRecord
  2
*D34
340
0
  0
BLOCK_RECORD
  5
45
330
1
100
AcDbSymbolTableRecord
100
AcDbBlockTableRecord
  2
*D35
340
0
  0
BLOCK_RECORD
  5
46
330
1
100
AcDbSymbolTableRecord
100
AcDbBlockTableRecord
  2
*D36
340
0
  0
BLOCK_RECORD
  5
47
330
1
100
AcDbSymbolTableRecord
100
AcDbBlockTableRecord
  2
*D37
340
0
  0
BLOCK_RECORD
  5
48
330
1
100
AcDbSymbolTableRecord
100
AcDbBlockTableRecord
  2
*D38
340
0
  0
BLOCK_RECORD
  5
49
330
1
100
AcDbSymbolTableRecord
100
AcDbBlockTableRecord
  2
*D39
340
0
  0
BLOCK_RECORD
  5
4A
330
1
100
AcDbSymbolTableRecord
100
AcDbBlockTableRecord
  2
*D40
340
0
  0
BLOCK_RECORD
  5
4B
330
1
100
AcDbSymbolTableRecord
100
AcDbBlockTableRecord
  2
*D41
340
0
  0
BLOCK_RECORD
  5
4C
330
1
100
AcDbSymbolTableRecord
100
AcDbBlockTableRecord
  2
*D42
340
0
  0
BLOCK_RECORD
  5
4D
330
1
100
AcDbSymbolTableRecord
100
AcDbBlockTableRecord
  2
*D43
340
0
  0
ENDTAB
  0
ENDSEC
  0
SECTION
  2
BLOCKS
  0
BLOCK
  5
D
330
A
100
AcDbEntity
  8
0
390
1D
100
AcDbBlockBegin
  2
*MODEL_SPACE
 70
     0
 71
     0
 10
0.0
 20
0.0
 30
0.0
  3
*MODEL_SPACE
  1

  0
ENDBLK
  5
E
330
A
100
AcDbEntity
  8
0
390
1D
100
AcDbBlockEnd
  0
BLOCK
  5
F
330
B
100
AcDbEntity
 67
     1
  8
0
390
1D
100
AcDbBlockBegin
  2
*PAPER_SPACE
 70
     0
 71
     0
 10
0.0
 20
0.0
 30
0.0
  3
*PAPER_SPACE
  1

  0
ENDBLK
  5
10
330
B
100
AcDbEntity
 67
     1
  8
0
390
1D
100
AcDbBlockEnd
  0
BLOCK
  5
5D
330
5C
100
AcDbEntity
  8
0
  6
ByBlock
 62
     0
370
    -2
390
1D
100
AcDbBlockBegin
  2
VW_SLASH
 70
     0
 71
     0
 10
0.0
 20
0.0
 30
0.0
  3
VW_SLASH
  1

  0
LINE
  5
5E
330
5C
100
AcDbEntity
  8
0
  6
ByBlock
 62
     0
370
    -2
390
1D
100
AcDbLine
 10
0.0
 20
0.0
 30
0.0
 11
-1.0
 21
0.0
 31
0.0
  0
LINE
  5
5F
330
5C
100
AcDbEntity
  8
0
  6
ByBlock
 62
     0
370
    20
390
1D
100
AcDbLine
 10
-0.0997562630636344
 20
-0.0997562630636344
 30
0.0
 11
0.0997562630636344
 21
0.0997562630636344
 31
0.0
  0
ENDBLK
  5
60
330
5C
100
AcDbEntity
  8
0
390
1D
100
AcDbBlockEnd
  0
BLOCK
  5
62
330
61
100
AcDbEntity
  8
0
  6
ByBlock
 62
     0
370
    -2
390
1D
100
AcDbBlockBegin
  2
VW_FILLEDARROW
 70
     0
 71
     0
 10
0.0
 20
0.0
 30
0.0
  3
VW_FILLEDARROW
  1

  0
SOLID
  5
63
330
61
100
AcDbEntity
  8
0
 62
     0
370
    -2
390
1D
100
AcDbTrace
 10
0.0
 20
0.0
 30
0.0
 11
-0.2821533203125
 21
-0.0756027543194943
 31
0.0
 12
-0.2821533203125
 22
0.0756027543194943
 32
0.0
 13
-0.2821533203125
 23
0.0756027543194943
 33
0.0
  0
ENDBLK
  5
64
330
61
100
AcDbEntity
  8
0
390
1D
100
AcDbBlockEnd
  0
BLOCK
  5
66
330
24
100
AcDbEntity
  8
寸法
390
1D
100
AcDbBlockBegin
  2
グループ
 70
     0
 71
     0
 10
0.0
 20
0.0
 30
0.0
  3
グループ
  1

  0
LINE
  5
67
330
24
100
AcDbEntity
  8
寸法
  6
STYLE_01
 62
     7
370
    18
390
1D
100
AcDbLine
 10
-637.288183230272
 20
298.5096980632446
 30
0.0
 11
-637.288183230272
 21
282.5096980632444
 31
0.0
  0
LINE
  5
68
330
24
100
AcDbEntity
  8
寸法
  6
STYLE_01
 62
     7
370
    18
390
1D
100
AcDbLine
 10
-397.288183230272
 20
298.5096980632446
 30
0.0
 11
-397.288183230272
 21
282.5096980632444
 31
0.0
  0
ENDBLK
  5
69
330
24
100
AcDbEntity
  8
寸法
390
1D
100
AcDbBlockEnd
  0
BLOCK
  5
6A
330
25
100
AcDbEntity
  8
寸法
390
1D
100
AcDbBlockBegin
  2
グループ-1
 70
     0
 71
     0
 10
0.0
 20
0.0
 30
0.0
  3
グループ-1
  1

  0
POLYLINE
  5
6B
330
25
100
AcDbEntity
  8
寸法
  6
Continuous
 62
     7
370
    18
390
1D
100
AcDb2dPolyline
 66
     1
 10
0.0
 20
0.0
 30
0.0
 70
     1
 75
     5
  0
VERTEX
  5
6C
330
6B
100
AcDbEntity
  8
寸法
  6
Continuous
 62
     7
370
    18
390
1D
100
AcDbVertex
100
AcDb2dVertex
 10
-717.2881832302703
 20
440.5096980632445
 30
0.0
  0
VERTEX
  5
6D
330
6B
100
AcDbEntity
  8
寸法
  6
Continuous
 62
     7
370
    18
390
1D
100
AcDbVertex
100
AcDb2dVertex
 10
-317.2881832302702
 20
440.5096980632445
 30
0.0
  0
VERTEX
  5
6E
330
6B
100
AcDbEntity
  8
寸法
  6
Continuous
 62
     7
370
    18
390
1D
100
AcDbVertex
100
AcDb2dVertex
 10
-317.2881832302702
 20
424.5096980632445
 30
0.0
  0
VERTEX
  5
6F
330
6B
100
AcDbEntity
  8
寸法
  6
Continuous
 62
     7
370
    18
390
1D
100
AcDbVertex
100
AcDb2dVertex
 10
-717.2881832302703
 20
424.5096980632445
 30
0.0
  0
SEQEND
  5
70
330
6B
100
AcDbEntity
  8
寸法
  6
Continuous
 62
     7
370
    18
390
1D
  0
LINE
  5
72
330
25
100
AcDbEntity
  8
寸法
  6
STYLE_01
 62
     7
370
    18
390
1D
100
AcDbLine
 10
-637.2881832302703
 20
424.5096980632445
 30
0.0
 11
-637.2881832302703
 21
440.5096980632445
 31
0.0
  0
LINE
  5
73
330
25
100
AcDbEntity
  8
寸法
  6
STYLE_01
 62
     7
370
    18
390
1D
100
AcDbLine
 10
-397.2881832302702
 20
424.5096980632445
 30
0.0
 11
-397.2881832302702
 21
440.5096980632445
 31
0.0
  0
ENDBLK
  5
74
330
25
100
AcDbEntity
  8
寸法
390
1D
100
AcDbBlockEnd
  0
BLOCK
  5
75
330
26
100
AcDbEntity
  8
寸法
390
1D
100
AcDbBlockBegin
  2
グループ-2
 70
     0
 71
     0
 10
0.0
 20
0.0
 30
0.0
  3
グループ-2
  1

  0
LINE
  5
76
330
26
100
AcDbEntity
  8
寸法
  6
STYLE_01
 62
     7
370
    18
390
1D
100
AcDbLine
 10
-637.2881832302703
 20
424.5096980632444
 30
0.0
 11
-637.2881832302703
 21
408.5096980632444
 31
0.0
  0
LINE
  5
77
330
26
100
AcDbEntity
  8
寸法
  6
STYLE_01
 62
     7
370
    18
390
1D
100
AcDbLine
 10
-397.2881832302702
 20
424.5096980632444
 30
0.0
 11
-397.2881832302702
 21
408.5096980632444
 31
0.0
  0
POLYLINE
  5
78
330
26
100
AcDbEntity
  8
寸法
  6
Continuous
 62
     7
370
    18
390
1D
100
AcDb2dPolyline
 66
     1
 10
0.0
 20
0.0
 30
0.0
 70
     1
 75
     5
  0
VERTEX
  5
79
330
78
100
AcDbEntity
  8
寸法
  6
Continuous
 62
     7
370
    18
390
1D
100
AcDbVertex
100
AcDb2dVertex
 10
-742.2881832302712
 20
424.5096980632445
 30
0.0
  0
VERTEX
  5
7A
330
78
100
AcDbEntity
  8
寸法
  6
Continuous
 62
     7
370
    18
390
1D
100
AcDbVertex
100
AcDb2dVertex
 10
-156.2881832302704
 20
424.5096980632445
 30
0.0
  0
VERTEX
  5
7B
330
78
100
AcDbEntity
  8
寸法
  6
Continuous
 62
     7
370
    18
390
1D
100
AcDbVertex
100
AcDb2dVertex
 10
-156.2881832302704
 20
282.5096980632445
 30
0.0
  0
VERTEX
  5
7C
330
78
100
AcDbEntity
  8
寸法
  6
Continuous
 62
     7
370
    18
390
1D
100
AcDbVertex
100
AcDb2dVertex
 10
-742.2881832302712
 20
282.5096980632445
 30
0.0
  0
SEQEND
  5
7D
330
78
100
AcDbEntity
  8
寸法
  6
Continuous
 62
     7
370
    18
390
1D
  0
POLYLINE
  5
7F
330
26
100
AcDbEntity
  8
寸法
  6
Continuous
 62
     7
370
    18
390
1D
100
AcDb2dPolyline
 66
     1
 10
0.0
 20
0.0
 30
0.0
 70
     1
 75
     5
  0
VERTEX
  5
80
330
7F
100
AcDbEntity
  8
寸法
  6
Continuous
 62
     7
370
    18
390
1D
100
AcDbVertex
100
AcDb2dVertex
 10
-156.2881832302759
 20
444.5096980632445
 30
0.0
  0
VERTEX
  5
81
330
7F
100
AcDbEntity
  8
寸法
  6
Continuous
 62
     7
370
    18
390
1D
100
AcDbVertex
100
AcDb2dVertex
 10
-140.2881832302757
 20
444.5096980632445
 30
0.0
  0
VERTEX
  5
82
330
7F
100
AcDbEntity
  8
寸法
  6
Continuous
 62
     7
370
    18
390
1D
100
AcDbVertex
100
AcDb2dVertex
 10
-140.2881832302757
 20
262.5096980632445
 30
0.0
  0
VERTEX
  5
83
330
7F
100
AcDbEntity
  8
寸法
  6
Continuous
 62
     7
370
    18
390
1D
100
AcDbVertex
100
AcDb2dVertex
 10
-156.2881832302759
 20
262.5096980632445
 30
0.0
  0
SEQEND
  5
84
330
7F
100
AcDbEntity
  8
寸法
  6
Continuous
 62
     7
370
    18
390
1D
  0
POLYLINE
  5
86
330
26
100
AcDbEntity
  8
寸法
  6
STYLE_01
 62
     7
370
    18
390
1D
100
AcDb2dPolyline
 66
     1
 10
0.0
 20
0.0
 30
0.0
 70
     1
 75
     5
  0
VERTEX
  5
87
330
86
100
AcDbEntity
  8
寸法
  6
STYLE_01
 62
     7
370
    18
390
1D
100
AcDbVertex
100
AcDb2dVertex
 10
-726.2881832302712
 20
408.5096980632445
 30
0.0
  0
VERTEX
  5
88
330
86
100
AcDbEntity
  8
寸法
  6
STYLE_01
 62
     7
370
    18
390
1D
100
AcDbVertex
100
AcDb2dVertex
 10
-156.2881832302704
 20
408.5096980632445
 30
0.0
  0
VERTEX
  5
89
330
86
100
AcDbEntity
  8
寸法
  6
STYLE_01
 62
     7
370
    18
390
1D
100
AcDbVertex
100
AcDb2dVertex
 10
-156.2881832302704
 20
298.5096980632445
 30
0.0
  0
VERTEX
  5
8A
330
86
100
AcDbEntity
  8
寸法
  6
STYLE_01
 62
     7
370
    18
390
1D
100
AcDbVertex
100
AcDb2dVertex
 10
-726.2881832302712
 20
298.5096980632445
 30
0.0
  0
SEQEND
  5
8B
330
86
100
AcDbEntity
  8
寸法
  6
STYLE_01
 62
     7
370
    18
390
1D
  0
INSERT
  5
8D
330
26
100
AcDbEntity
  8
寸法
 62
     7
390
1D
100
AcDbBlockReference
  2
グループ
 10
0.0
 20
0.0
 30
0.0
  0
POLYLINE
  5
8E
330
26
100
AcDbEntity
  8
寸法
  6
Continuous
 62
     7
370
    13
390
1D
100
AcDb2dPolyline
 66
     1
 10
0.0
 20
0.0
 30
0.0
 70
     1
 75
     5
  0
VERTEX
  5
8F
330
8E
100
AcDbEntity
  8
寸法
  6
Continuous
 62
     7
370
    13
390
1D
100
AcDbVertex
100
AcDb2dVertex
 10
-695.7881832302699
 20
286.7096980632444
 30
0.0
  0
VERTEX
  5
90
330
8E
100
AcDbEntity
  8
寸法
  6
Continuous
 62
     7
370
    13
390
1D
100
AcDbVertex
100
AcDb2dVertex
 10
-687.7881832302699
 20
286.7096980632444
 30
0.0
  0
VERTEX
  5
91
330
8E
100
AcDbEntity
  8
寸法
  6
Continuous
 62
     7
370
    13
390
1D
100
AcDbVertex
100
AcDb2dVertex
 10
-687.7881832302699
 20
282.5096980632445
 30
0.0
  0
VERTEX
  5
92
330
8E
100
AcDbEntity
  8
寸法
  6
Continuous
 62
     7
370
    13
390
1D
100
AcDbVertex
100
AcDb2dVertex
 10
-695.7881832302699
 20
282.5096980632445
 30
0.0
  0
SEQEND
  5
93
330
8E
100
AcDbEntity
  8
寸法
  6
Continuous
 62
     7
370
    13
390
1D
  0
POLYLINE
  5
95
330
26
100
AcDbEntity
  8
寸法
  6
Continuous
 62
     7
370
    13
390
1D
100
AcDb2dPolyline
 66
     1
 10
0.0
 20
0.0
 30
0.0
 70
     1
 75
     5
  0
VERTEX
  5
96
330
95
100
AcDbEntity
  8
寸法
  6
Continuous
 62
     7
370
    13
390
1D
100
AcDbVertex
100
AcDb2dVertex
 10
-354.7881832302699
 20
286.7096980632444
 30
0.0
  0
VERTEX
  5
97
330
95
100
AcDbEntity
  8
寸法
  6
Continuous
 62
     7
370
    13
390
1D
100
AcDbVertex
100
AcDb2dVertex
 10
-346.7881832302699
 20
286.7096980632444
 30
0.0
  0
VERTEX
  5
98
330
95
100
AcDbEntity
  8
寸法
  6
Continuous
 62
     7
370
    13
390
1D
100
AcDbVertex
100
AcDb2dVertex
 10
-346.7881832302699
 20
282.5096980632445
 30
0.0
  0
VERTEX
  5
99
330
95
100
AcDbEntity
  8
寸法
  6
Continuous
 62
     7
370
    13
390
1D
100
AcDbVertex
100
AcDb2dVertex
 10
-354.7881832302699
 20
282.5096980632445
 30
0.0
  0
SEQEND
  5
9A
330
95
100
AcDbEntity
  8
寸法
  6
Continuous
 62
     7
370
    13
390
1D
  0
INSERT
  5
9C
330
26
100
AcDbEntity
  8
寸法
 62
     7
390
1D
100
AcDbBlockReference
  2
グループ-1
 10
0.0
 20
0.0
 30
0.0
  0
ENDBLK
  5
9D
330
26
100
AcDbEntity
  8
寸法
390
1D
100
AcDbBlockEnd
  0
BLOCK
  5
9E
330
27
100
AcDbEntity
  8
寸法
390
1D
100
AcDbBlockBegin
  2
グループ-3
 70
     0
 71
     0
 10
0.0
 20
0.0
 30
0.0
  3
グループ-3
  1

  0
INSERT
  5
9F
330
27
100
AcDbEntity
  8
寸法
 62
     7
390
1D
100
AcDbBlockReference
  2
グループ-2
 10
0.0
 20
0.0
 30
0.0
  0
ENDBLK
  5
A0
330
27
100
AcDbEntity
  8
寸法
390
1D
100
AcDbBlockEnd
  0
BLOCK
  5
A1
330
28
100
AcDbEntity
  8
寸法
390
1D
100
AcDbBlockBegin
  2
グループ-4
 70
     0
 71
     0
 10
0.0
 20
0.0
 30
0.0
  3
グループ-4
  1

  0
LINE
  5
A2
330
28
100
AcDbEntity
  8
寸法
  6
STYLE_06
 62
     7
370
    18
390
1D
100
AcDbLine
 10
-533.1631832302699
 20
-37.7063240971225
 30
0.0
 11
-501.4131832302699
 21
-37.7063240971225
 31
0.0
  0
LINE
  5
A3
330
28
100
AcDbEntity
  8
寸法
  6
STYLE_06
 62
     7
370
    18
390
1D
100
AcDbLine
 10
-517.2881832302699
 20
-53.5813240971225
 30
0.0
 11
-517.2881832302699
 21
-21.8313240971225
 31
0.0
  0
LINE
  5
A4
330
28
100
AcDbEntity
  8
寸法
  6
STYLE_06
 62
     7
370
    18
390
1D
100
AcDbLine
 10
-653.1631832302699
 20
-37.7063240971225
 30
0.0
 11
-541.1006832302699
 21
-37.7063240971225
 31
0.0
  0
LINE
  5
A5
330
28
100
AcDbEntity
  8
寸法
  6
STYLE_06
 62
     7
370
    18
390
1D
100
AcDbLine
 10
-493.4756832302699
 20
-37.7063240971225
 30
0.0
 11
-381.4131832302698
 21
-37.7063240971225
 31
0.0
  0
LINE
  5
A6
330
28
100
AcDbEntity
  8
寸法
  6
STYLE_06
 62
     7
370
    18
390
1D
100
AcDbLine
 10
-517.2881832302699
 20
98.16867590287754
 30
0.0
 11
-517.2881832302699
 21
-13.8938240971225
 31
0.0
  0
LINE
  5
A7
330
28
100
AcDbEntity
  8
寸法
  6
STYLE_06
 62
     7
370
    18
390
1D
100
AcDbLine
 10
-517.2881832302699
 20
-61.5188240971225
 30
0.0
 11
-517.2881832302699
 21
-173.5813240971225
 31
0.0
  0
ENDBLK
  5
A8
330
28
100
AcDbEntity
  8
寸法
390
1D
100
AcDbBlockEnd
  0
BLOCK
  5
A9
330
29
100
AcDbEntity
  8
一般
390
1D
100
AcDbBlockBegin
  2
グループ-5
 70
     0
 71
     0
 10
0.0
 20
0.0
 30
0.0
  3
グループ-5
  1

  0
CIRCLE
  5
AA
330
29
100
AcDbEntity
  8
一般
  6
Continuous
 62
     7
370
    18
390
1D
100
AcDbCircle
 10
-517.2881832302699
 20
-37.7063240971225
 30
0.0
 40
170.5000000000017
  0
CIRCLE
  5
AB
330
29
100
AcDbEntity
  8
一般
  6
Continuous
 62
     7
370
    18
390
1D
100
AcDbCircle
 10
-517.2881832302699
 20
-37.7063240971225
 30
0.0
 40
162.500000000002
  0
CIRCLE
  5
AC
330
29
100
AcDbEntity
  8
一般
  6
Continuous
 62
     7
370
    18
390
1D
100
AcDbCircle
 10
-648.1029377497832
 20
93.10843042238905
 30
0.0
 40
7.999999999999996
  0
CIRCLE
  5
AD
330
29
100
AcDbEntity
  8
一般
  6
Continuous
 62
     7
370
    18
390
1D
100
AcDbCircle
 10
-648.1029377497835
 20
-168.5210786166331
 30
0.0
 40
8.000000000000009
  0
CIRCLE
  5
AE
330
29
100
AcDbEntity
  8
一般
  6
Continuous
 62
     7
370
    18
390
1D
100
AcDbCircle
 10
-386.473428710758
 20
-168.5210786166334
 30
0.0
 40
8.000000000000002
  0
CIRCLE
  5
AF
330
29
100
AcDbEntity
  8
一般
  6
Continuous
 62
     7
370
    18
390
1D
100
AcDbCircle
 10
-469.4066598863024
 20
-216.402601960599
 30
0.0
 40
8.000000000000052
  0
CIRCLE
  5
B0
330
29
100
AcDbEntity
  8
一般
  6
Continuous
 62
     7
370
    18
390
1D
100
AcDbCircle
 10
-565.1697065742378
 20
-216.4026019605988
 30
0.0
 40
8.000000000000037
  0
CIRCLE
  5
B1
330
29
100
AcDbEntity
  8
一般
  6
Continuous
 62
     7
370
    18
390
1D
100
AcDbCircle
 10
-338.5919053667915
 20
-85.58784744108883
 30
0.0
 40
7.999999999999981
  0
CIRCLE
  5
B2
330
29
100
AcDbEntity
  8
一般
  6
Continuous
 62
     7
370
    18
390
1D
100
AcDbCircle
 10
-338.5919053667915
 20
10.17519924684382
 30
0.0
 40
7.99999999999998
  0
CIRCLE
  5
B3
330
29
100
AcDbEntity
  8
一般
  6
Continuous
 62
     7
370
    18
390
1D
100
AcDbCircle
 10
-695.9844610937497
 20
-85.58784744108866
 30
0.0
 40
7.999999999999967
  0
CIRCLE
  5
B4
330
29
100
AcDbEntity
  8
一般
  6
Continuous
 62
     7
370
    18
390
1D
100
AcDbCircle
 10
-386.4734287107577
 20
93.10843042238876
 30
0.0
 40
7.999999999999974
  0
CIRCLE
  5
B5
330
29
100
AcDbEntity
  8
一般
  6
Continuous
 62
     7
370
    18
390
1D
100
AcDbCircle
 10
-565.1697065742375
 20
140.9899537663553
 30
0.0
 40
7.999999999999953
  0
CIRCLE
  5
B6
330
29
100
AcDbEntity
  8
一般
  6
Continuous
 62
     7
370
    18
390
1D
100
AcDbCircle
 10
-469.4066598863021
 20
140.9899537663552
 30
0.0
 40
7.999999999999981
  0
CIRCLE
  5
B7
330
29
100
AcDbEntity
  8
一般
  6
Continuous
 62
     7
370
    18
390
1D
100
AcDbCircle
 10
-695.9844610937497
 20
10.17519924684383
 30
0.0
 40
7.999999999999964
  0
CIRCLE
  5
B8
330
29
100
AcDbEntity
  8
一般
  6
Continuous
 62
     7
370
    18
390
1D
100
AcDbCircle
 10
-517.2881832302699
 20
-37.7063240971225
 30
0.0
 40
120.0
  0
INSERT
  5
B9
330
29
100
AcDbEntity
  8
寸法
 62
     7
390
1D
100
AcDbBlockReference
  2
グループ-4
 10
0.0
 20
0.0
 30
0.0
  0
ENDBLK
  5
BA
330
29
100
AcDbEntity
  8
一般
390
1D
100
AcDbBlockEnd
  0
BLOCK
  5
BB
330
2A
100
AcDbEntity
  8
寸法
390
1D
100
AcDbBlockBegin
  2
グループ-6
 70
     0
 71
     0
 10
0.0
 20
0.0
 30
0.0
  3
グループ-6
  1

  0
POLYLINE
  5
BC
330
2A
100
AcDbEntity
  8
寸法
  6
Continuous
 62
     7
370
    18
390
1D
100
AcDb2dPolyline
 66
     1
 10
0.0
 20
0.0
 30
0.0
 70
     1
 75
     5
  0
VERTEX
  5
BD
330
BC
100
AcDbEntity
  8
寸法
  6
Continuous
 62
     7
370
    18
390
1D
100
AcDbVertex
100
AcDb2dVertex
 10
-362.2881832302703
 20
-237.7063240971216
 30
0.0
  0
VERTEX
  5
BE
330
BC
100
AcDbEntity
  8
寸法
  6
Continuous
 62
     7
370
    18
390
1D
100
AcDbVertex
100
AcDb2dVertex
 10
-292.2881832302703
 20
-237.7063240971216
 30
0.0
  0
VERTEX
  5
BF
330
BC
100
AcDbEntity
  8
寸法
  6
Continuous
 62
     7
370
    18
390
1D
100
AcDbVertex
100
AcDb2dVertex
 10
-292.2881832302703
 20
-337.7063240971216
 30
0.0
  0
VERTEX
  5
C0
330
BC
100
AcDbEntity
  8
寸法
  6
Continuous
 62
     7
370
    18
390
1D
100
AcDbVertex
100
AcDb2dVertex
 10
-362.2881832302703
 20
-337.7063240971216
 30
0.0
  0
SEQEND
  5
C1
330
BC
100
AcDbEntity
  8
寸法
  6
Continuous
 62
     7
370
    18
390
1D
  0
POLYLINE
  5
C3
330
2A
100
AcDbEntity
  8
寸法
  6
STYLE_01
 62
     7
370
    18
390
1D
100
AcDb2dPolyline
 66
     1
 10
0.0
 20
0.0
 30
0.0
 70
     1
 75
     5
  0
VERTEX
  5
C4
330
C3
100
AcDbEntity
  8
寸法
  6
STYLE_01
 62
     7
370
    18
390
1D
100
AcDbVertex
100
AcDb2dVertex
 10
-362.2881832302703
 20
-237.7063240971216
 30
0.0
  0
VERTEX
  5
C5
330
C3
100
AcDbEntity
  8
寸法
  6
STYLE_01
 62
     7
370
    18
390
1D
100
AcDbVertex
100
AcDb2dVertex
 10
-292.2881832302703
 20
-237.7063240971216
 30
0.0
  0
VERTEX
  5
C6
330
C3
100
AcDbEntity
  8
寸法
  6
STYLE_01
 62
     7
370
    18
390
1D
100
AcDbVertex
100
AcDb2dVertex
 10
-292.2881832302703
 20
-321.7063240971216
 30
0.0
  0
VERTEX
  5
C7
330
C3
100
AcDbEntity
  8
寸法
  6
STYLE_01
 62
     7
370
    18
390
1D
100
AcDbVertex
100
AcDb2dVertex
 10
-362.2881832302703
 20
-321.7063240971216
 30
0.0
  0
SEQEND
  5
C8
330
C3
100
AcDbEntity
  8
寸法
  6
STYLE_01
 62
     7
370
    18
390
1D
  0
ENDBLK
  5
CA
330
2A
100
AcDbEntity
  8
寸法
390
1D
100
AcDbBlockEnd
  0
BLOCK
  5
CB
330
2B
100
AcDbEntity
  8
寸法
390
1D
100
AcDbBlockBegin
  2
グループ-7
 70
     0
 71
     0
 10
0.0
 20
0.0
 30
0.0
  3
グループ-7
  1

  0
POLYLINE
  5
CC
330
2B
100
AcDbEntity
  8
寸法
  6
Continuous
 62
     7
370
    18
390
1D
100
AcDb2dPolyline
 66
     1
 10
0.0
 20
0.0
 30
0.0
 70
     1
 75
     5
  0
VERTEX
  5
CD
330
CC
100
AcDbEntity
  8
寸法
  6
Continuous
 62
     7
370
    18
390
1D
100
AcDbVertex
100
AcDb2dVertex
 10
-742.2881832302768
 20
-237.7063240971216
 30
0.0
  0
VERTEX
  5
CE
330
CC
100
AcDbEntity
  8
寸法
  6
Continuous
 62
     7
370
    18
390
1D
100
AcDbVertex
100
AcDb2dVertex
 10
-672.2881832302768
 20
-237.7063240971216
 30
0.0
  0
VERTEX
  5
CF
330
CC
100
AcDbEntity
  8
寸法
  6
Continuous
 62
     7
370
    18
390
1D
100
AcDbVertex
100
AcDb2dVertex
 10
-672.2881832302768
 20
-337.7063240971216
 30
0.0
  0
VERTEX
  5
D0
330
CC
100
AcDbEntity
  8
寸法
  6
Continuous
 62
     7
370
    18
390
1D
100
AcDbVertex
100
AcDb2dVertex
 10
-742.2881832302768
 20
-337.7063240971216
 30
0.0
  0
SEQEND
  5
D1
330
CC
100
AcDbEntity
  8
寸法
  6
Continuous
 62
     7
370
    18
390
1D
  0
POLYLINE
  5
D3
330
2B
100
AcDbEntity
  8
寸法
  6
STYLE_01
 62
     7
370
    18
390
1D
100
AcDb2dPolyline
 66
     1
 10
0.0
 20
0.0
 30
0.0
 70
     1
 75
     5
  0
VERTEX
  5
D4
330
D3
100
AcDbEntity
  8
寸法
  6
STYLE_01
 62
     7
370
    18
390
1D
100
AcDbVertex
100
AcDb2dVertex
 10
-742.2881832302768
 20
-237.7063240971216
 30
0.0
  0
VERTEX
  5
D5
330
D3
100
AcDbEntity
  8
寸法
  6
STYLE_01
 62
     7
370
    18
390
1D
100
AcDbVertex
100
AcDb2dVertex
 10
-672.2881832302768
 20
-237.7063240971216
 30
0.0
  0
VERTEX
  5
D6
330
D3
100
AcDbEntity
  8
寸法
  6
STYLE_01
 62
     7
370
    18
390
1D
100
AcDbVertex
100
AcDb2dVertex
 10
-672.2881832302768
 20
-321.7063240971216
 30
0.0
  0
VERTEX
  5
D7
330
D3
100
AcDbEntity
  8
寸法
  6
STYLE_01
 62
     7
370
    18
390
1D
100
AcDbVertex
100
AcDb2dVertex
 10
-742.2881832302768
 20
-321.7063240971216
 30
0.0
  0
SEQEND
  5
D8
330
D3
100
AcDbEntity
  8
寸法
  6
STYLE_01
 62
     7
370
    18
390
1D
  0
ENDBLK
  5
DA
330
2B
100
AcDbEntity
  8
寸法
390
1D
100
AcDbBlockEnd
  0
BLOCK
  5
DB
330
2C
100
AcDbEntity
  8
寸法
390
1D
100
AcDbBlockBegin
  2
グループ-8
 70
     0
 71
     0
 10
0.0
 20
0.0
 30
0.0
  3
グループ-8
  1

  0
LINE
  5
DC
330
2C
100
AcDbEntity
  8
寸法
  6
STYLE_01
 62
     7
370
    18
390
1D
100
AcDbLine
 10
-319.7881832302703
 20
-321.7063240971216
 30
0.0
 11
-319.7881832302703
 21
-337.7063240971216
 31
0.0
  0
LINE
  5
DD
330
2C
100
AcDbEntity
  8
寸法
  6
STYLE_01
 62
     7
370
    18
390
1D
100
AcDbLine
 10
-334.7881832302703
 20
-321.7063240971216
 30
0.0
 11
-334.7881832302703
 21
-337.7063240971216
 31
0.0
  0
ENDBLK
  5
DE
330
2C
100
AcDbEntity
  8
寸法
390
1D
100
AcDbBlockEnd
  0
BLOCK
  5
DF
330
2D
100
AcDbEntity
  8
寸法
390
1D
100
AcDbBlockBegin
  2
グループ-9
 70
     0
 71
     0
 10
0.0
 20
0.0
 30
0.0
  3
グループ-9
  1

  0
LINE
  5
E0
330
2D
100
AcDbEntity
  8
寸法
  6
STYLE_01
 62
     7
370
    18
390
1D
100
AcDbLine
 10
-699.7881832302768
 20
-321.7063240971216
 30
0.0
 11
-699.7881832302768
 21
-337.7063240971216
 31
0.0
  0
LINE
  5
E1
330
2D
100
AcDbEntity
  8
寸法
  6
STYLE_01
 62
     7
370
    18
390
1D
100
AcDbLine
 10
-714.7881832302768
 20
-321.7063240971216
 30
0.0
 11
-714.7881832302768
 21
-337.7063240971216
 31
0.0
  0
ENDBLK
  5
E2
330
2D
100
AcDbEntity
  8
寸法
390
1D
100
AcDbBlockEnd
  0
BLOCK
  5
E3
330
2E
100
AcDbEntity
  8
寸法
390
1D
100
AcDbBlockBegin
  2
グループ-10
 70
     0
 71
     0
 10
0.0
 20
0.0
 30
0.0
  3
グループ-10
  1

  0
POLYLINE
  5
E4
330
2E
100
AcDbEntity
  8
一般
  6
Continuous
 62
     7
370
    18
390
1D
100
AcDb2dPolyline
 66
     1
 10
0.0
 20
0.0
 30
0.0
 70
     1
 75
     5
  0
VERTEX
  5
E5
330
E4
100
AcDbEntity
  8
一般
  6
Continuous
 62
     7
370
    18
390
1D
100
AcDbVertex
100
AcDb2dVertex
 10
-742.2881832302768
 20
162.2936759028773
 30
0.0
  0
VERTEX
  5
E6
330
E4
100
AcDbEntity
  8
一般
  6
Continuous
 62
     7
370
    18
390
1D
100
AcDbVertex
100
AcDb2dVertex
 10
-156.2881832302759
 20
162.2936759028773
 30
0.0
  0
VERTEX
  5
E7
330
E4
100
AcDbEntity
  8
一般
  6
Continuous
 62
     7
370
    18
390
1D
100
AcDbVertex
100
AcDb2dVertex
 10
-156.2881832302759
 20
-237.7063240971216
 30
0.0
  0
VERTEX
  5
E8
330
E4
100
AcDbEntity
  8
一般
  6
Continuous
 62
     7
370
    18
390
1D
100
AcDbVertex
100
AcDb2dVertex
 10
-742.2881832302768
 20
-237.7063240971216
 30
0.0
  0
SEQEND
  5
E9
330
E4
100
AcDbEntity
  8
一般
  6
Continuous
 62
     7
370
    18
390
1D
  0
INSERT
  5
EB
330
2E
100
AcDbEntity
  8
一般
 62
     7
390
1D
100
AcDbBlockReference
  2
グループ-5
 10
0.0
 20
0.0
 30
0.0
  0
POLYLINE
  5
EC
330
2E
100
AcDbEntity
  8
一般
  6
Continuous
 62
     7
370
    18
390
1D
100
AcDb2dPolyline
 66
     1
 10
0.0
 20
0.0
 30
0.0
 70
     1
 75
     5
  0
VERTEX
  5
ED
330
EC
100
AcDbEntity
  8
一般
  6
Continuous
 62
     7
370
    18
390
1D
100
AcDbVertex
100
AcDb2dVertex
 10
-156.2881832302759
 20
182.2936759028773
 30
0.0
  0
VERTEX
  5
EE
330
EC
100
AcDbEntity
  8
一般
  6
Continuous
 62
     7
370
    18
390
1D
100
AcDbVertex
100
AcDb2dVertex
 10
-140.2881832302759
 20
182.2936759028773
 30
0.0
  0
VERTEX
  5
EF
330
EC
100
AcDbEntity
  8
一般
  6
Continuous
 62
     7
370
    18
390
1D
100
AcDbVertex
100
AcDb2dVertex
 10
-140.2881832302759
 20
-257.7063240971216
 30
0.0
  0
VERTEX
  5
F0
330
EC
100
AcDbEntity
  8
一般
  6
Continuous
 62
     7
370
    18
390
1D
100
AcDbVertex
100
AcDb2dVertex
 10
-156.2881832302759
 20
-257.7063240971216
 30
0.0
  0
SEQEND
  5
F1
330
EC
100
AcDbEntity
  8
一般
  6
Continuous
 62
     7
370
    18
390
1D
  0
POLYLINE
  5
F3
330
2E
100
AcDbEntity
  8
一般
  6
STYLE_01
 62
     7
370
    18
390
1D
100
AcDb2dPolyline
 66
     1
 10
0.0
 20
0.0
 30
0.0
 70
     1
 75
     5
  0
VERTEX
  5
F4
330
F3
100
AcDbEntity
  8
一般
  6
STYLE_01
 62
     7
370
    18
390
1D
100
AcDbVertex
100
AcDb2dVertex
 10
-726.2881832302722
 20
146.2936759028772
 30
0.0
  0
VERTEX
  5
F5
330
F3
100
AcDbEntity
  8
一般
  6
STYLE_01
 62
     7
370
    18
390
1D
100
AcDbVertex
100
AcDb2dVertex
 10
-156.2881832302714
 20
146.2936759028772
 30
0.0
  0
VERTEX
  5
F6
330
F3
100
AcDbEntity
  8
一般
  6
STYLE_01
 62
     7
370
    18
390
1D
100
AcDbVertex
100
AcDb2dVertex
 10
-156.2881832302714
 20
-221.7063240971215
 30
0.0
  0
VERTEX
  5
F7
330
F3
100
AcDbEntity
  8
一般
  6
STYLE_01
 62
     7
370
    18
390
1D
100
AcDbVertex
100
AcDb2dVertex
 10
-726.2881832302722
 20
-221.7063240971215
 30
0.0
  0
SEQEND
  5
F8
330
F3
100
AcDbEntity
  8
一般
  6
STYLE_01
 62
     7
370
    18
390
1D
  0
INSERT
  5
FA
330
2E
100
AcDbEntity
  8
寸法
 62
     7
390
1D
100
AcDbBlockReference
  2
グループ-6
 10
0.0
 20
0.0
 30
0.0
  0
INSERT
  5
FB
330
2E
100
AcDbEntity
  8
寸法
 62
     7
390
1D
100
AcDbBlockReference
  2
グループ-7
 10
0.0
 20
0.0
 30
0.0
  0
INSERT
  5
FC
330
2E
100
AcDbEntity
  8
寸法
 62
     7
390
1D
100
AcDbBlockReference
  2
グループ-8
 10
0.0
 20
0.0
 30
0.0
  0
INSERT
  5
FD
330
2E
100
AcDbEntity
  8
寸法
 62
     7
390
1D
100
AcDbBlockReference
  2
グループ-9
 10
0.0
 20
0.0
 30
0.0
  0
POLYLINE
  5
FE
330
2E
100
AcDbEntity
  8
寸法
  6
STYLE_01
 62
     7
370
    18
390
1D
100
AcDb2dPolyline
 66
     1
 10
0.0
 20
0.0
 30
0.0
 70
     1
 75
     5
  0
VERTEX
  5
FF
330
FE
100
AcDbEntity
  8
寸法
  6
STYLE_01
 62
     7
370
    18
390
1D
100
AcDbVertex
100
AcDb2dVertex
 10
-685.2881832302768
 20
-221.7063240971215
 30
0.0
  0
VERTEX
  5
100
330
FE
100
AcDbEntity
  8
寸法
  6
STYLE_01
 62
     7
370
    18
390
1D
100
AcDbVertex
100
AcDb2dVertex
 10
-679.2881832302768
 20
-221.7063240971215
 30
0.0
  0
VERTEX
  5
101
330
FE
100
AcDbEntity
  8
寸法
  6
STYLE_01
 62
     7
370
    18
390
1D
100
AcDbVertex
100
AcDb2dVertex
 10
-679.2881832302768
 20
-231.7063240971215
 30
0.0
  0
VERTEX
  5
102
330
FE
100
AcDbEntity
  8
寸法
  6
STYLE_01
 62
     7
370
    18
390
1D
100
AcDbVertex
100
AcDb2dVertex
 10
-685.2881832302768
 20
-231.7063240971215
 30
0.0
  0
SEQEND
  5
103
330
FE
100
AcDbEntity
  8
寸法
  6
STYLE_01
 62
     7
370
    18
390
1D
  0
POLYLINE
  5
105
330
2E
100
AcDbEntity
  8
寸法
  6
STYLE_01
 62
     7
370
    18
390
1D
100
AcDb2dPolyline
 66
     1
 10
0.0
 20
0.0
 30
0.0
 70
     1
 75
     5
  0
VERTEX
  5
106
330
105
100
AcDbEntity
  8
寸法
  6
STYLE_01
 62
     7
370
    18
390
1D
100
AcDbVertex
100
AcDb2dVertex
 10
-219.2881832302768
 20
-221.7063240971216
 30
0.0
  0
VERTEX
  5
107
330
105
100
AcDbEntity
  8
寸法
  6
STYLE_01
 62
     7
370
    18
390
1D
100
AcDbVertex
100
AcDb2dVertex
 10
-213.2881832302768
 20
-221.7063240971216
 30
0.0
  0
VERTEX
  5
108
330
105
100
AcDbEntity
  8
寸法
  6
STYLE_01
 62
     7
370
    18
390
1D
100
AcDbVertex
100
AcDb2dVertex
 10
-213.2881832302768
 20
-231.7063240971216
 30
0.0
  0
VERTEX
  5
109
330
105
100
AcDbEntity
  8
寸法
  6
STYLE_01
 62
     7
370
    18
390
1D
100
AcDbVertex
100
AcDb2dVertex
 10
-219.2881832302768
 20
-231.7063240971216
 30
0.0
  0
SEQEND
  5
10A
330
105
100
AcDbEntity
  8
寸法
  6
STYLE_01
 62
     7
370
    18
390
1D
  0
POLYLINE
  5
10C
330
2E
100
AcDbEntity
  8
寸法
  6
STYLE_01
 62
     7
370
    18
390
1D
100
AcDb2dPolyline
 66
     1
 10
0.0
 20
0.0
 30
0.0
 70
     1
 75
     5
  0
VERTEX
  5
10D
330
10C
100
AcDbEntity
  8
寸法
  6
STYLE_01
 62
     7
370
    18
390
1D
100
AcDbVertex
100
AcDb2dVertex
 10
-685.2881832302768
 20
156.2936759028773
 30
0.0
  0
VERTEX
  5
10E
330
10C
100
AcDbEntity
  8
寸法
  6
STYLE_01
 62
     7
370
    18
390
1D
100
AcDbVertex
100
AcDb2dVertex
 10
-679.2881832302768
 20
156.2936759028773
 30
0.0
  0
VERTEX
  5
10F
330
10C
100
AcDbEntity
  8
寸法
  6
STYLE_01
 62
     7
370
    18
390
1D
100
AcDbVertex
100
AcDb2dVertex
 10
-679.2881832302768
 20
146.2936759028773
 30
0.0
  0
VERTEX
  5
110
330
10C
100
AcDbEntity
  8
寸法
  6
STYLE_01
 62
     7
370
    18
390
1D
100
AcDbVertex
100
AcDb2dVertex
 10
-685.2881832302768
 20
146.2936759028773
 30
0.0
  0
SEQEND
  5
111
330
10C
100
AcDbEntity
  8
寸法
  6
STYLE_01
 62
     7
370
    18
390
1D
  0
POLYLINE
  5
113
330
2E
100
AcDbEntity
  8
寸法
  6
STYLE_01
 62
     7
370
    18
390
1D
100
AcDb2dPolyline
 66
     1
 10
0.0
 20
0.0
 30
0.0
 70
     1
 75
     5
  0
VERTEX
  5
114
330
113
100
AcDbEntity
  8
寸法
  6
STYLE_01
 62
     7
370
    18
390
1D
100
AcDbVertex
100
AcDb2dVertex
 10
-219.2881832302768
 20
156.2936759028773
 30
0.0
  0
VERTEX
  5
115
330
113
100
AcDbEntity
  8
寸法
  6
STYLE_01
 62
     7
370
    18
390
1D
100
AcDbVertex
100
AcDb2dVertex
 10
-213.2881832302768
 20
156.2936759028773
 30
0.0
  0
VERTEX
  5
116
330
113
100
AcDbEntity
  8
寸法
  6
STYLE_01
 62
     7
370
    18
390
1D
100
AcDbVertex
100
AcDb2dVertex
 10
-213.2881832302768
 20
146.2936759028773
 30
0.0
  0
VERTEX
  5
117
330
113
100
AcDbEntity
  8
寸法
  6
STYLE_01
 62
     7
370
    18
390
1D
100
AcDbVertex
100
AcDb2dVertex
 10
-219.2881832302768
 20
146.2936759028773
 30
0.0
  0
SEQEND
  5
118
330
113
100
AcDbEntity
  8
寸法
  6
STYLE_01
 62
     7
370
    18
390
1D
  0
ENDBLK
  5
11A
330
2E
100
AcDbEntity
  8
寸法
390
1D
100
AcDbBlockEnd
  0
BLOCK
  5
11B
330
2F
100
AcDbEntity
  8
寸法
390
1D
100
AcDbBlockBegin
  2
グループ-11
 70
     0
 71
     0
 10
0.0
 20
0.0
 30
0.0
  3
グループ-11
  1

  0
INSERT
  5
11C
330
2F
100
AcDbEntity
  8
寸法
 62
     7
390
1D
100
AcDbBlockReference
  2
グループ-10
 10
0.0
 20
0.0
 30
0.0
  0
ENDBLK
  5
11D
330
2F
100
AcDbEntity
  8
寸法
390
1D
100
AcDbBlockEnd
  0
BLOCK
  5
11E
330
30
100
AcDbEntity
  8
寸法
390
1D
100
AcDbBlockBegin
  2
グループ-12
 70
     0
 71
     0
 10
0.0
 20
0.0
 30
0.0
  3
グループ-12
  1

  0
LINE
  5
11F
330
30
100
AcDbEntity
  8
寸法
  6
STYLE_01
 62
     7
370
    18
390
1D
100
AcDbLine
 10
120.4122082685105
 20
82.29367590287785
 30
0.0
 11
104.4122082685105
 21
82.29367590287785
 31
0.0
  0
LINE
  5
120
330
30
100
AcDbEntity
  8
寸法
  6
STYLE_01
 62
     7
370
    18
390
1D
100
AcDbLine
 10
120.4122082685105
 20
-157.7063240971221
 30
0.0
 11
104.4122082685105
 21
-157.7063240971221
 31
0.0
  0
ENDBLK
  5
121
330
30
100
AcDbEntity
  8
寸法
390
1D
100
AcDbBlockEnd
  0
BLOCK
  5
122
330
31
100
AcDbEntity
  8
寸法
390
1D
100
AcDbBlockBegin
  2
グループ-13
 70
     0
 71
     0
 10
0.0
 20
0.0
 30
0.0
  3
グループ-13
  1

  0
LINE
  5
123
330
31
100
AcDbEntity
  8
寸法
  6
STYLE_01
 62
     7
370
    18
390
1D
100
AcDbLine
 10
246.4122082685105
 20
82.29367590287785
 30
0.0
 11
230.4122082685105
 21
82.29367590287785
 31
0.0
  0
LINE
  5
124
330
31
100
AcDbEntity
  8
寸法
  6
STYLE_01
 62
     7
370
    18
390
1D
100
AcDbLine
 10
246.4122082685105
 20
-157.7063240971221
 30
0.0
 11
230.4122082685105
 21
-157.7063240971221
 31
0.0
  0
ENDBLK
  5
125
330
31
100
AcDbEntity
  8
寸法
390
1D
100
AcDbBlockEnd
  0
BLOCK
  5
126
330
32
100
AcDbEntity
  8
寸法
390
1D
100
AcDbBlockBegin
  2
グループ-14
 70
     0
 71
     0
 10
0.0
 20
0.0
 30
0.0
  3
グループ-14
  1

  0
LINE
  5
127
330
32
100
AcDbEntity
  8
寸法
  6
STYLE_01
 62
     7
370
    18
390
1D
100
AcDbLine
 10
147.9122082685105
 20
-321.7063240971221
 30
0.0
 11
147.9122082685105
 21
-337.7063240971221
 31
0.0
  0
LINE
  5
128
330
32
100
AcDbEntity
  8
寸法
  6
STYLE_01
 62
     7
370
    18
390
1D
100
AcDbLine
 10
132.9122082685105
 20
-321.7063240971221
 30
0.0
 11
132.9122082685105
 21
-337.7063240971221
 31
0.0
  0
ENDBLK
  5
129
330
32
100
AcDbEntity
  8
寸法
390
1D
100
AcDbBlockEnd
  0
BLOCK
  5
12A
330
33
100
AcDbEntity
  8
寸法
390
1D
100
AcDbBlockBegin
  2
グループ-15
 70
     0
 71
     0
 10
0.0
 20
0.0
 30
0.0
  3
グループ-15
  1

  0
LINE
  5
12B
330
33
100
AcDbEntity
  8
寸法
  6
STYLE_01
 62
     7
370
    18
390
1D
100
AcDbLine
 10
217.9122082685105
 20
-321.7063240971221
 30
0.0
 11
217.9122082685105
 21
-337.7063240971221
 31
0.0
  0
LINE
  5
12C
330
33
100
AcDbEntity
  8
寸法
  6
STYLE_01
 62
     7
370
    18
390
1D
100
AcDbLine
 10
202.9122082685105
 20
-321.7063240971221
 30
0.0
 11
202.9122082685105
 21
-337.7063240971221
 31
0.0
  0
ENDBLK
  5
12D
330
33
100
AcDbEntity
  8
寸法
390
1D
100
AcDbBlockEnd
  0
BLOCK
  5
12E
330
34
100
AcDbEntity
  8
寸法
390
1D
100
AcDbBlockBegin
  2
グループ-16
 70
     0
 71
     0
 10
0.0
 20
0.0
 30
0.0
  3
グループ-16
  1

  0
POLYLINE
  5
12F
330
34
100
AcDbEntity
  8
寸法
  6
Continuous
 62
     7
370
    18
390
1D
100
AcDb2dPolyline
 66
     1
 10
0.0
 20
0.0
 30
0.0
 70
     1
 75
     5
  0
VERTEX
  5
130
330
12F
100
AcDbEntity
  8
寸法
  6
Continuous
 62
     7
370
    18
390
1D
100
AcDbVertex
100
AcDb2dVertex
 10
246.4122082685105
 20
162.2936759028779
 30
0.0
  0
VERTEX
  5
131
330
12F
100
AcDbEntity
  8
寸法
  6
Continuous
 62
     7
370
    18
390
1D
100
AcDbVertex
100
AcDb2dVertex
 10
262.4122082685105
 20
162.2936759028779
 30
0.0
  0
VERTEX
  5
132
330
12F
100
AcDbEntity
  8
寸法
  6
Continuous
 62
     7
370
    18
390
1D
100
AcDbVertex
100
AcDb2dVertex
 10
262.4122082685105
 20
-237.7063240971222
 30
0.0
  0
VERTEX
  5
133
330
12F
100
AcDbEntity
  8
寸法
  6
Continuous
 62
     7
370
    18
390
1D
100
AcDbVertex
100
AcDb2dVertex
 10
246.4122082685105
 20
-237.7063240971222
 30
0.0
  0
SEQEND
  5
134
330
12F
100
AcDbEntity
  8
寸法
  6
Continuous
 62
     7
370
    18
390
1D
  0
LINE
  5
136
330
34
100
AcDbEntity
  8
寸法
  6
STYLE_01
 62
     7
370
    18
390
1D
100
AcDbLine
 10
262.4122082685105
 20
-157.7063240971222
 30
0.0
 11
246.4122082685105
 21
-157.7063240971222
 31
0.0
  0
LINE
  5
137
330
34
100
AcDbEntity
  8
寸法
  6
STYLE_01
 62
     7
370
    18
390
1D
100
AcDbLine
 10
262.4122082685105
 20
82.29367590287791
 30
0.0
 11
246.4122082685105
 21
82.29367590287791
 31
0.0
  0
ENDBLK
  5
138
330
34
100
AcDbEntity
  8
寸法
390
1D
100
AcDbBlockEnd
  0
BLOCK
  5
139
330
35
100
AcDbEntity
  8
寸法
390
1D
100
AcDbBlockBegin
  2
グループ-17
 70
     0
 71
     0
 10
0.0
 20
0.0
 30
0.0
  3
グループ-17
  1

  0
POLYLINE
  5
13A
330
35
100
AcDbEntity
  8
一般
  6
Continuous
 62
     7
370
    18
390
1D
100
AcDb2dPolyline
 66
     1
 10
0.0
 20
0.0
 30
0.0
 70
     1
 75
     5
  0
VERTEX
  5
13B
330
13A
100
AcDbEntity
  8
一般
  6
Continuous
 62
     7
370
    18
390
1D
100
AcDbVertex
100
AcDb2dVertex
 10
84.41220826851048
 20
182.2936759028773
 30
0.0
  0
VERTEX
  5
13C
330
13A
100
AcDbEntity
  8
一般
  6
Continuous
 62
     7
370
    18
390
1D
100
AcDbVertex
100
AcDb2dVertex
 10
266.4122082685104
 20
182.2936759028773
 30
0.0
  0
VERTEX
  5
13D
330
13A
100
AcDbEntity
  8
一般
  6
Continuous
 62
     7
370
    18
390
1D
100
AcDbVertex
100
AcDb2dVertex
 10
266.4122082685104
 20
-257.7063240971216
 30
0.0
  0
VERTEX
  5
13E
330
13A
100
AcDbEntity
  8
一般
  6
Continuous
 62
     7
370
    18
390
1D
100
AcDbVertex
100
AcDb2dVertex
 10
84.41220826851048
 20
-257.7063240971216
 30
0.0
  0
SEQEND
  5
13F
330
13A
100
AcDbEntity
  8
一般
  6
Continuous
 62
     7
370
    18
390
1D
  0
POLYLINE
  5
141
330
35
100
AcDbEntity
  8
一般
  6
Continuous
 62
     7
370
    18
390
1D
100
AcDb2dPolyline
 66
     1
 10
0.0
 20
0.0
 30
0.0
 70
     1
 75
     5
  0
VERTEX
  5
142
330
141
100
AcDbEntity
  8
一般
  6
Continuous
 62
     7
370
    18
390
1D
100
AcDbVertex
100
AcDb2dVertex
 10
120.4122082685106
 20
146.2936759028772
 30
0.0
  0
VERTEX
  5
143
330
141
100
AcDbEntity
  8
一般
  6
Continuous
 62
     7
370
    18
390
1D
100
AcDbVertex
100
AcDb2dVertex
 10
230.4122082685105
 20
146.2936759028772
 30
0.0
  0
VERTEX
  5
144
330
141
100
AcDbEntity
  8
一般
  6
Continuous
 62
     7
370
    18
390
1D
100
AcDbVertex
100
AcDb2dVertex
 10
230.4122082685105
 20
-221.7063240971215
 30
0.0
  0
VERTEX
  5
145
330
141
100
AcDbEntity
  8
一般
  6
Continuous
 62
     7
370
    18
390
1D
100
AcDbVertex
100
AcDb2dVertex
 10
120.4122082685106
 20
-221.7063240971215
 30
0.0
  0
SEQEND
  5
146
330
141
100
AcDbEntity
  8
一般
  6
Continuous
 62
     7
370
    18
390
1D
  0
POLYLINE
  5
148
330
35
100
AcDbEntity
  8
寸法
  6
STYLE_01
 62
     7
370
    18
390
1D
100
AcDb2dPolyline
 66
     1
 10
0.0
 20
0.0
 30
0.0
 70
     1
 75
     5
  0
VERTEX
  5
149
330
148
100
AcDbEntity
  8
寸法
  6
STYLE_01
 62
     7
370
    18
390
1D
100
AcDbVertex
100
AcDb2dVertex
 10
104.4122082685105
 20
162.2936759028779
 30
0.0
  0
VERTEX
  5
14A
330
148
100
AcDbEntity
  8
寸法
  6
STYLE_01
 62
     7
370
    18
390
1D
100
AcDbVertex
100
AcDb2dVertex
 10
246.4122082685105
 20
162.2936759028779
 30
0.0
  0
VERTEX
  5
14B
330
148
100
AcDbEntity
  8
寸法
  6
STYLE_01
 62
     7
370
    18
390
1D
100
AcDbVertex
100
AcDb2dVertex
 10
246.4122082685105
 20
-237.7063240971221
 30
0.0
  0
VERTEX
  5
14C
330
148
100
AcDbEntity
  8
寸法
  6
STYLE_01
 62
     7
370
    18
390
1D
100
AcDbVertex
100
AcDb2dVertex
 10
104.4122082685105
 20
-237.7063240971221
 30
0.0
  0
SEQEND
  5
14D
330
148
100
AcDbEntity
  8
寸法
  6
STYLE_01
 62
     7
370
    18
390
1D
  0
INSERT
  5
14F
330
35
100
AcDbEntity
  8
寸法
 62
     7
390
1D
100
AcDbBlockReference
  2
グループ-12
 10
0.0
 20
0.0
 30
0.0
  0
INSERT
  5
150
330
35
100
AcDbEntity
  8
寸法
 62
     7
390
1D
100
AcDbBlockReference
  2
グループ-13
 10
0.0
 20
0.0
 30
0.0
  0
POLYLINE
  5
151
330
35
100
AcDbEntity
  8
寸法
  6
Continuous
 62
     7
370
    18
390
1D
100
AcDb2dPolyline
 66
     1
 10
0.0
 20
0.0
 30
0.0
 70
     1
 75
     5
  0
VERTEX
  5
152
330
151
100
AcDbEntity
  8
寸法
  6
Continuous
 62
     7
370
    18
390
1D
100
AcDbVertex
100
AcDb2dVertex
 10
104.4122082685105
 20
-257.7063240971221
 30
0.0
  0
VERTEX
  5
153
330
151
100
AcDbEntity
  8
寸法
  6
Continuous
 62
     7
370
    18
390
1D
100
AcDbVertex
100
AcDb2dVertex
 10
246.4122082685105
 20
-257.7063240971221
 30
0.0
  0
VERTEX
  5
154
330
151
100
AcDbEntity
  8
寸法
  6
Continuous
 62
     7
370
    18
390
1D
100
AcDbVertex
100
AcDb2dVertex
 10
246.4122082685105
 20
-337.7063240971221
 30
0.0
  0
VERTEX
  5
155
330
151
100
AcDbEntity
  8
寸法
  6
Continuous
 62
     7
370
    18
390
1D
100
AcDbVertex
100
AcDb2dVertex
 10
104.4122082685105
 20
-337.7063240971221
 30
0.0
  0
SEQEND
  5
156
330
151
100
AcDbEntity
  8
寸法
  6
Continuous
 62
     7
370
    18
390
1D
  0
POLYLINE
  5
158
330
35
100
AcDbEntity
  8
寸法
  6
Continuous
 62
     7
370
    18
390
1D
100
AcDb2dPolyline
 66
     1
 10
0.0
 20
0.0
 30
0.0
 70
     1
 75
     5
  0
VERTEX
  5
159
330
158
100
AcDbEntity
  8
寸法
  6
Continuous
 62
     7
370
    18
390
1D
100
AcDbVertex
100
AcDb2dVertex
 10
120.4122082685105
 20
-257.7063240971221
 30
0.0
  0
VERTEX
  5
15A
330
158
100
AcDbEntity
  8
寸法
  6
Continuous
 62
     7
370
    18
390
1D
100
AcDbVertex
100
AcDb2dVertex
 10
230.4122082685105
 20
-257.7063240971221
 30
0.0
  0
VERTEX
  5
15B
330
158
100
AcDbEntity
  8
寸法
  6
Continuous
 62
     7
370
    18
390
1D
100
AcDbVertex
100
AcDb2dVertex
 10
230.4122082685105
 20
-321.7063240971221
 30
0.0
  0
VERTEX
  5
15C
330
158
100
AcDbEntity
  8
寸法
  6
Continuous
 62
     7
370
    18
390
1D
100
AcDbVertex
100
AcDb2dVertex
 10
120.4122082685105
 20
-321.7063240971221
 30
0.0
  0
SEQEND
  5
15D
330
158
100
AcDbEntity
  8
寸法
  6
Continuous
 62
     7
370
    18
390
1D
  0
LINE
  5
15F
330
35
100
AcDbEntity
  8
寸法
  6
STYLE_01
 62
     7
370
    18
390
1D
100
AcDbLine
 10
104.4122082685105
 20
-257.7063240971221
 30
0.0
 11
104.4122082685105
 21
-237.7063240971221
 31
0.0
  0
LINE
  5
160
330
35
100
AcDbEntity
  8
寸法
  6
STYLE_01
 62
     7
370
    18
390
1D
100
AcDbLine
 10
120.4122082685105
 20
-257.7063240971221
 30
0.0
 11
120.4122082685105
 21
-237.7063240971221
 31
0.0
  0
LINE
  5
161
330
35
100
AcDbEntity
  8
寸法
  6
STYLE_01
 62
     7
370
    18
390
1D
100
AcDbLine
 10
230.4122082685105
 20
-257.7063240971221
 30
0.0
 11
230.4122082685105
 21
-237.7063240971221
 31
0.0
  0
LINE
  5
162
330
35
100
AcDbEntity
  8
寸法
  6
STYLE_01
 62
     7
370
    18
390
1D
100
AcDbLine
 10
246.4122082685105
 20
-257.7063240971221
 30
0.0
 11
246.4122082685105
 21
-237.7063240971221
 31
0.0
  0
INSERT
  5
163
330
35
100
AcDbEntity
  8
寸法
 62
     7
390
1D
100
AcDbBlockReference
  2
グループ-14
 10
0.0
 20
0.0
 30
0.0
  0
INSERT
  5
164
330
35
100
AcDbEntity
  8
寸法
 62
     7
390
1D
100
AcDbBlockReference
  2
グループ-15
 10
0.0
 20
0.0
 30
0.0
  0
POLYLINE
  5
165
330
35
100
AcDbEntity
  8
寸法
  6
Continuous
 62
     7
370
    13
390
1D
100
AcDb2dPolyline
 66
     1
 10
0.0
 20
0.0
 30
0.0
 70
     1
 75
     5
  0
VERTEX
  5
166
330
165
100
AcDbEntity
  8
寸法
  6
Continuous
 62
     7
370
    13
390
1D
100
AcDbVertex
100
AcDb2dVertex
 10
104.4122082685105
 20
132.7936759028779
 30
0.0
  0
VERTEX
  5
167
330
165
100
AcDbEntity
  8
寸法
  6
Continuous
 62
     7
370
    13
390
1D
100
AcDbVertex
100
AcDb2dVertex
 10
108.6122082685105
 20
132.7936759028779
 30
0.0
  0
VERTEX
  5
168
330
165
100
AcDbEntity
  8
寸法
  6
Continuous
 62
     7
370
    13
390
1D
100
AcDbVertex
100
AcDb2dVertex
 10
108.6122082685105
 20
124.7936759028779
 30
0.0
  0
VERTEX
  5
169
330
165
100
AcDbEntity
  8
寸法
  6
Continuous
 62
     7
370
    13
390
1D
100
AcDbVertex
100
AcDb2dVertex
 10
104.4122082685105
 20
124.7936759028779
 30
0.0
  0
SEQEND
  5
16A
330
165
100
AcDbEntity
  8
寸法
  6
Continuous
 62
     7
370
    13
390
1D
  0
POLYLINE
  5
16C
330
35
100
AcDbEntity
  8
寸法
  6
Continuous
 62
     7
370
    13
390
1D
100
AcDb2dPolyline
 66
     1
 10
0.0
 20
0.0
 30
0.0
 70
     1
 75
     5
  0
VERTEX
  5
16D
330
16C
100
AcDbEntity
  8
寸法
  6
Continuous
 62
     7
370
    13
390
1D
100
AcDbVertex
100
AcDb2dVertex
 10
104.4122082685105
 20
-200.2063240971221
 30
0.0
  0
VERTEX
  5
16E
330
16C
100
AcDbEntity
  8
寸法
  6
Continuous
 62
     7
370
    13
390
1D
100
AcDbVertex
100
AcDb2dVertex
 10
108.6122082685105
 20
-200.2063240971221
 30
0.0
  0
VERTEX
  5
16F
330
16C
100
AcDbEntity
  8
寸法
  6
Continuous
 62
     7
370
    13
390
1D
100
AcDbVertex
100
AcDb2dVertex
 10
108.6122082685105
 20
-208.2063240971221
 30
0.0
  0
VERTEX
  5
170
330
16C
100
AcDbEntity
  8
寸法
  6
Continuous
 62
     7
370
    13
390
1D
100
AcDbVertex
100
AcDb2dVertex
 10
104.4122082685105
 20
-208.2063240971221
 30
0.0
  0
SEQEND
  5
171
330
16C
100
AcDbEntity
  8
寸法
  6
Continuous
 62
     7
370
    13
390
1D
  0
POLYLINE
  5
173
330
35
100
AcDbEntity
  8
寸法
  6
STYLE_01
 62
     7
370
    18
390
1D
100
AcDb2dPolyline
 66
     1
 10
0.0
 20
0.0
 30
0.0
 70
     1
 75
     5
  0
VERTEX
  5
174
330
173
100
AcDbEntity
  8
寸法
  6
STYLE_01
 62
     7
370
    18
390
1D
100
AcDbVertex
100
AcDb2dVertex
 10
136.4122082685105
 20
156.2936759028779
 30
0.0
  0
VERTEX
  5
175
330
173
100
AcDbEntity
  8
寸法
  6
STYLE_01
 62
     7
370
    18
390
1D
100
AcDbVertex
100
AcDb2dVertex
 10
142.4122082685105
 20
156.2936759028779
 30
0.0
  0
VERTEX
  5
176
330
173
100
AcDbEntity
  8
寸法
  6
STYLE_01
 62
     7
370
    18
390
1D
100
AcDbVertex
100
AcDb2dVertex
 10
142.4122082685105
 20
146.2936759028779
 30
0.0
  0
VERTEX
  5
177
330
173
100
AcDbEntity
  8
寸法
  6
STYLE_01
 62
     7
370
    18
390
1D
100
AcDbVertex
100
AcDb2dVertex
 10
136.4122082685105
 20
146.2936759028779
 30
0.0
  0
SEQEND
  5
178
330
173
100
AcDbEntity
  8
寸法
  6
STYLE_01
 62
     7
370
    18
390
1D
  0
POLYLINE
  5
17A
330
35
100
AcDbEntity
  8
寸法
  6
STYLE_01
 62
     7
370
    18
390
1D
100
AcDb2dPolyline
 66
     1
 10
0.0
 20
0.0
 30
0.0
 70
     1
 75
     5
  0
VERTEX
  5
17B
330
17A
100
AcDbEntity
  8
寸法
  6
STYLE_01
 62
     7
370
    18
390
1D
100
AcDbVertex
100
AcDb2dVertex
 10
136.4122082685105
 20
-221.7063240971215
 30
0.0
  0
VERTEX
  5
17C
330
17A
100
AcDbEntity
  8
寸法
  6
STYLE_01
 62
     7
370
    18
390
1D
100
AcDbVertex
100
AcDb2dVertex
 10
142.4122082685105
 20
-221.7063240971215
 30
0.0
  0
VERTEX
  5
17D
330
17A
100
AcDbEntity
  8
寸法
  6
STYLE_01
 62
     7
370
    18
390
1D
100
AcDbVertex
100
AcDb2dVertex
 10
142.4122082685105
 20
-231.7063240971215
 30
0.0
  0
VERTEX
  5
17E
330
17A
100
AcDbEntity
  8
寸法
  6
STYLE_01
 62
     7
370
    18
390
1D
100
AcDbVertex
100
AcDb2dVertex
 10
136.4122082685105
 20
-231.7063240971215
 30
0.0
  0
SEQEND
  5
17F
330
17A
100
AcDbEntity
  8
寸法
  6
STYLE_01
 62
     7
370
    18
390
1D
  0
POLYLINE
  5
181
330
35
100
AcDbEntity
  8
寸法
  6
STYLE_01
 62
     7
370
    18
390
1D
100
AcDb2dPolyline
 66
     1
 10
0.0
 20
0.0
 30
0.0
 70
     1
 75
     5
  0
VERTEX
  5
182
330
181
100
AcDbEntity
  8
寸法
  6
STYLE_01
 62
     7
370
    18
390
1D
100
AcDbVertex
100
AcDb2dVertex
 10
208.4122082685105
 20
-221.7063240971215
 30
0.0
  0
VERTEX
  5
183
330
181
100
AcDbEntity
  8
寸法
  6
STYLE_01
 62
     7
370
    18
390
1D
100
AcDbVertex
100
AcDb2dVertex
 10
214.4122082685105
 20
-221.7063240971215
 30
0.0
  0
VERTEX
  5
184
330
181
100
AcDbEntity
  8
寸法
  6
STYLE_01
 62
     7
370
    18
390
1D
100
AcDbVertex
100
AcDb2dVertex
 10
214.4122082685105
 20
-231.7063240971215
 30
0.0
  0
VERTEX
  5
185
330
181
100
AcDbEntity
  8
寸法
  6
STYLE_01
 62
     7
370
    18
390
1D
100
AcDbVertex
100
AcDb2dVertex
 10
208.4122082685105
 20
-231.7063240971215
 30
0.0
  0
SEQEND
  5
186
330
181
100
AcDbEntity
  8
寸法
  6
STYLE_01
 62
     7
370
    18
390
1D
  0
POLYLINE
  5
188
330
35
100
AcDbEntity
  8
寸法
  6
STYLE_01
 62
     7
370
    18
390
1D
100
AcDb2dPolyline
 66
     1
 10
0.0
 20
0.0
 30
0.0
 70
     1
 75
     5
  0
VERTEX
  5
189
330
188
100
AcDbEntity
  8
寸法
  6
STYLE_01
 62
     7
370
    18
390
1D
100
AcDbVertex
100
AcDb2dVertex
 10
208.4122082685105
 20
156.2936759028772
 30
0.0
  0
VERTEX
  5
18A
330
188
100
AcDbEntity
  8
寸法
  6
STYLE_01
 62
     7
370
    18
390
1D
100
AcDbVertex
100
AcDb2dVertex
 10
214.4122082685105
 20
156.2936759028772
 30
0.0
  0
VERTEX
  5
18B
330
188
100
AcDbEntity
  8
寸法
  6
STYLE_01
 62
     7
370
    18
390
1D
100
AcDbVertex
100
AcDb2dVertex
 10
214.4122082685105
 20
146.2936759028772
 30
0.0
  0
VERTEX
  5
18C
330
188
100
AcDbEntity
  8
寸法
  6
STYLE_01
 62
     7
370
    18
390
1D
100
AcDbVertex
100
AcDb2dVertex
 10
208.4122082685105
 20
146.2936759028772
 30
0.0
  0
SEQEND
  5
18D
330
188
100
AcDbEntity
  8
寸法
  6
STYLE_01
 62
     7
370
    18
390
1D
  0
INSERT
  5
18F
330
35
100
AcDbEntity
  8
寸法
 62
     7
390
1D
100
AcDbBlockReference
  2
グループ-16
 10
0.0
 20
0.0
 30
0.0
  0
ENDBLK
  5
190
330
35
100
AcDbEntity
  8
寸法
390
1D
100
AcDbBlockEnd
  0
BLOCK
  5
191
330
36
100
AcDbEntity
  8
寸法
390
1D
100
AcDbBlockBegin
  2
グループ-18
 70
     0
 71
     0
 10
0.0
 20
0.0
 30
0.0
  3
グループ-18
  1

  0
INSERT
  5
192
330
36
100
AcDbEntity
  8
寸法
 62
     7
390
1D
100
AcDbBlockReference
  2
グループ-17
 10
0.0
 20
0.0
 30
0.0
  0
ENDBLK
  5
193
330
36
100
AcDbEntity
  8
寸法
390
1D
100
AcDbBlockEnd
  0
BLOCK
  5
194
330
37
100
AcDbEntity
  8
寸法
390
1D
100
AcDbBlockBegin
  2
*D21
 70
     1
 71
     0
 10
0.0
 20
0.0
 30
0.0
  3
*D21
  1

  0
LINE
  5
195
330
37
100
AcDbEntity
  8
寸法
  6
STYLE_01
 62
     0
370
    -2
390
1D
100
AcDbLine
 10
386.7003914987809
 20
-199.2785221603673
 30
0.0
 11
386.7003914987809
 21
-59.34102216036609
 31
0.0
  0
LINE
  5
196
330
37
100
AcDbEntity
  8
寸法
  6
STYLE_01
 62
     0
370
    -2
390
1D
100
AcDbLine
 10
276.7003914987809
 20
-199.2785221603673
 30
0.0
 11
276.7003914987809
 21
-59.34102216036609
 31
0.0
  0
LINE
  5
197
330
37
100
AcDbEntity
  8
寸法
  6
STYLE_01
 62
     0
370
    -2
390
1D
100
AcDbLine
 10
394.6378914987809
 20
-75.2160221603661
 30
0.0
 11
386.7003914987809
 21
-75.2160221603661
 31
0.0
  0
LINE
  5
198
330
37
100
AcDbEntity
  8
寸法
  6
STYLE_01
 62
     0
370
    -2
390
1D
100
AcDbLine
 10
276.7003914987809
 20
-75.2160221603661
 30
0.0
 11
268.7628914987809
 21
-75.2160221603661
 31
0.0
  0
LINE
  5
199
330
37
100
AcDbEntity
  8
寸法
  6
STYLE_01
 62
     0
370
    -2
390
1D
100
AcDbLine
 10
386.7003914987809
 20
-75.2160221603661
 30
0.0
 11
276.7003914987809
 21
-75.2160221603661
 31
0.0
  0
LINE
  5
19A
330
37
100
AcDbEntity
  8
寸法
  6
STYLE_01
 62
     0
370
    20
390
1D
100
AcDbLine
 10
381.0877314231127
 20
-80.8286822360343
 30
0.0
 11
392.3130515744491
 21
-69.60336208469789
 31
0.0
  0
LINE
  5
19B
330
37
100
AcDbEntity
  8
寸法
  6
STYLE_01
 62
     0
370
    20
390
1D
100
AcDbLine
 10
282.3130515744491
 20
-69.60336208469789
 30
0.0
 11
271.0877314231127
 21
-80.8286822360343
 31
0.0
  0
WIPEOUT
  5
19C
330
37
100
AcDbEntity
  8
寸法
  6
STYLE_01
 62
     0
370
    -2
390
1D
 92
      308
310
3401000002000000A80000000B000000AE21493EF28C73400CBC854B4FA87B40000000000000000000000000000000000000000000000000000000000000F03F000000000000F03F0000000000000000000000000000000041634462576970656F757400FFFFFFFF000000000000000000000000000000000000F03F000000
310
0000000000000000000000F03F000000000000000000000000000000000000000074787400424947464F4E542E53485800840000000600000005000000AE21493EF28C73400CBC854B4FA87B4000000000000000007593255D77E975400CBC854B4FA87B4000000000000000007593255D77E97540D32D626AD4047E400000
310
000000000000AE21493EF28C7340D32D626AD4047E400000000000000000AE21493EF28C73400CBC854B4FA87B400000000000000000
100
AcDbWipeout
 90
        0
 10
312.8091414314939
 20
442.5193591331488
 30
0.0
 11
37.78250013457404
 21
0.0
 31
0.0
 12
0.0
 22
37.78250013457404
 32
0.0
 13
1.0
 23
1.0
340
0
 70
     7
280
     1
281
    50
282
    50
283
     0
360
0
 71
     2
 91
        5
 14
-0.5
 24
13.99296313048931
 14
0.4999999999999985
 24
13.99296313048931
 14
0.4999999999999985
 24
13.19557751241441
 14
-0.5
 24
13.19557751241441
 14
-0.5
 24
13.99296313048931
  0
MTEXT
  5
19D
330
37
100
AcDbEntity
  8
寸法
 62
     0
390
1D
100
AcDbMText
 10
312.8091414314939
 20
-44.95995336696336
 30
0.0
 40
15.65106879340278
 41
0.0
 71
     1
 72
     1
  1
110
  7
Calibri (bold)
 73
     1
 44
1.159596784673362
  0
POINT
  5
19E
330
37
100
AcDbEntity
  8
Defpoints
 62
     0
370
     0
390
1D
100
AcDbPoint
 10
276.7003914987809
 20
-207.2160221603673
 30
0.0
  0
POINT
  5
19F
330
37
100
AcDbEntity
  8
Defpoints
 62
     0
370
     0
390
1D
100
AcDbPoint
 10
386.7003914987809
 20
-207.2160221603673
 30
0.0
  0
POINT
  5
1A0
330
37
100
AcDbEntity
  8
Defpoints
 62
     0
370
     0
390
1D
100
AcDbPoint
 10
386.7003914987809
 20
-75.2160221603661
 30
0.0
  0
ENDBLK
  5
1A1
330
37
100
AcDbEntity
  8
寸法
390
1D
100
AcDbBlockEnd
  0
BLOCK
  5
1A2
330
38
100
AcDbEntity
  8
寸法
390
1D
100
AcDbBlockBegin
  2
*D22
 70
     1
 71
     0
 10
0.0
 20
0.0
 30
0.0
  3
*D22
  1

  0
LINE
  5
1A3
330
38
100
AcDbEntity
  8
寸法
  6
STYLE_01
 62
     0
370
    -2
390
1D
100
AcDbLine
 10
268.7628914987809
 20
-207.2160221603673
 30
0.0
 11
-690.8750000000064
 21
-207.2160221603673
 31
0.0
  0
LINE
  5
1A4
330
38
100
AcDbEntity
  8
寸法
  6
STYLE_01
 62
     0
370
    -2
390
1D
100
AcDbLine
 10
268.7628914987809
 20
-575.216022160366
 30
0.0
 11
-690.8750000000064
 21
-575.216022160366
 31
0.0
  0
LINE
  5
1A5
330
38
100
AcDbEntity
  8
寸法
  6
STYLE_01
 62
     0
370
    -2
390
1D
100
AcDbLine
 10
-675.0000000000064
 20
-199.2785221603673
 30
0.0
 11
-675.0000000000064
 21
-207.2160221603673
 31
0.0
  0
LINE
  5
1A6
330
38
100
AcDbEntity
  8
寸法
  6
STYLE_01
 62
     0
370
    -2
390
1D
100
AcDbLine
 10
-675.0000000000064
 20
-575.216022160366
 30
0.0
 11
-675.0000000000064
 21
-583.153522160366
 31
0.0
  0
LINE
  5
1A7
330
38
100
AcDbEntity
  8
寸法
  6
STYLE_01
 62
     0
370
    -2
390
1D
100
AcDbLine
 10
-675.0000000000064
 20
-207.2160221603673
 30
0.0
 11
-675.0000000000064
 21
-575.216022160366
 31
0.0
  0
LINE
  5
1A8
330
38
100
AcDbEntity
  8
寸法
  6
STYLE_01
 62
     0
370
    20
390
1D
100
AcDbLine
 10
-669.3873399243382
 20
-212.8286822360355
 30
0.0
 11
-680.6126600756747
 21
-201.6033620846991
 31
0.0
  0
LINE
  5
1A9
330
38
100
AcDbEntity
  8
寸法
  6
STYLE_01
 62
     0
370
    20
390
1D
100
AcDbLine
 10
-680.6126600756747
 20
-569.6033620846978
 30
0.0
 11
-669.3873399243382
 21
-580.8286822360343
 31
0.0
  0
WIPEOUT
  5
1AA
330
38
100
AcDbEntity
  8
寸法
  6
STYLE_01
 62
     0
370
    -2
390
1D
 92
      308
310
3401000002000000A80000000B000000609E158D844886C07A0C5EF032EC5840000000000000000000000000000000000000000000000000000000000000F03F000000000000F03F0000000000000000000000000000000041634462576970656F757400FFFFFFFF000000000000000000000000000000000000F03F000000
310
0000000000000000000000F03F000000000000000000000000000000000000000074787400424947464F4E542E53485800840000000600000005000000609E158D844886C07A0C5EF032EC584000000000000000007C65A7FD411A85C07A0C5EF032EC584000000000000000007C65A7FD411A85C0CBE9E7B5232F61400000
310
000000000000609E158D844886C0CBE9E7B5232F61400000000000000000609E158D844886C07A0C5EF032EC58400000000000000000
100
AcDbWipeout
 90
        0
 10
-713.0647222222287
 20
99.6906090658612
 30
0.0
 11
37.78250013457404
 21
0.0
 31
0.0
 12
0.0
 22
37.78250013457404
 32
0.0
 13
1.0
 23
1.0
340
0
 70
     7
280
     1
281
    50
282
    50
283
     0
360
0
 71
     2
 91
        5
 14
0.2973856180749015
 24
13.99296313048931
 14
0.2973856180749015
 24
12.99296313048931
 14
-0.5
 24
12.99296313048931
 14
-0.5
 24
13.99296313048931
 14
0.2973856180749015
 24
13.99296313048931
  0
MTEXT
  5
1AB
330
38
100
AcDbEntity
  8
寸法
 62
     0
390
1D
100
AcDbMText
 10
-705.2560687934092
 20
-410.1072722276537
 30
0.0
 40
15.65106879340278
 41
0.0
 71
     1
 72
     1
  1
368
  7
Calibri (bold)
 11
0.0
 21
1.0
 31
0.0
 73
     1
 44
1.159596784673362
  0
POINT
  5
1AC
330
38
100
AcDbEntity
  8
Defpoints
 62
     0
370
     0
390
1D
100
AcDbPoint
 10
276.7003914987809
 20
-575.216022160366
 30
0.0
  0
POINT
  5
1AD
330
38
100
AcDbEntity
  8
Defpoints
 62
     0
370
     0
390
1D
100
AcDbPoint
 10
276.7003914987809
 20
-207.2160221603673
 30
0.0
  0
POINT
  5
1AE
330
38
100
AcDbEntity
  8
Defpoints
 62
     0
370
     0
390
1D
100
AcDbPoint
 10
-675.0000000000064
 20
-207.2160221603673
 30
0.0
  0
ENDBLK
  5
1AF
330
38
100
AcDbEntity
  8
寸法
390
1D
100
AcDbBlockEnd
  0
BLOCK
  5
1B0
330
39
100
AcDbEntity
  8
寸法
390
1D
100
AcDbBlockBegin
  2
*D23
 70
     1
 71
     0
 10
0.0
 20
0.0
 30
0.0
  3
*D23
  1

  0
LINE
  5
1B1
330
39
100
AcDbEntity
  8
寸法
  6
STYLE_01
 62
     0
370
    -2
390
1D
100
AcDbLine
 10
-593.9375000000064
 20
-191.2160221603672
 30
0.0
 11
-690.8750000000064
 21
-191.2160221603672
 31
0.0
  0
LINE
  5
1B2
330
39
100
AcDbEntity
  8
寸法
  6
STYLE_01
 62
     0
370
    -2
390
1D
100
AcDbLine
 10
-593.9375000000064
 20
-207.2160221603673
 30
0.0
 11
-690.8750000000064
 21
-207.2160221603673
 31
0.0
  0
LINE
  5
1B3
330
39
100
AcDbEntity
  8
寸法
  6
STYLE_01
 62
     0
370
    -2
390
1D
100
AcDbLine
 10
-675.0000000000064
 20
-183.2785221603672
 30
0.0
 11
-675.0000000000064
 21
-191.2160221603672
 31
0.0
  0
LINE
  5
1B4
330
39
100
AcDbEntity
  8
寸法
  6
STYLE_01
 62
     0
370
    -2
390
1D
100
AcDbLine
 10
-675.0000000000064
 20
-207.2160221603673
 30
0.0
 11
-675.0000000000064
 21
-215.1535221603673
 31
0.0
  0
LINE
  5
1B5
330
39
100
AcDbEntity
  8
寸法
  6
STYLE_01
 62
     0
370
    -2
390
1D
100
AcDbLine
 10
-675.0000000000064
 20
-191.2160221603672
 30
0.0
 11
-675.0000000000064
 21
-207.2160221603673
 31
0.0
  0
LINE
  5
1B6
330
39
100
AcDbEntity
  8
寸法
  6
STYLE_01
 62
     0
370
    20
390
1D
100
AcDbLine
 10
-669.3873399243382
 20
-196.8286822360355
 30
0.0
 11
-680.6126600756747
 21
-185.603362084699
 31
0.0
  0
LINE
  5
1B7
330
39
100
AcDbEntity
  8
寸法
  6
STYLE_01
 62
     0
370
    20
390
1D
100
AcDbLine
 10
-680.6126600756747
 20
-201.6033620846991
 30
0.0
 11
-669.3873399243382
 21
-212.8286822360355
 31
0.0
  0
WIPEOUT
  5
1B8
330
39
100
AcDbEntity
  8
寸法
  6
STYLE_01
 62
     0
370
    -2
390
1D
 92
      308
310
3401000002000000A80000000B0000005E9E158D844886C06AD8DC96CD9F7240000000000000000000000000000000000000000000000000000000000000F03F000000000000F03F0000000000000000000000000000000041634462576970656F757400FFFFFFFF000000000000000000000000000000000000F03F000000
310
0000000000000000000000F03F000000000000000000000000000000000000000074787400424947464F4E542E534858008400000006000000050000005E9E158D844886C06AD8DC96CD9F7240000000000000000037000000805785C06AD8DC96CD9F7240000000000000000037000000805785C0B81408B1D68174400000
310
0000000000005E9E158D844886C0B81408B1D681744000000000000000005E9E158D844886C06AD8DC96CD9F72400000000000000000
100
AcDbWipeout
 90
        0
 10
-713.0647222222285
 20
297.9876927019856
 30
0.0
 11
30.12722222222226
 21
0.0
 31
0.0
 12
0.0
 22
30.12722222222226
 32
0.0
 13
1.0
 23
1.0
340
0
 70
     7
280
     1
281
    50
282
    50
283
     0
360
0
 71
     2
 91
        5
 14
0.4999999999999962
 24
17.42150300260609
 14
0.4999999999999962
 24
16.5854374444696
 14
-0.5
 24
16.5854374444696
 14
-0.5
 24
17.42150300260609
 14
0.4999999999999962
 24
17.42150300260609
  0
MTEXT
  5
1B9
330
39
100
AcDbEntity
  8
寸法
 62
     0
390
1D
100
AcDbMText
 10
-705.2560687934092
 20
-211.8101885915293
 30
0.0
 40
15.65106879340278
 41
0.0
 71
     1
 72
     1
  1
16
  7
Calibri (bold)
 11
0.0
 21
1.0
 31
0.0
 73
     1
 44
1.159596784673362
  0
POINT
  5
1BA
330
39
100
AcDbEntity
  8
Defpoints
 62
     0
370
     0
390
1D
100
AcDbPoint
 10
-586.0000000000064
 20
-207.2160221603673
 30
0.0
  0
POINT
  5
1BB
330
39
100
AcDbEntity
  8
Defpoints
 62
     0
370
     0
390
1D
100
AcDbPoint
 10
-586.0000000000064
 20
-191.2160221603672
 30
0.0
  0
POINT
  5
1BC
330
39
100
AcDbEntity
  8
Defpoints
 62
     0
370
     0
390
1D
100
AcDbPoint
 10
-675.0000000000064
 20
-191.2160221603672
 30
0.0
  0
ENDBLK
  5
1BD
330
39
100
AcDbEntity
  8
寸法
390
1D
100
AcDbBlockEnd
  0
BLOCK
  5
1BE
330
3A
100
AcDbEntity
  8
寸法
390
1D
100
AcDbBlockBegin
  2
*D24
 70
     1
 71
     0
 10
0.0
 20
0.0
 30
0.0
  3
*D24
  1

  0
LINE
  5
1BF
330
3A
100
AcDbEntity
  8
寸法
  6
STYLE_01
 62
     0
370
    -2
390
1D
100
AcDbLine
 10
-593.9375000000064
 20
-591.216022160366
 30
0.0
 11
-690.8750000000064
 21
-591.216022160366
 31
0.0
  0
LINE
  5
1C0
330
3A
100
AcDbEntity
  8
寸法
  6
STYLE_01
 62
     0
370
    -2
390
1D
100
AcDbLine
 10
-593.9375000000064
 20
-575.216022160366
 30
0.0
 11
-690.8750000000064
 21
-575.216022160366
 31
0.0
  0
LINE
  5
1C1
330
3A
100
AcDbEntity
  8
寸法
  6
STYLE_01
 62
     0
370
    -2
390
1D
100
AcDbLine
 10
-675.0000000000064
 20
-599.153522160366
 30
0.0
 11
-675.0000000000064
 21
-591.216022160366
 31
0.0
  0
LINE
  5
1C2
330
3A
100
AcDbEntity
  8
寸法
  6
STYLE_01
 62
     0
370
    -2
390
1D
100
AcDbLine
 10
-675.0000000000064
 20
-575.216022160366
 30
0.0
 11
-675.0000000000064
 21
-567.278522160366
 31
0.0
  0
LINE
  5
1C3
330
3A
100
AcDbEntity
  8
寸法
  6
STYLE_01
 62
     0
370
    -2
390
1D
100
AcDbLine
 10
-675.0000000000064
 20
-591.216022160366
 30
0.0
 11
-675.0000000000064
 21
-575.216022160366
 31
0.0
  0
LINE
  5
1C4
330
3A
100
AcDbEntity
  8
寸法
  6
STYLE_01
 62
     0
370
    20
390
1D
100
AcDbLine
 10
-680.6126600756747
 20
-585.6033620846979
 30
0.0
 11
-669.3873399243382
 21
-596.8286822360343
 31
0.0
  0
LINE
  5
1C5
330
3A
100
AcDbEntity
  8
寸法
  6
STYLE_01
 62
     0
370
    20
390
1D
100
AcDbLine
 10
-669.3873399243382
 20
-580.8286822360343
 30
0.0
 11
-680.6126600756747
 21
-569.6033620846978
 31
0.0
  0
WIPEOUT
  5
1C6
330
3A
100
AcDbEntity
  8
寸法
  6
STYLE_01
 62
     0
370
    -2
390
1D
 92
      308
310
3401000002000000A80000000B0000005E9E158D844886C0069E8CA4C98055C0000000000000000000000000000000000000000000000000000000000000F03F000000000000F03F0000000000000000000000000000000041634462576970656F757400FFFFFFFF000000000000000000000000000000000000F03F000000
310
0000000000000000000000F03F000000000000000000000000000000000000000074787400424947464F4E542E534858008400000006000000050000005E9E158D844886C0069E8CA4C98055C0000000000000000037000000805785C0069E8CA4C98055C0000000000000000037000000805785C09C59BF774AF14BC00000
310
0000000000005E9E158D844886C09C59BF774AF14BC000000000000000005E9E158D844886C0069E8CA4C98055C00000000000000000
100
AcDbWipeout
 90
        0
 10
-713.0647222222285
 20
-86.01230729801327
 30
0.0
 11
30.12722222222226
 21
0.0
 31
0.0
 12
0.0
 22
30.12722222222226
 32
0.0
 13
1.0
 23
1.0
340
0
 70
     7
280
     1
281
    50
282
    50
283
     0
360
0
 71
     2
 91
        5
 14
0.4999999999999962
 24
17.42150300260609
 14
0.4999999999999962
 24
16.5854374444696
 14
-0.5
 24
16.5854374444696
 14
-0.5
 24
17.42150300260609
 14
0.4999999999999962
 24
17.42150300260609
  0
MTEXT
  5
1C7
330
3A
100
AcDbEntity
  8
寸法
 62
     0
390
1D
100
AcDbMText
 10
-705.2560687934092
 20
-595.8101885915281
 30
0.0
 40
15.65106879340278
 41
0.0
 71
     1
 72
     1
  1
16
  7
Calibri (bold)
 11
0.0
 21
1.0
 31
0.0
 73
     1
 44
1.159596784673362
  0
POINT
  5
1C8
330
3A
100
AcDbEntity
  8
Defpoints
 62
     0
370
     0
390
1D
100
AcDbPoint
 10
-586.0000000000064
 20
-575.216022160366
 30
0.0
  0
POINT
  5
1C9
330
3A
100
AcDbEntity
  8
Defpoints
 62
     0
370
     0
390
1D
100
AcDbPoint
 10
-586.0000000000064
 20
-591.216022160366
 30
0.0
  0
POINT
  5
1CA
330
3A
100
AcDbEntity
  8
Defpoints
 62
     0
370
     0
390
1D
100
AcDbPoint
 10
-675.0000000000064
 20
-591.216022160366
 30
0.0
  0
ENDBLK
  5
1CB
330
3A
100
AcDbEntity
  8
寸法
390
1D
100
AcDbBlockEnd
  0
BLOCK
  5
1CC
330
3B
100
AcDbEntity
  8
寸法
390
1D
100
AcDbBlockBegin
  2
*D25
 70
     1
 71
     0
 10
0.0
 20
0.0
 30
0.0
  3
*D25
  1

  0
LINE
  5
1CD
330
3B
100
AcDbEntity
  8
寸法
  6
STYLE_01
 62
     0
370
    -2
390
1D
100
AcDbLine
 10
7.9375
 20
55.0
 30
0.0
 11
98.87499999999443
 21
55.0
 31
0.0
  0
LINE
  5
1CE
330
3B
100
AcDbEntity
  8
寸法
  6
STYLE_01
 62
     0
370
    -2
390
1D
100
AcDbLine
 10
7.9375
 20
-55.0
 30
0.0
 11
98.87499999999443
 21
-55.0
 31
0.0
  0
LINE
  5
1CF
330
3B
100
AcDbEntity
  8
寸法
  6
STYLE_01
 62
     0
370
    -2
390
1D
100
AcDbLine
 10
82.99999999999443
 20
62.9375
 30
0.0
 11
82.99999999999443
 21
55.0
 31
0.0
  0
LINE
  5
1D0
330
3B
100
AcDbEntity
  8
寸法
  6
STYLE_01
 62
     0
370
    -2
390
1D
100
AcDbLine
 10
82.99999999999443
 20
-55.0
 30
0.0
 11
82.99999999999443
 21
-62.9375
 31
0.0
  0
LINE
  5
1D1
330
3B
100
AcDbEntity
  8
寸法
  6
STYLE_01
 62
     0
370
    -2
390
1D
100
AcDbLine
 10
82.99999999999443
 20
55.0
 30
0.0
 11
82.99999999999443
 21
-55.0
 31
0.0
  0
LINE
  5
1D2
330
3B
100
AcDbEntity
  8
寸法
  6
STYLE_01
 62
     0
370
    20
390
1D
100
AcDbLine
 10
88.61266007566265
 20
49.3873399243318
 30
0.0
 11
77.38733992432621
 21
60.6126600756682
 31
0.0
  0
LINE
  5
1D3
330
3B
100
AcDbEntity
  8
寸法
  6
STYLE_01
 62
     0
370
    20
390
1D
100
AcDbLine
 10
77.38733992432621
 20
-49.3873399243318
 30
0.0
 11
88.61266007566265
 21
-60.6126600756682
 31
0.0
  0
WIPEOUT
  5
1D4
330
3B
100
AcDbEntity
  8
寸法
  6
STYLE_01
 62
     0
370
    -2
390
1D
 92
      308
310
3401000002000000A80000000B000000841AA62EB7774640E5A2BE8F81AE7E40000000000000000000000000000000000000000000000000000000000000F03F000000000000F03F0000000000000000000000000000000041634462576970656F757400FFFFFFFF000000000000000000000000000000000000F03F000000
310
0000000000000000000000F03F000000000000000000000000000000000000000074787400424947464F4E542E53485800840000000600000005000000841AA62EB7774640E5A2BE8F81AE7E4000000000000000005ED4C412F0AD5440E5A2BE8F81AE7E4000000000000000005ED4C412F0AD5440568A4D57838580400000
310
000000000000841AA62EB7774640568A4D57838580400000000000000000841AA62EB7774640E5A2BE8F81AE7E400000000000000000
100
AcDbWipeout
 90
        0
 10
44.9352777777722
 20
490.9066312262278
 30
0.0
 11
37.78250013457404
 21
0.0
 31
0.0
 12
0.0
 22
37.78250013457404
 32
0.0
 13
1.0
 23
1.0
340
0
 70
     7
280
     1
281
    50
282
    50
283
     0
360
0
 71
     2
 91
        5
 14
0.2973856180748978
 24
13.99296313048931
 14
0.2973856180748978
 24
12.99296313048931
 14
-0.5
 24
12.99296313048931
 14
-0.5
 24
13.99296313048931
 14
0.2973856180748978
 24
13.99296313048931
  0
MTEXT
  5
1D5
330
3B
100
AcDbEntity
  8
寸法
 62
     0
390
1D
100
AcDbMText
 10
52.74393120659164
 20
-18.89125006728705
 30
0.0
 40
15.65106879340278
 41
0.0
 71
     1
 72
     1
  1
110
  7
Calibri (bold)
 11
0.0
 21
1.0
 31
0.0
 73
     1
 44
1.159596784673362
  0
POINT
  5
1D6
330
3B
100
AcDbEntity
  8
Defpoints
 62
     0
370
     0
390
1D
100
AcDbPoint
 10
0.0
 20
-55.0
 30
0.0
  0
POINT
  5
1D7
330
3B
100
AcDbEntity
  8
Defpoints
 62
     0
370
     0
390
1D
100
AcDbPoint
 10
0.0
 20
55.0
 30
0.0
  0
POINT
  5
1D8
330
3B
100
AcDbEntity
  8
Defpoints
 62
     0
370
     0
390
1D
100
AcDbPoint
 10
82.99999999999443
 20
55.0
 30
0.0
  0
ENDBLK
  5
1D9
330
3B
100
AcDbEntity
  8
寸法
390
1D
100
AcDbBlockEnd
  0
BLOCK
  5
1DA
330
3C
100
AcDbEntity
  8
寸法
390
1D
100
AcDbBlockBegin
  2
*D26
 70
     1
 71
     0
 10
0.0
 20
0.0
 30
0.0
  3
*D26
  1

  0
LINE
  5
1DB
330
3C
100
AcDbEntity
  8
寸法
  6
STYLE_01
 62
     0
370
    -2
390
1D
100
AcDbLine
 10
0.0
 20
-78.9375
 30
0.0
 11
0.0
 21
-759.091022160366
 31
0.0
  0
LINE
  5
1DC
330
3C
100
AcDbEntity
  8
寸法
  6
STYLE_01
 62
     0
370
    -2
390
1D
100
AcDbLine
 10
-586.0000000000009
 20
-78.9375
 30
0.0
 11
-586.0000000000009
 21
-759.091022160366
 31
0.0
  0
LINE
  5
1DD
330
3C
100
AcDbEntity
  8
寸法
  6
STYLE_01
 62
     0
370
    -2
390
1D
100
AcDbLine
 10
7.9375
 20
-743.216022160366
 30
0.0
 11
0.0
 21
-743.216022160366
 31
0.0
  0
LINE
  5
1DE
330
3C
100
AcDbEntity
  8
寸法
  6
STYLE_01
 62
     0
370
    -2
390
1D
100
AcDbLine
 10
-586.0000000000009
 20
-743.216022160366
 30
0.0
 11
-593.9375000000009
 21
-743.216022160366
 31
0.0
  0
LINE
  5
1DF
330
3C
100
AcDbEntity
  8
寸法
  6
STYLE_01
 62
     0
370
    -2
390
1D
100
AcDbLine
 10
0.0
 20
-743.216022160366
 30
0.0
 11
-586.0000000000009
 21
-743.216022160366
 31
0.0
  0
LINE
  5
1E0
330
3C
100
AcDbEntity
  8
寸法
  6
STYLE_01
 62
     0
370
    20
390
1D
100
AcDbLine
 10
-5.612660075668231
 20
-748.8286822360342
 30
0.0
 11
5.612660075668231
 21
-737.6033620846979
 31
0.0
  0
LINE
  5
1E1
330
3C
100
AcDbEntity
  8
寸法
  6
STYLE_01
 62
     0
370
    20
390
1D
100
AcDbLine
 10
-580.3873399243325
 20
-737.6033620846979
 30
0.0
 11
-591.612660075669
 21
-748.8286822360342
 31
0.0
  0
WIPEOUT
  5
1E2
330
3C
100
AcDbEntity
  8
寸法
  6
STYLE_01
 62
     0
370
    -2
390
1D
 92
      308
310
3401000002000000A80000000B000000EB386E8F427E73C0E687F468612F6CC0000000000000000000000000000000000000000000000000000000000000F03F000000000000F03F0000000000000000000000000000000041634462576970656F757400FFFFFFFF000000000000000000000000000000000000F03F000000
310
0000000000000000000000F03F000000000000000000000000000000000000000074787400424947464F4E542E53485800840000000600000005000000EB386E8F427E73C0E687F468612F6CC0000000000000000024C79170BD2171C0E687F468612F6CC0000000000000000024C79170BD2171C058A43B2B577667C00000
310
000000000000EB386E8F427E73C058A43B2B577667C00000000000000000EB386E8F427E73C0E687F468612F6CC00000000000000000
100
AcDbWipeout
 90
        0
 10
-311.8912500672874
 20
-225.4806408668512
 30
0.0
 11
37.78250013457404
 21
0.0
 31
0.0
 12
0.0
 22
37.78250013457404
 32
0.0
 13
1.0
 23
1.0
340
0
 70
     7
280
     1
281
    50
282
    50
283
     0
360
0
 71
     2
 91
        5
 14
-0.5
 24
13.99296313048931
 14
0.5
 24
13.99296313048931
 14
0.5
 24
13.19557751241442
 14
-0.5
 24
13.19557751241442
 14
-0.5
 24
13.99296313048931
  0
MTEXT
  5
1E3
330
3C
100
AcDbEntity
  8
寸法
 62
     0
390
1D
100
AcDbMText
 10
-311.8912500672874
 20
-712.9599533669633
 30
0.0
 40
15.65106879340278
 41
0.0
 71
     1
 72
     1
  1
586
  7
Calibri (bold)
 73
     1
 44
1.159596784673362
  0
POINT
  5
1E4
330
3C
100
AcDbEntity
  8
Defpoints
 62
     0
370
     0
390
1D
100
AcDbPoint
 10
-586.0000000000009
 20
-71.0
 30
0.0
  0
POINT
  5
1E5
330
3C
100
AcDbEntity
  8
Defpoints
 62
     0
370
     0
390
1D
100
AcDbPoint
 10
0.0
 20
-71.0
 30
0.0
  0
POINT
  5
1E6
330
3C
100
AcDbEntity
  8
Defpoints
 62
     0
370
     0
390
1D
100
AcDbPoint
 10
0.0
 20
-743.216022160366
 30
0.0
  0
ENDBLK
  5
1E7
330
3C
100
AcDbEntity
  8
寸法
390
1D
100
AcDbBlockEnd
  0
BLOCK
  5
1E8
330
3D
100
AcDbEntity
  8
寸法
390
1D
100
AcDbBlockBegin
  2
*D27
 70
     1
 71
     0
 10
0.0
 20
0.0
 30
0.0
  3
*D27
  1

  0
LINE
  5
1E9
330
3D
100
AcDbEntity
  8
寸法
  6
STYLE_01
 62
     0
370
    -2
390
1D
100
AcDbLine
 10
410.6378914987809
 20
-191.2160221603667
 30
0.0
 11
545.6668046807315
 21
-191.2160221603667
 31
0.0
  0
LINE
  5
1EA
330
3D
100
AcDbEntity
  8
寸法
  6
STYLE_01
 62
     0
370
    -2
390
1D
100
AcDbLine
 10
410.6378914987809
 20
-591.2160221603667
 30
0.0
 11
545.6668046807315
 21
-591.2160221603667
 31
0.0
  0
LINE
  5
1EB
330
3D
100
AcDbEntity
  8
寸法
  6
STYLE_01
 62
     0
370
    -2
390
1D
100
AcDbLine
 10
529.7918046807315
 20
-183.2785221603667
 30
0.0
 11
529.7918046807315
 21
-191.2160221603667
 31
0.0
  0
LINE
  5
1EC
330
3D
100
AcDbEntity
  8
寸法
  6
STYLE_01
 62
     0
370
    -2
390
1D
100
AcDbLine
 10
529.7918046807315
 20
-591.2160221603667
 30
0.0
 11
529.7918046807315
 21
-599.1535221603667
 31
0.0
  0
LINE
  5
1ED
330
3D
100
AcDbEntity
  8
寸法
  6
STYLE_01
 62
     0
370
    -2
390
1D
100
AcDbLine
 10
529.7918046807315
 20
-191.2160221603667
 30
0.0
 11
529.7918046807315
 21
-591.2160221603667
 31
0.0
  0
LINE
  5
1EE
330
3D
100
AcDbEntity
  8
寸法
  6
STYLE_01
 62
     0
370
    20
390
1D
100
AcDbLine
 10
535.4044647563996
 20
-196.8286822360349
 30
0.0
 11
524.1791446050634
 21
-185.6033620846984
 31
0.0
  0
LINE
  5
1EF
330
3D
100
AcDbEntity
  8
寸法
  6
STYLE_01
 62
     0
370
    20
390
1D
100
AcDbLine
 10
524.1791446050634
 20
-585.6033620846985
 30
0.0
 11
535.4044647563996
 21
-596.8286822360349
 31
0.0
  0
WIPEOUT
  5
1F0
330
3D
100
AcDbEntity
  8
寸法
  6
STYLE_01
 62
     0
370
    -2
390
1D
 92
      308
310
3401000002000000A80000000B000000AE4C3721A2BB7E407A0C5EF032EC5840000000000000000000000000000000000000000000000000000000000000F03F000000000000F03F0000000000000000000000000000000041634462576970656F757400FFFFFFFF000000000000000000000000000000000000F03F000000
310
0000000000000000000000F03F000000000000000000000000000000000000000074787400424947464F4E542E53485800840000000600000005000000AE4C3721A2BB7E407A0C5EF032EC584000000000000000003BDF09A0138C80407A0C5EF032EC584000000000000000003BDF09A0138C8040CBE9E7B5232F61400000
310
000000000000AE4C3721A2BB7E40CBE9E7B5232F61400000000000000000AE4C3721A2BB7E407A0C5EF032EC58400000000000000000
100
AcDbWipeout
 90
        0
 10
491.7270824585092
 20
99.6906090658612
 30
0.0
 11
37.78250013457404
 21
0.0
 31
0.0
 12
0.0
 22
37.78250013457404
 32
0.0
 13
1.0
 23
1.0
340
0
 70
     7
280
     1
281
    50
282
    50
283
     0
360
0
 71
     2
 91
        5
 14
0.2973856180748985
 24
13.99296313048931
 14
0.2973856180748985
 24
12.99296313048931
 14
-0.5
 24
12.99296313048931
 14
-0.5
 24
13.99296313048931
 14
0.2973856180748985
 24
13.99296313048931
  0
MTEXT
  5
1F1
330
3D
100
AcDbEntity
  8
寸法
 62
     0
390
1D
100
AcDbMText
 10
499.5357358873287
 20
-410.1072722276537
 30
0.0
 40
15.65106879340278
 41
0.0
 71
     1
 72
     1
  1
400
  7
Calibri (bold)
 11
0.0
 21
1.0
 31
0.0
 73
     1
 44
1.159596784673362
  0
POINT
  5
1F2
330
3D
100
AcDbEntity
  8
Defpoints
 62
     0
370
     0
390
1D
100
AcDbPoint
 10
402.7003914987809
 20
-591.2160221603667
 30
0.0
  0
POINT
  5
1F3
330
3D
100
AcDbEntity
  8
Defpoints
 62
     0
370
     0
390
1D
100
AcDbPoint
 10
402.7003914987809
 20
-191.2160221603667
 30
0.0
  0
POINT
  5
1F4
330
3D
100
AcDbEntity
  8
Defpoints
 62
     0
370
     0
390
1D
100
AcDbPoint
 10
529.7918046807315
 20
-191.2160221603667
 30
0.0
  0
ENDBLK
  5
1F5
330
3D
100
AcDbEntity
  8
寸法
390
1D
100
AcDbBlockEnd
  0
BLOCK
  5
1F6
330
3E
100
AcDbEntity
  8
寸法
390
1D
100
AcDbBlockBegin
  2
*D28
 70
     1
 71
     0
 10
0.0
 20
0.0
 30
0.0
  3
*D28
  1

  0
LINE
  5
1F7
330
3E
100
AcDbEntity
  8
寸法
  6
STYLE_01
 62
     0
370
    -2
390
1D
100
AcDbLine
 10
-0.0000000000055707
 20
-619.153522160366
 30
0.0
 11
-0.0000000000055707
 21
-759.091022160366
 31
0.0
  0
LINE
  5
1F8
330
3E
100
AcDbEntity
  8
寸法
  6
STYLE_01
 62
     0
370
    -2
390
1D
100
AcDbLine
 10
15.99999999999443
 20
-619.153522160366
 30
0.0
 11
15.99999999999443
 21
-759.091022160366
 31
0.0
  0
LINE
  5
1F9
330
3E
100
AcDbEntity
  8
寸法
  6
STYLE_01
 62
     0
370
    -2
390
1D
100
AcDbLine
 10
-7.937500000005571
 20
-743.216022160366
 30
0.0
 11
-0.0000000000055707
 21
-743.216022160366
 31
0.0
  0
LINE
  5
1FA
330
3E
100
AcDbEntity
  8
寸法
  6
STYLE_01
 62
     0
370
    -2
390
1D
100
AcDbLine
 10
15.99999999999443
 20
-743.216022160366
 30
0.0
 11
23.93749999999443
 21
-743.216022160366
 31
0.0
  0
LINE
  5
1FB
330
3E
100
AcDbEntity
  8
寸法
  6
STYLE_01
 62
     0
370
    -2
390
1D
100
AcDbLine
 10
-0.0000000000055707
 20
-743.216022160366
 30
0.0
 11
15.99999999999443
 21
-743.216022160366
 31
0.0
  0
LINE
  5
1FC
330
3E
100
AcDbEntity
  8
寸法
  6
STYLE_01
 62
     0
370
    20
390
1D
100
AcDbLine
 10
5.61266007566266
 20
-737.6033620846979
 30
0.0
 11
-5.612660075673801
 21
-748.8286822360342
 31
0.0
  0
LINE
  5
1FD
330
3E
100
AcDbEntity
  8
寸法
  6
STYLE_01
 62
     0
370
    20
390
1D
100
AcDbLine
 10
10.3873399243262
 20
-748.8286822360342
 30
0.0
 11
21.61266007566266
 21
-737.6033620846979
 31
0.0
  0
WIPEOUT
  5
1FE
330
3E
100
AcDbEntity
  8
寸法
  6
STYLE_01
 62
     0
370
    -2
390
1D
 92
      308
310
3401000002000000A80000000B00000000FC382A6D6012C0E687F468612F6CC0000000000000000000000000000000000000000000000000000000000000F03F000000000000F03F0000000000000000000000000000000041634462576970656F757400FFFFFFFF000000000000000000000000000000000000F03F000000
310
0000000000000000000000F03F000000000000000000000000000000000000000074787400424947464F4E542E5348580084000000060000000500000000FC382A6D6012C0E687F468612F6CC00000000000000000D085255876883940E687F468612F6CC00000000000000000D0852558768839404C0F9E344F6B68C00000
310
00000000000000FC382A6D6012C04C0F9E344F6B68C0000000000000000000FC382A6D6012C0E687F468612F6CC00000000000000000
100
AcDbWipeout
 90
        0
 10
-4.59416643116765
 20
-225.4806408668512
 30
0.0
 11
30.1272222222222
 21
0.0
 31
0.0
 12
0.0
 22
30.1272222222222
 32
0.0
 13
1.0
 23
1.0
340
0
 70
     7
280
     1
281
    50
282
    50
283
     0
360
0
 71
     2
 91
        5
 14
-0.5
 24
17.42150300260612
 14
0.3360655581364873
 24
17.42150300260612
 14
0.3360655581364873
 24
16.42150300260612
 14
-0.5
 24
16.42150300260612
 14
-0.5
 24
17.42150300260612
  0
MTEXT
  5
1FF
330
3E
100
AcDbEntity
  8
寸法
 62
     0
390
1D
100
AcDbMText
 10
-4.59416643116765
 20
-712.9599533669633
 30
0.0
 40
15.65106879340278
 41
0.0
 71
     1
 72
     1
  1
16
  7
Calibri (bold)
 73
     1
 44
1.159596784673362
  0
POINT
  5
200
330
3E
100
AcDbEntity
  8
Defpoints
 62
     0
370
     0
390
1D
100
AcDbPoint
 10
15.99999999999443
 20
-611.216022160366
 30
0.0
  0
POINT
  5
201
330
3E
100
AcDbEntity
  8
Defpoints
 62
     0
370
     0
390
1D
100
AcDbPoint
 10
-0.0000000000055707
 20
-611.216022160366
 30
0.0
  0
POINT
  5
202
330
3E
100
AcDbEntity
  8
Defpoints
 62
     0
370
     0
390
1D
100
AcDbPoint
 10
-0.0000000000055707
 20
-743.216022160366
 30
0.0
  0
ENDBLK
  5
203
330
3E
100
AcDbEntity
  8
寸法
390
1D
100
AcDbBlockEnd
  0
BLOCK
  5
204
330
3F
100
AcDbEntity
  8
寸法
390
1D
100
AcDbBlockBegin
  2
*D29
 70
     1
 71
     0
 10
0.0
 20
0.0
 30
0.0
  3
*D29
  1

  0
LINE
  5
205
330
3F
100
AcDbEntity
  8
寸法
  6
STYLE_01
 62
     0
370
    -2
390
1D
100
AcDbLine
 10
-593.9375000000009
 20
-71.0
 30
0.0
 11
-682.875
 21
-71.0
 31
0.0
  0
LINE
  5
206
330
3F
100
AcDbEntity
  8
寸法
  6
STYLE_01
 62
     0
370
    -2
390
1D
100
AcDbLine
 10
-593.9375000000009
 20
71.0
 30
0.0
 11
-682.875
 21
71.0
 31
0.0
  0
LINE
  5
207
330
3F
100
AcDbEntity
  8
寸法
  6
STYLE_01
 62
     0
370
    -2
390
1D
100
AcDbLine
 10
-667.0
 20
-78.9375
 30
0.0
 11
-667.0
 21
-71.0
 31
0.0
  0
LINE
  5
208
330
3F
100
AcDbEntity
  8
寸法
  6
STYLE_01
 62
     0
370
    -2
390
1D
100
AcDbLine
 10
-667.0
 20
71.0
 30
0.0
 11
-667.0
 21
78.9375
 31
0.0
  0
LINE
  5
209
330
3F
100
AcDbEntity
  8
寸法
  6
STYLE_01
 62
     0
370
    -2
390
1D
100
AcDbLine
 10
-667.0
 20
-71.0
 30
0.0
 11
-667.0
 21
71.0
 31
0.0
  0
LINE
  5
20A
330
3F
100
AcDbEntity
  8
寸法
  6
STYLE_01
 62
     0
370
    20
390
1D
100
AcDbLine
 10
-672.6126600756681
 20
-65.3873399243318
 30
0.0
 11
-661.3873399243316
 21
-76.6126600756682
 31
0.0
  0
LINE
  5
20B
330
3F
100
AcDbEntity
  8
寸法
  6
STYLE_01
 62
     0
370
    20
390
1D
100
AcDbLine
 10
-661.3873399243316
 20
65.3873399243318
 30
0.0
 11
-672.6126600756681
 21
76.6126600756682
 31
0.0
  0
WIPEOUT
  5
20C
330
3F
100
AcDbEntity
  8
寸法
  6
STYLE_01
 62
     0
370
    -2
390
1D
 92
      308
310
3401000002000000A80000000B000000269E158D840886C0E5A2BE8F81AE7E40000000000000000000000000000000000000000000000000000000000000F03F000000000000F03F0000000000000000000000000000000041634462576970656F757400FFFFFFFF000000000000000000000000000000000000F03F000000
310
0000000000000000000000F03F000000000000000000000000000000000000000074787400424947464F4E542E53485800840000000600000005000000269E158D840886C0E5A2BE8F81AE7E4000000000000000004265A7FD41DA84C0E5A2BE8F81AE7E4000000000000000004265A7FD41DA84C0568A4D57838580400000
310
000000000000269E158D840886C0568A4D57838580400000000000000000269E158D840886C0E5A2BE8F81AE7E400000000000000000
100
AcDbWipeout
 90
        0
 10
-705.0647222222221
 20
490.9066312262278
 30
0.0
 11
37.78250013457404
 21
0.0
 31
0.0
 12
0.0
 22
37.78250013457404
 32
0.0
 13
1.0
 23
1.0
340
0
 70
     7
280
     1
281
    50
282
    50
283
     0
360
0
 71
     2
 91
        5
 14
0.2973856180748956
 24
13.99296313048931
 14
0.2973856180748956
 24
12.99296313048931
 14
-0.5
 24
12.99296313048931
 14
-0.5
 24
13.99296313048931
 14
0.2973856180748956
 24
13.99296313048931
  0
MTEXT
  5
20D
330
3F
100
AcDbEntity
  8
寸法
 62
     0
390
1D
100
AcDbMText
 10
-697.2560687934028
 20
-18.89125006728705
 30
0.0
 40
15.65106879340278
 41
0.0
 71
     1
 72
     1
  1
142
  7
Calibri (bold)
 11
0.0
 21
1.0
 31
0.0
 73
     1
 44
1.159596784673362
  0
POINT
  5
20E
330
3F
100
AcDbEntity
  8
Defpoints
 62
     0
370
     0
390
1D
100
AcDbPoint
 10
-586.0000000000009
 20
71.0
 30
0.0
  0
POINT
  5
20F
330
3F
100
AcDbEntity
  8
Defpoints
 62
     0
370
     0
390
1D
100
AcDbPoint
 10
-586.0000000000009
 20
-71.0
 30
0.0
  0
POINT
  5
210
330
3F
100
AcDbEntity
  8
Defpoints
 62
     0
370
     0
390
1D
100
AcDbPoint
 10
-667.0
 20
-71.0
 30
0.0
  0
ENDBLK
  5
211
330
3F
100
AcDbEntity
  8
寸法
390
1D
100
AcDbBlockEnd
  0
BLOCK
  5
212
330
40
100
AcDbEntity
  8
寸法
390
1D
100
AcDbBlockBegin
  2
*D30
 70
     1
 71
     0
 10
0.0
 20
0.0
 30
0.0
  3
*D30
  1

  0
LINE
  5
213
330
40
100
AcDbEntity
  8
寸法
  6
Continuous
 62
     0
370
    -2
390
1D
100
AcDbLine
 10
-568.9375
 20
71.0
 30
0.0
 11
-682.875
 21
71.0
 31
0.0
  0
LINE
  5
214
330
40
100
AcDbEntity
  8
寸法
  6
Continuous
 62
     0
370
    -2
390
1D
100
AcDbLine
 10
-559.6998956929658
 20
87.0
 30
0.0
 11
-682.875
 21
87.0
 31
0.0
  0
LINE
  5
215
330
40
100
AcDbEntity
  8
寸法
  6
Continuous
 62
     0
370
    -2
390
1D
100
AcDbLine
 10
-667.0
 20
63.0625
 30
0.0
 11
-667.0
 21
71.0
 31
0.0
  0
LINE
  5
216
330
40
100
AcDbEntity
  8
寸法
  6
Continuous
 62
     0
370
    -2
390
1D
100
AcDbLine
 10
-667.0
 20
87.0
 30
0.0
 11
-667.0
 21
94.9375
 31
0.0
  0
LINE
  5
217
330
40
100
AcDbEntity
  8
寸法
  6
Continuous
 62
     0
370
    -2
390
1D
100
AcDbLine
 10
-667.0
 20
71.0
 30
0.0
 11
-667.0
 21
87.0
 31
0.0
  0
LINE
  5
218
330
40
100
AcDbEntity
  8
寸法
  6
Continuous
 62
     0
370
    20
390
1D
100
AcDbLine
 10
-672.6126600756681
 20
76.6126600756682
 30
0.0
 11
-661.3873399243316
 21
65.3873399243318
 31
0.0
  0
LINE
  5
219
330
40
100
AcDbEntity
  8
寸法
  6
Continuous
 62
     0
370
    20
390
1D
100
AcDbLine
 10
-661.3873399243316
 20
81.3873399243318
 30
0.0
 11
-672.6126600756681
 21
92.6126600756682
 31
0.0
  0
WIPEOUT
  5
21A
330
40
100
AcDbEntity
  8
寸法
  6
Continuous
 62
     0
370
    -2
390
1D
 92
      308
310
3401000002000000A80000000B000000269E158D840886C01EFC4135A1018240000000000000000000000000000000000000000000000000000000000000F03F000000000000F03F0000000000000000000000000000000041634462576970656F757400FFFFFFFF000000000000000000000000000000000000F03F000000
310
0000000000000000000000F03F000000000000000000000000000000000000000074787400424947464F4E542E53485800840000000600000005000000269E158D840886C01EFC4135A10182400000000000000000FFFFFFFF7F1785C01EFC4135A10182400000000000000000FFFFFFFF7F1785C0459A57C2A5F282400000
310
000000000000269E158D840886C0459A57C2A5F282400000000000000000269E158D840886C01EFC4135A10182400000000000000000
100
AcDbWipeout
 90
        0
 10
-705.0647222222221
 20
576.2037148623529
 30
0.0
 11
30.12722222222226
 21
0.0
 31
0.0
 12
0.0
 22
30.12722222222226
 32
0.0
 13
1.0
 23
1.0
340
0
 70
     7
280
     1
281
    50
282
    50
283
     0
360
0
 71
     2
 91
        5
 14
0.5000000000000038
 24
17.42150300260609
 14
0.5000000000000038
 24
16.58543744446961
 14
-0.5
 24
16.58543744446961
 14
-0.5
 24
17.42150300260609
 14
0.5000000000000038
 24
17.42150300260609
  0
MTEXT
  5
21B
330
40
100
AcDbEntity
  8
寸法
 62
     0
390
1D
100
AcDbMText
 10
-697.2560687934026
 20
66.40583356883792
 30
0.0
 40
15.65106879340278
 41
0.0
 71
     1
 72
     1
  1
16
  7
Calibri (bold)
 11
0.0
 21
1.0
 31
0.0
 73
     1
 44
1.159596784673362
  0
POINT
  5
21C
330
40
100
AcDbEntity
  8
Defpoints
 62
     0
370
     0
390
1D
100
AcDbPoint
 10
-551.7623956929658
 20
87.0
 30
0.0
  0
POINT
  5
21D
330
40
100
AcDbEntity
  8
Defpoints
 62
     0
370
     0
390
1D
100
AcDbPoint
 10
-561.0
 20
71.0
 30
0.0
  0
POINT
  5
21E
330
40
100
AcDbEntity
  8
Defpoints
 62
     0
370
     0
390
1D
100
AcDbPoint
 10
-667.0
 20
71.0
 30
0.0
  0
ENDBLK
  5
21F
330
40
100
AcDbEntity
  8
寸法
390
1D
100
AcDbBlockEnd
  0
BLOCK
  5
220
330
41
100
AcDbEntity
  8
寸法
390
1D
100
AcDbBlockBegin
  2
*D31
 70
     1
 71
     0
 10
0.0
 20
0.0
 30
0.0
  3
*D31
  1

  0
LINE
  5
221
330
41
100
AcDbEntity
  8
寸法
  6
STYLE_01
 62
     0
370
    -2
390
1D
100
AcDbLine
 10
-593.9375000000009
 20
71.0
 30
0.0
 11
-624.8749999999995
 21
71.0
 31
0.0
  0
LINE
  5
222
330
41
100
AcDbEntity
  8
寸法
  6
STYLE_01
 62
     0
370
    -2
390
1D
100
AcDbLine
 10
-577.9375000000009
 20
55.0
 30
0.0
 11
-624.8749999999995
 21
55.0
 31
0.0
  0
LINE
  5
223
330
41
100
AcDbEntity
  8
寸法
  6
STYLE_01
 62
     0
370
    -2
390
1D
100
AcDbLine
 10
-608.9999999999995
 20
78.9375
 30
0.0
 11
-608.9999999999995
 21
71.0
 31
0.0
  0
LINE
  5
224
330
41
100
AcDbEntity
  8
寸法
  6
STYLE_01
 62
     0
370
    -2
390
1D
100
AcDbLine
 10
-608.9999999999995
 20
55.0
 30
0.0
 11
-608.9999999999995
 21
47.0625
 31
0.0
  0
LINE
  5
225
330
41
100
AcDbEntity
  8
寸法
  6
STYLE_01
 62
     0
370
    -2
390
1D
100
AcDbLine
 10
-608.9999999999995
 20
71.0
 30
0.0
 11
-608.9999999999995
 21
55.0
 31
0.0
  0
LINE
  5
226
330
41
100
AcDbEntity
  8
寸法
  6
STYLE_01
 62
     0
370
    20
390
1D
100
AcDbLine
 10
-603.3873399243312
 20
65.3873399243318
 30
0.0
 11
-614.6126600756677
 21
76.6126600756682
 31
0.0
  0
LINE
  5
227
330
41
100
AcDbEntity
  8
寸法
  6
STYLE_01
 62
     0
370
    20
390
1D
100
AcDbLine
 10
-614.6126600756677
 20
60.6126600756682
 30
0.0
 11
-603.3873399243312
 21
49.3873399243318
 31
0.0
  0
WIPEOUT
  5
228
330
41
100
AcDbEntity
  8
寸法
  6
STYLE_01
 62
     0
370
    -2
390
1D
 92
      308
310
3401000002000000A80000000B000000229E158D843884C01EFC4135A1818140000000000000000000000000000000000000000000000000000000000000F03F000000000000F03F0000000000000000000000000000000041634462576970656F757400FFFFFFFF000000000000000000000000000000000000F03F000000
310
0000000000000000000000F03F000000000000000000000000000000000000000074787400424947464F4E542E53485800840000000600000005000000229E158D843884C01EFC4135A18181400000000000000000FBFFFFFF7F4783C01EFC4135A18181400000000000000000FBFFFFFF7F4783C0459A57C2A57282400000
310
000000000000229E158D843884C0459A57C2A57282400000000000000000229E158D843884C01EFC4135A18181400000000000000000
100
AcDbWipeout
 90
        0
 10
-647.0647222222217
 20
560.2037148623529
 30
0.0
 11
30.12722222222226
 21
0.0
 31
0.0
 12
0.0
 22
30.12722222222226
 32
0.0
 13
1.0
 23
1.0
340
0
 70
     7
280
     1
281
    50
282
    50
283
     0
360
0
 71
     2
 91
        5
 14
0.5000000000000038
 24
17.42150300260609
 14
0.5000000000000038
 24
16.58543744446961
 14
-0.5
 24
16.58543744446961
 14
-0.5
 24
17.42150300260609
 14
0.5000000000000038
 24
17.42150300260609
  0
MTEXT
  5
229
330
41
100
AcDbEntity
  8
寸法
 62
     0
390
1D
100
AcDbMText
 10
-639.2560687934022
 20
50.40583356883792
 30
0.0
 40
15.65106879340278
 41
0.0
 71
     1
 72
     1
  1
16
  7
Calibri (bold)
 11
0.0
 21
1.0
 31
0.0
 73
     1
 44
1.159596784673362
  0
POINT
  5
22A
330
41
100
AcDbEntity
  8
Defpoints
 62
     0
370
     0
390
1D
100
AcDbPoint
 10
-570.0000000000009
 20
55.0
 30
0.0
  0
POINT
  5
22B
330
41
100
AcDbEntity
  8
Defpoints
 62
     0
370
     0
390
1D
100
AcDbPoint
 10
-586.0000000000009
 20
71.0
 30
0.0
  0
POINT
  5
22C
330
41
100
AcDbEntity
  8
Defpoints
 62
     0
370
     0
390
1D
100
AcDbPoint
 10
-608.9999999999995
 20
71.0
 30
0.0
  0
ENDBLK
  5
22D
330
41
100
AcDbEntity
  8
寸法
390
1D
100
AcDbBlockEnd
  0
BLOCK
  5
22E
330
42
100
AcDbEntity
  8
寸法
390
1D
100
AcDbBlockBegin
  2
*D32
 70
     1
 71
     0
 10
0.0
 20
0.0
 30
0.0
  3
*D32
  1

  0
LINE
  5
22F
330
42
100
AcDbEntity
  8
寸法
  6
STYLE_01
 62
     0
370
    -2
390
1D
100
AcDbLine
 10
-577.9375000000009
 20
-55.0
 30
0.0
 11
-624.8749999999995
 21
-55.0
 31
0.0
  0
LINE
  5
230
330
42
100
AcDbEntity
  8
寸法
  6
STYLE_01
 62
     0
370
    -2
390
1D
100
AcDbLine
 10
-593.9375000000009
 20
-71.0
 30
0.0
 11
-624.8749999999995
 21
-71.0
 31
0.0
  0
LINE
  5
231
330
42
100
AcDbEntity
  8
寸法
  6
STYLE_01
 62
     0
370
    -2
390
1D
100
AcDbLine
 10
-608.9999999999995
 20
-47.0625
 30
0.0
 11
-608.9999999999995
 21
-55.0
 31
0.0
  0
LINE
  5
232
330
42
100
AcDbEntity
  8
寸法
  6
STYLE_01
 62
     0
370
    -2
390
1D
100
AcDbLine
 10
-608.9999999999995
 20
-71.0
 30
0.0
 11
-608.9999999999995
 21
-78.9375
 31
0.0
  0
LINE
  5
233
330
42
100
AcDbEntity
  8
寸法
  6
STYLE_01
 62
     0
370
    -2
390
1D
100
AcDbLine
 10
-608.9999999999995
 20
-55.0
 30
0.0
 11
-608.9999999999995
 21
-71.0
 31
0.0
  0
LINE
  5
234
330
42
100
AcDbEntity
  8
寸法
  6
STYLE_01
 62
     0
370
    20
390
1D
100
AcDbLine
 10
-603.3873399243312
 20
-60.6126600756682
 30
0.0
 11
-614.6126600756677
 21
-49.3873399243318
 31
0.0
  0
LINE
  5
235
330
42
100
AcDbEntity
  8
寸法
  6
STYLE_01
 62
     0
370
    20
390
1D
100
AcDbLine
 10
-614.6126600756677
 20
-65.3873399243318
 30
0.0
 11
-603.3873399243312
 21
-76.6126600756682
 31
0.0
  0
WIPEOUT
  5
236
330
42
100
AcDbEntity
  8
寸法
  6
STYLE_01
 62
     0
370
    -2
390
1D
 92
      308
310
3401000002000000A80000000B000000229E158D843884C03BF8836A42237B40000000000000000000000000000000000000000000000000000000000000F03F000000000000F03F0000000000000000000000000000000041634462576970656F757400FFFFFFFF000000000000000000000000000000000000F03F000000
310
0000000000000000000000F03F000000000000000000000000000000000000000074787400424947464F4E542E53485800840000000600000005000000229E158D843884C03BF8836A42237B400000000000000000FBFFFFFF7F4783C03BF8836A42237B400000000000000000FBFFFFFF7F4783C08934AF844B057D400000
310
000000000000229E158D843884C08934AF844B057D400000000000000000229E158D843884C03BF8836A42237B400000000000000000
100
AcDbWipeout
 90
        0
 10
-647.0647222222217
 20
434.2037148623528
 30
0.0
 11
30.12722222222226
 21
0.0
 31
0.0
 12
0.0
 22
30.12722222222226
 32
0.0
 13
1.0
 23
1.0
340
0
 70
     7
280
     1
281
    50
282
    50
283
     0
360
0
 71
     2
 91
        5
 14
0.5000000000000038
 24
17.42150300260609
 14
0.5000000000000038
 24
16.5854374444696
 14
-0.5
 24
16.5854374444696
 14
-0.5
 24
17.42150300260609
 14
0.5000000000000038
 24
17.42150300260609
  0
MTEXT
  5
237
330
42
100
AcDbEntity
  8
寸法
 62
     0
390
1D
100
AcDbMText
 10
-639.2560687934022
 20
-75.59416643116208
 30
0.0
 40
15.65106879340278
 41
0.0
 71
     1
 72
     1
  1
16
  7
Calibri (bold)
 11
0.0
 21
1.0
 31
0.0
 73
     1
 44
1.159596784673362
  0
POINT
  5
238
330
42
100
AcDbEntity
  8
Defpoints
 62
     0
370
     0
390
1D
100
AcDbPoint
 10
-586.0000000000009
 20
-71.0
 30
0.0
  0
POINT
  5
239
330
42
100
AcDbEntity
  8
Defpoints
 62
     0
370
     0
390
1D
100
AcDbPoint
 10
-570.0000000000009
 20
-55.0
 30
0.0
  0
POINT
  5
23A
330
42
100
AcDbEntity
  8
Defpoints
 62
     0
370
     0
390
1D
100
AcDbPoint
 10
-608.9999999999995
 20
-55.0
 30
0.0
  0
ENDBLK
  5
23B
330
42
100
AcDbEntity
  8
寸法
390
1D
100
AcDbBlockEnd
  0
BLOCK
  5
23C
330
43
100
AcDbEntity
  8
寸法
390
1D
100
AcDbBlockBegin
  2
*D33
 70
     1
 71
     0
 10
0.0
 20
0.0
 30
0.0
  3
*D33
  1

  0
LINE
  5
23D
330
43
100
AcDbEntity
  8
寸法
  6
STYLE_01
 62
     0
370
    -2
390
1D
100
AcDbLine
 10
-586.0000000000064
 20
-183.2785221603672
 30
0.0
 11
-586.0000000000064
 21
-145.3410221603667
 31
0.0
  0
LINE
  5
23E
330
43
100
AcDbEntity
  8
寸法
  6
STYLE_01
 62
     0
370
    -2
390
1D
100
AcDbLine
 10
-526.0000000000064
 20
-189.2785221603672
 30
0.0
 11
-526.0000000000064
 21
-145.3410221603667
 31
0.0
  0
LINE
  5
23F
330
43
100
AcDbEntity
  8
寸法
  6
STYLE_01
 62
     0
370
    -2
390
1D
100
AcDbLine
 10
-593.9375000000064
 20
-161.2160221603667
 30
0.0
 11
-586.0000000000064
 21
-161.2160221603667
 31
0.0
  0
LINE
  5
240
330
43
100
AcDbEntity
  8
寸法
  6
STYLE_01
 62
     0
370
    -2
390
1D
100
AcDbLine
 10
-526.0000000000064
 20
-161.2160221603667
 30
0.0
 11
-518.0625000000064
 21
-161.2160221603667
 31
0.0
  0
LINE
  5
241
330
43
100
AcDbEntity
  8
寸法
  6
STYLE_01
 62
     0
370
    -2
390
1D
100
AcDbLine
 10
-586.0000000000064
 20
-161.2160221603667
 30
0.0
 11
-526.0000000000064
 21
-161.2160221603667
 31
0.0
  0
LINE
  5
242
330
43
100
AcDbEntity
  8
寸法
  6
STYLE_01
 62
     0
370
    20
390
1D
100
AcDbLine
 10
-580.3873399243382
 20
-155.6033620846984
 30
0.0
 11
-591.6126600756747
 21
-166.8286822360349
 31
0.0
  0
LINE
  5
243
330
43
100
AcDbEntity
  8
寸法
  6
STYLE_01
 62
     0
370
    20
390
1D
100
AcDbLine
 10
-531.6126600756747
 20
-166.8286822360349
 30
0.0
 11
-520.3873399243382
 21
-155.6033620846984
 31
0.0
  0
WIPEOUT
  5
244
330
43
100
AcDbEntity
  8
寸法
  6
STYLE_01
 62
     0
370
    -2
390
1D
 92
      308
310
3401000002000000A80000000B000000007254DAC0C481C002BC854B4F487640000000000000000000000000000000000000000000000000000000000000F03F000000000000F03F0000000000000000000000000000000041634462576970656F757400FFFFFFFF000000000000000000000000000000000000F03F000000
310
0000000000000000000000F03F000000000000000000000000000000000000000074787400424947464F4E542E53485800840000000600000005000000007254DAC0C481C002BC854B4F4876400000000000000000D9D33E4DBCD380C002BC854B4F4876400000000000000000D9D33E4DBCD380C050F8B065582A78400000
310
000000000000007254DAC0C481C050F8B065582A78400000000000000000007254DAC0C481C002BC854B4F4876400000000000000000
100
AcDbWipeout
 90
        0
 10
-568.5941664311686
 20
356.5193591331482
 30
0.0
 11
30.12722222222223
 21
0.0
 31
0.0
 12
0.0
 22
30.12722222222223
 32
0.0
 13
1.0
 23
1.0
340
0
 70
     7
280
     1
281
    50
282
    50
283
     0
360
0
 71
     2
 91
        5
 14
-0.5
 24
17.42150300260611
 14
0.3360655581364855
 24
17.42150300260611
 14
0.3360655581364855
 24
16.42150300260611
 14
-0.5
 24
16.42150300260611
 14
-0.5
 24
17.42150300260611
  0
MTEXT
  5
245
330
43
100
AcDbEntity
  8
寸法
 62
     0
390
1D
100
AcDbMText
 10
-568.5941664311686
 20
-130.9599533669638
 30
0.0
 40
15.65106879340278
 41
0.0
 71
     1
 72
     1
  1
60
  7
Calibri (bold)
 73
     1
 44
1.159596784673362
  0
POINT
  5
246
330
43
100
AcDbEntity
  8
Defpoints
 62
     0
370
     0
390
1D
100
AcDbPoint
 10
-526.0000000000064
 20
-197.2160221603672
 30
0.0
  0
POINT
  5
247
330
43
100
AcDbEntity
  8
Defpoints
 62
     0
370
     0
390
1D
100
AcDbPoint
 10
-586.0000000000064
 20
-191.2160221603672
 30
0.0
  0
POINT
  5
248
330
43
100
AcDbEntity
  8
Defpoints
 62
     0
370
     0
390
1D
100
AcDbPoint
 10
-586.0000000000064
 20
-161.2160221603667
 30
0.0
  0
ENDBLK
  5
249
330
43
100
AcDbEntity
  8
寸法
390
1D
100
AcDbBlockEnd
  0
BLOCK
  5
24A
330
44
100
AcDbEntity
  8
寸法
390
1D
100
AcDbBlockBegin
  2
*D34
 70
     1
 71
     0
 10
0.0
 20
0.0
 30
0.0
  3
*D34
  1

  0
LINE
  5
24B
330
44
100
AcDbEntity
  8
寸法
  6
STYLE_01
 62
     0
370
    -2
390
1D
100
AcDbLine
 10
-60.00000000000642
 20
-189.2785221603672
 30
0.0
 11
-60.00000000000642
 21
-145.3410221603667
 31
0.0
  0
LINE
  5
24C
330
44
100
AcDbEntity
  8
寸法
  6
STYLE_01
 62
     0
370
    -2
390
1D
100
AcDbLine
 10
-0.0000000000055707
 20
-183.2785221603672
 30
0.0
 11
-0.0000000000055707
 21
-145.3410221603667
 31
0.0
  0
LINE
  5
24D
330
44
100
AcDbEntity
  8
寸法
  6
STYLE_01
 62
     0
370
    -2
390
1D
100
AcDbLine
 10
-67.93750000000642
 20
-161.2160221603667
 30
0.0
 11
-60.00000000000642
 21
-161.2160221603667
 31
0.0
  0
LINE
  5
24E
330
44
100
AcDbEntity
  8
寸法
  6
STYLE_01
 62
     0
370
    -2
390
1D
100
AcDbLine
 10
-0.0000000000055707
 20
-161.2160221603667
 30
0.0
 11
7.937499999994429
 21
-161.2160221603667
 31
0.0
  0
LINE
  5
24F
330
44
100
AcDbEntity
  8
寸法
  6
STYLE_01
 62
     0
370
    -2
390
1D
100
AcDbLine
 10
-60.00000000000642
 20
-161.2160221603667
 30
0.0
 11
-0.0000000000055707
 21
-161.2160221603667
 31
0.0
  0
LINE
  5
250
330
44
100
AcDbEntity
  8
寸法
  6
STYLE_01
 62
     0
370
    20
390
1D
100
AcDbLine
 10
-54.38733992433819
 20
-155.6033620846984
 30
0.0
 11
-65.61266007567465
 21
-166.8286822360349
 31
0.0
  0
LINE
  5
251
330
44
100
AcDbEntity
  8
寸法
  6
STYLE_01
 62
     0
370
    20
390
1D
100
AcDbLine
 10
-5.612660075673801
 20
-166.8286822360349
 30
0.0
 11
5.61266007566266
 21
-155.6033620846984
 31
0.0
  0
WIPEOUT
  5
252
330
44
100
AcDbEntity
  8
寸法
  6
STYLE_01
 62
     0
370
    -2
390
1D
 92
      308
310
3401000002000000A80000000B000000BC1F47A50D4C45C002BC854B4F487640000000000000000000000000000000000000000000000000000000000000F03F000000000000F03F0000000000000000000000000000000041634462576970656F757400FFFFFFFF000000000000000000000000000000000000F03F000000
310
0000000000000000000000F03F000000000000000000000000000000000000000074787400424947464F4E542E53485800840000000600000005000000BC1F47A50D4C45C002BC854B4F487640000000000000000040F5B44F13EF28C002BC854B4F487640000000000000000040F5B44F13EF28C050F8B065582A78400000
310
000000000000BC1F47A50D4C45C050F8B065582A78400000000000000000BC1F47A50D4C45C002BC854B4F4876400000000000000000
100
AcDbWipeout
 90
        0
 10
-42.59416643116808
 20
356.5193591331482
 30
0.0
 11
30.12722222222223
 21
0.0
 31
0.0
 12
0.0
 22
30.12722222222223
 32
0.0
 13
1.0
 23
1.0
340
0
 70
     7
280
     1
281
    50
282
    50
283
     0
360
0
 71
     2
 91
        5
 14
-0.5
 24
17.42150300260611
 14
0.3360655581364865
 24
17.42150300260611
 14
0.3360655581364865
 24
16.42150300260611
 14
-0.5
 24
16.42150300260611
 14
-0.5
 24
17.42150300260611
  0
MTEXT
  5
253
330
44
100
AcDbEntity
  8
寸法
 62
     0
390
1D
100
AcDbMText
 10
-42.59416643116808
 20
-130.9599533669638
 30
0.0
 40
15.65106879340278
 41
0.0
 71
     1
 72
     1
  1
60
  7
Calibri (bold)
 73
     1
 44
1.159596784673362
  0
POINT
  5
254
330
44
100
AcDbEntity
  8
Defpoints
 62
     0
370
     0
390
1D
100
AcDbPoint
 10
-0.0000000000055707
 20
-191.2160221603672
 30
0.0
  0
POINT
  5
255
330
44
100
AcDbEntity
  8
Defpoints
 62
     0
370
     0
390
1D
100
AcDbPoint
 10
-60.00000000000642
 20
-197.2160221603672
 30
0.0
  0
POINT
  5
256
330
44
100
AcDbEntity
  8
Defpoints
 62
     0
370
     0
390
1D
100
AcDbPoint
 10
-60.00000000000642
 20
-161.2160221603667
 30
0.0
  0
ENDBLK
  5
257
330
44
100
AcDbEntity
  8
寸法
390
1D
100
AcDbBlockEnd
  0
BLOCK
  5
258
330
45
100
AcDbEntity
  8
寸法
390
1D
100
AcDbBlockBegin
  2
*D35
 70
     1
 71
     0
 10
0.0
 20
0.0
 30
0.0
  3
*D35
  1

  0
LINE
  5
259
330
45
100
AcDbEntity
  8
寸法
  6
STYLE_01
 62
     0
370
    -2
390
1D
100
AcDbLine
 10
260.7003914987808
 20
-183.2785221603667
 30
0.0
 11
260.7003914987808
 21
-125.3410221603667
 31
0.0
  0
LINE
  5
25A
330
45
100
AcDbEntity
  8
寸法
  6
STYLE_01
 62
     0
370
    -2
390
1D
100
AcDbLine
 10
295.7003914987808
 20
-189.2785221603667
 30
0.0
 11
295.7003914987808
 21
-125.3410221603667
 31
0.0
  0
LINE
  5
25B
330
45
100
AcDbEntity
  8
寸法
  6
STYLE_01
 62
     0
370
    -2
390
1D
100
AcDbLine
 10
252.7628914987808
 20
-141.2160221603667
 30
0.0
 11
260.7003914987808
 21
-141.2160221603667
 31
0.0
  0
LINE
  5
25C
330
45
100
AcDbEntity
  8
寸法
  6
STYLE_01
 62
     0
370
    -2
390
1D
100
AcDbLine
 10
295.7003914987808
 20
-141.2160221603667
 30
0.0
 11
303.6378914987808
 21
-141.2160221603667
 31
0.0
  0
LINE
  5
25D
330
45
100
AcDbEntity
  8
寸法
  6
STYLE_01
 62
     0
370
    -2
390
1D
100
AcDbLine
 10
260.7003914987808
 20
-141.2160221603667
 30
0.0
 11
295.7003914987808
 21
-141.2160221603667
 31
0.0
  0
LINE
  5
25E
330
45
100
AcDbEntity
  8
寸法
  6
STYLE_01
 62
     0
370
    20
390
1D
100
AcDbLine
 10
266.3130515744491
 20
-135.6033620846984
 30
0.0
 11
255.0877314231126
 21
-146.8286822360349
 31
0.0
  0
LINE
  5
25F
330
45
100
AcDbEntity
  8
寸法
  6
STYLE_01
 62
     0
370
    20
390
1D
100
AcDbLine
 10
290.0877314231126
 20
-146.8286822360349
 30
0.0
 11
301.3130515744491
 21
-135.6033620846984
 31
0.0
  0
WIPEOUT
  5
260
330
45
100
AcDbEntity
  8
寸法
  6
STYLE_01
 62
     0
370
    -2
390
1D
 92
      308
310
3401000002000000A80000000B00000002770E19B399704002BC854B4F887740000000000000000000000000000000000000000000000000000000000000F03F000000000000F03F0000000000000000000000000000000041634462576970656F757400FFFFFFFF000000000000000000000000000000000000F03F000000
310
0000000000000000000000F03F000000000000000000000000000000000000000074787400424947464F4E542E5348580084000000060000000500000002770E19B399704002BC854B4F887740000000000000000050B33933BC7B724002BC854B4F887740000000000000000050B33933BC7B724050F8B065586A79400000
310
00000000000002770E19B399704050F8B065586A7940000000000000000002770E19B399704002BC854B4F8877400000000000000000
100
AcDbWipeout
 90
        0
 10
265.6062250676188
 20
376.5193591331482
 30
0.0
 11
30.12722222222223
 21
0.0
 31
0.0
 12
0.0
 22
30.12722222222223
 32
0.0
 13
1.0
 23
1.0
340
0
 70
     7
280
     1
281
    50
282
    50
283
     0
360
0
 71
     2
 91
        5
 14
-0.5
 24
17.42150300260611
 14
0.3360655581364855
 24
17.42150300260611
 14
0.3360655581364855
 24
16.42150300260611
 14
-0.5
 24
16.42150300260611
 14
-0.5
 24
17.42150300260611
  0
MTEXT
  5
261
330
45
100
AcDbEntity
  8
寸法
 62
     0
390
1D
100
AcDbMText
 10
265.6062250676188
 20
-110.9599533669638
 30
0.0
 40
15.65106879340278
 41
0.0
 71
     1
 72
     1
  1
35
  7
Calibri (bold)
 73
     1
 44
1.159596784673362
  0
POINT
  5
262
330
45
100
AcDbEntity
  8
Defpoints
 62
     0
370
     0
390
1D
100
AcDbPoint
 10
295.7003914987808
 20
-197.2160221603667
 30
0.0
  0
POINT
  5
263
330
45
100
AcDbEntity
  8
Defpoints
 62
     0
370
     0
390
1D
100
AcDbPoint
 10
260.7003914987808
 20
-191.2160221603667
 30
0.0
  0
POINT
  5
264
330
45
100
AcDbEntity
  8
Defpoints
 62
     0
370
     0
390
1D
100
AcDbPoint
 10
260.7003914987808
 20
-141.2160221603667
 30
0.0
  0
ENDBLK
  5
265
330
45
100
AcDbEntity
  8
寸法
390
1D
100
AcDbBlockEnd
  0
BLOCK
  5
266
330
46
100
AcDbEntity
  8
寸法
390
1D
100
AcDbBlockBegin
  2
*D36
 70
     1
 71
     0
 10
0.0
 20
0.0
 30
0.0
  3
*D36
  1

  0
LINE
  5
267
330
46
100
AcDbEntity
  8
寸法
  6
STYLE_01
 62
     0
370
    -2
390
1D
100
AcDbLine
 10
402.7003914987809
 20
-183.2785221603667
 30
0.0
 11
402.7003914987809
 21
-125.3410221603667
 31
0.0
  0
LINE
  5
268
330
46
100
AcDbEntity
  8
寸法
  6
STYLE_01
 62
     0
370
    -2
390
1D
100
AcDbLine
 10
367.7003914987809
 20
-189.2785221603673
 30
0.0
 11
367.7003914987809
 21
-125.3410221603667
 31
0.0
  0
LINE
  5
269
330
46
100
AcDbEntity
  8
寸法
  6
STYLE_01
 62
     0
370
    -2
390
1D
100
AcDbLine
 10
410.6378914987809
 20
-141.2160221603667
 30
0.0
 11
402.7003914987809
 21
-141.2160221603667
 31
0.0
  0
LINE
  5
26A
330
46
100
AcDbEntity
  8
寸法
  6
STYLE_01
 62
     0
370
    -2
390
1D
100
AcDbLine
 10
367.7003914987809
 20
-141.2160221603667
 30
0.0
 11
359.7628914987809
 21
-141.2160221603667
 31
0.0
  0
LINE
  5
26B
330
46
100
AcDbEntity
  8
寸法
  6
STYLE_01
 62
     0
370
    -2
390
1D
100
AcDbLine
 10
402.7003914987809
 20
-141.2160221603667
 30
0.0
 11
367.7003914987809
 21
-141.2160221603667
 31
0.0
  0
LINE
  5
26C
330
46
100
AcDbEntity
  8
寸法
  6
STYLE_01
 62
     0
370
    20
390
1D
100
AcDbLine
 10
397.0877314231127
 20
-146.8286822360349
 30
0.0
 11
408.3130515744491
 21
-135.6033620846984
 31
0.0
  0
LINE
  5
26D
330
46
100
AcDbEntity
  8
寸法
  6
STYLE_01
 62
     0
370
    20
390
1D
100
AcDbLine
 10
373.3130515744491
 20
-135.6033620846984
 30
0.0
 11
362.0877314231127
 21
-146.8286822360349
 31
0.0
  0
WIPEOUT
  5
26E
330
46
100
AcDbEntity
  8
寸法
  6
STYLE_01
 62
     0
370
    -2
390
1D
 92
      308
310
3401000002000000A80000000B00000003770E19B349774002BC854B4F887740000000000000000000000000000000000000000000000000000000000000F03F000000000000F03F0000000000000000000000000000000041634462576970656F757400FFFFFFFF000000000000000000000000000000000000F03F000000
310
0000000000000000000000F03F000000000000000000000000000000000000000074787400424947464F4E542E5348580084000000060000000500000003770E19B349774002BC854B4F887740000000000000000050B33933BC2B794002BC854B4F887740000000000000000050B33933BC2B794050F8B065586A79400000
310
00000000000003770E19B349774050F8B065586A7940000000000000000003770E19B349774002BC854B4F8877400000000000000000
100
AcDbWipeout
 90
        0
 10
372.6062250676188
 20
376.5193591331482
 30
0.0
 11
30.12722222222223
 21
0.0
 31
0.0
 12
0.0
 22
30.12722222222223
 32
0.0
 13
1.0
 23
1.0
340
0
 70
     7
280
     1
281
    50
282
    50
283
     0
360
0
 71
     2
 91
        5
 14
-0.5
 24
17.42150300260611
 14
0.3360655581364874
 24
17.42150300260611
 14
0.3360655581364874
 24
16.42150300260611
 14
-0.5
 24
16.42150300260611
 14
-0.5
 24
17.42150300260611
  0
MTEXT
  5
26F
330
46
100
AcDbEntity
  8
寸法
 62
     0
390
1D
100
AcDbMText
 10
372.6062250676188
 20
-110.9599533669638
 30
0.0
 40
15.65106879340278
 41
0.0
 71
     1
 72
     1
  1
35
  7
Calibri (bold)
 73
     1
 44
1.159596784673362
  0
POINT
  5
270
330
46
100
AcDbEntity
  8
Defpoints
 62
     0
370
     0
390
1D
100
AcDbPoint
 10
367.7003914987809
 20
-197.2160221603673
 30
0.0
  0
POINT
  5
271
330
46
100
AcDbEntity
  8
Defpoints
 62
     0
370
     0
390
1D
100
AcDbPoint
 10
402.7003914987809
 20
-191.2160221603667
 30
0.0
  0
POINT
  5
272
330
46
100
AcDbEntity
  8
Defpoints
 62
     0
370
     0
390
1D
100
AcDbPoint
 10
402.7003914987809
 20
-141.2160221603667
 30
0.0
  0
ENDBLK
  5
273
330
46
100
AcDbEntity
  8
寸法
390
1D
100
AcDbBlockEnd
  0
BLOCK
  5
274
330
47
100
AcDbEntity
  8
寸法
390
1D
100
AcDbBlockBegin
  2
*D37
 70
     1
 71
     0
 10
0.0
 20
0.0
 30
0.0
  3
*D37
  1

  0
LINE
  5
275
330
47
100
AcDbEntity
  8
寸法
  6
STYLE_01
 62
     0
370
    -2
390
1D
100
AcDbLine
 10
295.7003914987808
 20
-189.2785221603667
 30
0.0
 11
295.7003914987808
 21
-125.3410221603667
 31
0.0
  0
LINE
  5
276
330
47
100
AcDbEntity
  8
寸法
  6
STYLE_01
 62
     0
370
    -2
390
1D
100
AcDbLine
 10
367.7003914987809
 20
-189.2785221603673
 30
0.0
 11
367.7003914987809
 21
-125.3410221603667
 31
0.0
  0
LINE
  5
277
330
47
100
AcDbEntity
  8
寸法
  6
STYLE_01
 62
     0
370
    -2
390
1D
100
AcDbLine
 10
287.7628914987808
 20
-141.2160221603667
 30
0.0
 11
295.7003914987808
 21
-141.2160221603667
 31
0.0
  0
LINE
  5
278
330
47
100
AcDbEntity
  8
寸法
  6
STYLE_01
 62
     0
370
    -2
390
1D
100
AcDbLine
 10
367.7003914987809
 20
-141.2160221603667
 30
0.0
 11
375.6378914987809
 21
-141.2160221603667
 31
0.0
  0
LINE
  5
279
330
47
100
AcDbEntity
  8
寸法
  6
STYLE_01
 62
     0
370
    -2
390
1D
100
AcDbLine
 10
295.7003914987808
 20
-141.2160221603667
 30
0.0
 11
367.7003914987809
 21
-141.2160221603667
 31
0.0
  0
LINE
  5
27A
330
47
100
AcDbEntity
  8
寸法
  6
STYLE_01
 62
     0
370
    20
390
1D
100
AcDbLine
 10
301.3130515744491
 20
-135.6033620846984
 30
0.0
 11
290.0877314231126
 21
-146.8286822360349
 31
0.0
  0
LINE
  5
27B
330
47
100
AcDbEntity
  8
寸法
  6
STYLE_01
 62
     0
370
    20
390
1D
100
AcDbLine
 10
362.0877314231127
 20
-146.8286822360349
 30
0.0
 11
373.3130515744491
 21
-135.6033620846984
 31
0.0
  0
WIPEOUT
  5
27C
330
47
100
AcDbEntity
  8
寸法
  6
STYLE_01
 62
     0
370
    -2
390
1D
 92
      308
310
3401000002000000A80000000B00000002770E19B3F1734002BC854B4F887740000000000000000000000000000000000000000000000000000000000000F03F000000000000F03F0000000000000000000000000000000041634462576970656F757400FFFFFFFF000000000000000000000000000000000000F03F000000
310
0000000000000000000000F03F000000000000000000000000000000000000000074787400424947464F4E542E5348580084000000060000000500000002770E19B3F1734002BC854B4F887740000000000000000050B33933BCD3754002BC854B4F887740000000000000000050B33933BCD3754050F8B065586A79400000
310
00000000000002770E19B3F1734050F8B065586A7940000000000000000002770E19B3F1734002BC854B4F8877400000000000000000
100
AcDbWipeout
 90
        0
 10
319.1062250676188
 20
376.5193591331482
 30
0.0
 11
30.12722222222223
 21
0.0
 31
0.0
 12
0.0
 22
30.12722222222223
 32
0.0
 13
1.0
 23
1.0
340
0
 70
     7
280
     1
281
    50
282
    50
283
     0
360
0
 71
     2
 91
        5
 14
-0.5
 24
17.42150300260611
 14
0.3360655581364874
 24
17.42150300260611
 14
0.3360655581364874
 24
16.42150300260611
 14
-0.5
 24
16.42150300260611
 14
-0.5
 24
17.42150300260611
  0
MTEXT
  5
27D
330
47
100
AcDbEntity
  8
寸法
 62
     0
390
1D
100
AcDbMText
 10
319.1062250676188
 20
-110.9599533669638
 30
0.0
 40
15.65106879340278
 41
0.0
 71
     1
 72
     1
  1
72
  7
Calibri (bold)
 73
     1
 44
1.159596784673362
  0
POINT
  5
27E
330
47
100
AcDbEntity
  8
Defpoints
 62
     0
370
     0
390
1D
100
AcDbPoint
 10
367.7003914987809
 20
-197.2160221603673
 30
0.0
  0
POINT
  5
27F
330
47
100
AcDbEntity
  8
Defpoints
 62
     0
370
     0
390
1D
100
AcDbPoint
 10
295.7003914987808
 20
-197.2160221603667
 30
0.0
  0
POINT
  5
280
330
47
100
AcDbEntity
  8
Defpoints
 62
     0
370
     0
390
1D
100
AcDbPoint
 10
295.7003914987808
 20
-141.2160221603667
 30
0.0
  0
ENDBLK
  5
281
330
47
100
AcDbEntity
  8
寸法
390
1D
100
AcDbBlockEnd
  0
BLOCK
  5
282
330
48
100
AcDbEntity
  8
寸法
390
1D
100
AcDbBlockBegin
  2
*D38
 70
     1
 71
     0
 10
0.0
 20
0.0
 30
0.0
  3
*D38
  1

  0
LINE
  5
283
330
48
100
AcDbEntity
  8
寸法
  6
STYLE_01
 62
     0
370
    -2
390
1D
100
AcDbLine
 10
-561.0
 20
94.9375
 30
0.0
 11
-561.0
 21
179.875
 31
0.0
  0
LINE
  5
284
330
48
100
AcDbEntity
  8
寸法
  6
STYLE_01
 62
     0
370
    -2
390
1D
100
AcDbLine
 10
-160.9999999999998
 20
94.9375
 30
0.0
 11
-160.9999999999998
 21
179.875
 31
0.0
  0
LINE
  5
285
330
48
100
AcDbEntity
  8
寸法
  6
STYLE_01
 62
     0
370
    -2
390
1D
100
AcDbLine
 10
-568.9375
 20
164.0
 30
0.0
 11
-561.0
 21
164.0
 31
0.0
  0
LINE
  5
286
330
48
100
AcDbEntity
  8
寸法
  6
STYLE_01
 62
     0
370
    -2
390
1D
100
AcDbLine
 10
-160.9999999999998
 20
164.0
 30
0.0
 11
-153.0624999999998
 21
164.0
 31
0.0
  0
LINE
  5
287
330
48
100
AcDbEntity
  8
寸法
  6
STYLE_01
 62
     0
370
    -2
390
1D
100
AcDbLine
 10
-561.0
 20
164.0
 30
0.0
 11
-160.9999999999998
 21
164.0
 31
0.0
  0
LINE
  5
288
330
48
100
AcDbEntity
  8
寸法
  6
STYLE_01
 62
     0
370
    20
390
1D
100
AcDbLine
 10
-555.3873399243316
 20
169.6126600756683
 30
0.0
 11
-566.6126600756681
 21
158.3873399243318
 31
0.0
  0
LINE
  5
289
330
48
100
AcDbEntity
  8
寸法
  6
STYLE_01
 62
     0
370
    20
390
1D
100
AcDbLine
 10
-166.612660075668
 20
158.3873399243318
 30
0.0
 11
-155.3873399243316
 21
169.6126600756683
 31
0.0
  0
WIPEOUT
  5
28A
330
48
100
AcDbEntity
  8
寸法
  6
STYLE_01
 62
     0
370
    -2
390
1D
 92
      308
310
3401000002000000A80000000B000000E3386E8F42BE77C0E46D960FE24D8540000000000000000000000000000000000000000000000000000000000000F03F000000000000F03F0000000000000000000000000000000041634462576970656F757400FFFFFFFF000000000000000000000000000000000000F03F000000
310
0000000000000000000000F03F000000000000000000000000000000000000000074787400424947464F4E542E53485800840000000600000005000000E3386E8F42BE77C0E46D960FE24D854000000000000000001CC79170BD6175C0E46D960FE24D854000000000000000001CC79170BD6175C0C8A6049F247C86400000
310
000000000000E3386E8F42BE77C0C8A6049F247C86400000000000000000E3386E8F42BE77C0E46D960FE24D85400000000000000000
100
AcDbWipeout
 90
        0
 10
-379.891250067287
 20
681.7353812935148
 30
0.0
 11
37.78250013457404
 21
0.0
 31
0.0
 12
0.0
 22
37.78250013457404
 32
0.0
 13
1.0
 23
1.0
340
0
 70
     7
280
     1
281
    50
282
    50
283
     0
360
0
 71
     2
 91
        5
 14
-0.5
 24
13.99296313048931
 14
0.5
 24
13.99296313048931
 14
0.5
 24
13.19557751241441
 14
-0.5
 24
13.19557751241441
 14
-0.5
 24
13.99296313048931
  0
MTEXT
  5
28B
330
48
100
AcDbEntity
  8
寸法
 62
     0
390
1D
100
AcDbMText
 10
-379.891250067287
 20
194.2560687934028
 30
0.0
 40
15.65106879340278
 41
0.0
 71
     1
 72
     1
  1
400
  7
Calibri (bold)
 73
     1
 44
1.159596784673362
  0
POINT
  5
28C
330
48
100
AcDbEntity
  8
Defpoints
 62
     0
370
     0
390
1D
100
AcDbPoint
 10
-160.9999999999998
 20
87.0
 30
0.0
  0
POINT
  5
28D
330
48
100
AcDbEntity
  8
Defpoints
 62
     0
370
     0
390
1D
100
AcDbPoint
 10
-561.0
 20
87.0
 30
0.0
  0
POINT
  5
28E
330
48
100
AcDbEntity
  8
Defpoints
 62
     0
370
     0
390
1D
100
AcDbPoint
 10
-561.0
 20
164.0
 30
0.0
  0
ENDBLK
  5
28F
330
48
100
AcDbEntity
  8
寸法
390
1D
100
AcDbBlockEnd
  0
BLOCK
  5
290
330
49
100
AcDbEntity
  8
寸法
390
1D
100
AcDbBlockBegin
  2
*D39
 70
     1
 71
     0
 10
0.0
 20
0.0
 30
0.0
  3
*D39
  1

  0
LINE
  5
291
330
49
100
AcDbEntity
  8
寸法
  6
STYLE_01
 62
     0
370
    -2
390
1D
100
AcDbLine
 10
-593.9375000000064
 20
-591.216022160366
 30
0.0
 11
-690.8750000000064
 21
-591.216022160366
 31
0.0
  0
LINE
  5
292
330
49
100
AcDbEntity
  8
寸法
  6
STYLE_01
 62
     0
370
    -2
390
1D
100
AcDbLine
 10
-213.9374999999999
 20
-691.216022160366
 30
0.0
 11
-690.8750000000064
 21
-691.216022160366
 31
0.0
  0
LINE
  5
293
330
49
100
AcDbEntity
  8
寸法
  6
STYLE_01
 62
     0
370
    -2
390
1D
100
AcDbLine
 10
-675.0000000000064
 20
-583.278522160366
 30
0.0
 11
-675.0000000000064
 21
-591.216022160366
 31
0.0
  0
LINE
  5
294
330
49
100
AcDbEntity
  8
寸法
  6
STYLE_01
 62
     0
370
    -2
390
1D
100
AcDbLine
 10
-675.0000000000064
 20
-691.216022160366
 30
0.0
 11
-675.0000000000064
 21
-699.153522160366
 31
0.0
  0
LINE
  5
295
330
49
100
AcDbEntity
  8
寸法
  6
STYLE_01
 62
     0
370
    -2
390
1D
100
AcDbLine
 10
-675.0000000000064
 20
-591.216022160366
 30
0.0
 11
-675.0000000000064
 21
-691.216022160366
 31
0.0
  0
LINE
  5
296
330
49
100
AcDbEntity
  8
寸法
  6
STYLE_01
 62
     0
370
    20
390
1D
100
AcDbLine
 10
-669.3873399243382
 20
-596.8286822360343
 30
0.0
 11
-680.6126600756747
 21
-585.6033620846979
 31
0.0
  0
LINE
  5
297
330
49
100
AcDbEntity
  8
寸法
  6
STYLE_01
 62
     0
370
    20
390
1D
100
AcDbLine
 10
-680.6126600756747
 20
-685.6033620846979
 30
0.0
 11
-669.3873399243382
 21
-696.8286822360343
 31
0.0
  0
WIPEOUT
  5
298
330
49
100
AcDbEntity
  8
寸法
  6
STYLE_01
 62
     0
370
    -2
390
1D
 92
      308
310
3401000002000000A80000000B000000609E158D844886C0B0F9D087E6C962C0000000000000000000000000000000000000000000000000000000000000F03F000000000000F03F0000000000000000000000000000000041634462576970656F757400FFFFFFFF000000000000000000000000000000000000F03F000000
310
0000000000000000000000F03F000000000000000000000000000000000000000074787400424947464F4E542E53485800840000000600000005000000609E158D844886C0B0F9D087E6C962C000000000000000007C65A7FD411A85C0B0F9D087E6C962C000000000000000007C65A7FD411A85C0442C3094B8215CC00000
310
000000000000609E158D844886C0442C3094B8215CC00000000000000000609E158D844886C0B0F9D087E6C962C00000000000000000
100
AcDbWipeout
 90
        0
 10
-713.0647222222287
 20
-150.3093909341383
 30
0.0
 11
37.78250013457404
 21
0.0
 31
0.0
 12
0.0
 22
37.78250013457404
 32
0.0
 13
1.0
 23
1.0
340
0
 70
     7
280
     1
281
    50
282
    50
283
     0
360
0
 71
     2
 91
        5
 14
0.2973856180749016
 24
13.99296313048931
 14
0.2973856180749016
 24
12.99296313048931
 14
-0.5
 24
12.99296313048931
 14
-0.5
 24
13.99296313048931
 14
0.2973856180749016
 24
13.99296313048931
  0
MTEXT
  5
299
330
49
100
AcDbEntity
  8
寸法
 62
     0
390
1D
100
AcDbMText
 10
-705.2560687934092
 20
-660.1072722276531
 30
0.0
 40
15.65106879340278
 41
0.0
 71
     1
 72
     1
  1
100
  7
Calibri (bold)
 11
0.0
 21
1.0
 31
0.0
 73
     1
 44
1.159596784673362
  0
POINT
  5
29A
330
49
100
AcDbEntity
  8
Defpoints
 62
     0
370
     0
390
1D
100
AcDbPoint
 10
-205.9999999999999
 20
-691.216022160366
 30
0.0
  0
POINT
  5
29B
330
49
100
AcDbEntity
  8
Defpoints
 62
     0
370
     0
390
1D
100
AcDbPoint
 10
-586.0000000000064
 20
-591.216022160366
 30
0.0
  0
POINT
  5
29C
330
49
100
AcDbEntity
  8
Defpoints
 62
     0
370
     0
390
1D
100
AcDbPoint
 10
-675.0000000000064
 20
-591.216022160366
 30
0.0
  0
ENDBLK
  5
29D
330
49
100
AcDbEntity
  8
寸法
390
1D
100
AcDbBlockEnd
  0
BLOCK
  5
29E
330
4A
100
AcDbEntity
  8
寸法
390
1D
100
AcDbBlockBegin
  2
*D40
 70
     1
 71
     0
 10
0.0
 20
0.0
 30
0.0
  3
*D40
  1

  0
LINE
  5
29F
330
4A
100
AcDbEntity
  8
寸法
  6
STYLE_01
 62
     0
370
    -2
390
1D
100
AcDbLine
 10
-586.0000000000064
 20
-183.2785221603672
 30
0.0
 11
-586.0000000000064
 21
-107.3410221603667
 31
0.0
  0
LINE
  5
2A0
330
4A
100
AcDbEntity
  8
寸法
  6
STYLE_01
 62
     0
370
    -2
390
1D
100
AcDbLine
 10
-360.9999999999995
 20
-183.2785221603672
 30
0.0
 11
-360.9999999999995
 21
-107.3410221603667
 31
0.0
  0
LINE
  5
2A1
330
4A
100
AcDbEntity
  8
寸法
  6
STYLE_01
 62
     0
370
    -2
390
1D
100
AcDbLine
 10
-593.9375000000064
 20
-123.2160221603667
 30
0.0
 11
-586.0000000000064
 21
-123.2160221603667
 31
0.0
  0
LINE
  5
2A2
330
4A
100
AcDbEntity
  8
寸法
  6
STYLE_01
 62
     0
370
    -2
390
1D
100
AcDbLine
 10
-360.9999999999995
 20
-123.2160221603667
 30
0.0
 11
-353.0624999999995
 21
-123.2160221603667
 31
0.0
  0
LINE
  5
2A3
330
4A
100
AcDbEntity
  8
寸法
  6
STYLE_01
 62
     0
370
    -2
390
1D
100
AcDbLine
 10
-586.0000000000064
 20
-123.2160221603667
 30
0.0
 11
-360.9999999999995
 21
-123.2160221603667
 31
0.0
  0
LINE
  5
2A4
330
4A
100
AcDbEntity
  8
寸法
  6
STYLE_01
 62
     0
370
    20
390
1D
100
AcDbLine
 10
-580.3873399243382
 20
-117.6033620846984
 30
0.0
 11
-591.6126600756747
 21
-128.8286822360349
 31
0.0
  0
LINE
  5
2A5
330
4A
100
AcDbEntity
  8
寸法
  6
STYLE_01
 62
     0
370
    20
390
1D
100
AcDbLine
 10
-366.6126600756677
 20
-128.8286822360349
 30
0.0
 11
-355.3873399243313
 21
-117.6033620846984
 31
0.0
  0
WIPEOUT
  5
2A6
330
4A
100
AcDbEntity
  8
寸法
  6
STYLE_01
 62
     0
370
    -2
390
1D
 92
      308
310
3401000002000000A80000000B00000017396E8F42C67EC002BC854B4FA87840000000000000000000000000000000000000000000000000000000000000F03F000000000000F03F0000000000000000000000000000000041634462576970656F757400FFFFFFFF000000000000000000000000000000000000F03F000000
310
0000000000000000000000F03F000000000000000000000000000000000000000074787400424947464F4E542E5348580084000000060000000500000017396E8F42C67EC002BC854B4FA8784000000000000000004FC79170BD697CC002BC854B4FA8784000000000000000004FC79170BD697CC0CA2D626AD4047B400000
310
00000000000017396E8F42C67EC0CA2D626AD4047B40000000000000000017396E8F42C67EC002BC854B4FA878400000000000000000
100
AcDbWipeout
 90
        0
 10
-492.3912500672899
 20
394.5193591331482
 30
0.0
 11
37.78250013457409
 21
0.0
 31
0.0
 12
0.0
 22
37.78250013457409
 32
0.0
 13
1.0
 23
1.0
340
0
 70
     7
280
     1
281
    50
282
    50
283
     0
360
0
 71
     2
 91
        5
 14
-0.5
 24
13.99296313048929
 14
0.5
 24
13.99296313048929
 14
0.5
 24
13.19557751241439
 14
-0.5
 24
13.19557751241439
 14
-0.5
 24
13.99296313048929
  0
MTEXT
  5
2A7
330
4A
100
AcDbEntity
  8
寸法
 62
     0
390
1D
100
AcDbMText
 10
-492.3912500672899
 20
-92.95995336696387
 30
0.0
 40
15.65106879340278
 41
0.0
 71
     1
 72
     1
  1
225
  7
Calibri (bold)
 73
     1
 44
1.159596784673362
  0
POINT
  5
2A8
330
4A
100
AcDbEntity
  8
Defpoints
 62
     0
370
     0
390
1D
100
AcDbPoint
 10
-360.9999999999995
 20
-191.2160221603672
 30
0.0
  0
POINT
  5
2A9
330
4A
100
AcDbEntity
  8
Defpoints
 62
     0
370
     0
390
1D
100
AcDbPoint
 10
-586.0000000000064
 20
-191.2160221603672
 30
0.0
  0
POINT
  5
2AA
330
4A
100
AcDbEntity
  8
Defpoints
 62
     0
370
     0
390
1D
100
AcDbPoint
 10
-586.0000000000064
 20
-123.2160221603667
 30
0.0
  0
ENDBLK
  5
2AB
330
4A
100
AcDbEntity
  8
寸法
390
1D
100
AcDbBlockEnd
  0
BLOCK
  5
2AC
330
4B
100
AcDbEntity
  8
寸法
390
1D
100
AcDbBlockBegin
  2
*D41
 70
     1
 71
     0
 10
0.0
 20
0.0
 30
0.0
  3
*D41
  1

  0
LINE
  5
2AD
330
4B
100
AcDbEntity
  8
寸法
  6
STYLE_01
 62
     0
370
    -2
390
1D
100
AcDbLine
 10
-360.9999999999995
 20
-183.2785221603672
 30
0.0
 11
-360.9999999999995
 21
-107.3410221603667
 31
0.0
  0
LINE
  5
2AE
330
4B
100
AcDbEntity
  8
寸法
  6
STYLE_01
 62
     0
370
    -2
390
1D
100
AcDbLine
 10
-0.0000000000055707
 20
-183.2785221603672
 30
0.0
 11
-0.0000000000055707
 21
-107.3410221603667
 31
0.0
  0
LINE
  5
2AF
330
4B
100
AcDbEntity
  8
寸法
  6
STYLE_01
 62
     0
370
    -2
390
1D
100
AcDbLine
 10
-368.9374999999995
 20
-123.2160221603667
 30
0.0
 11
-360.9999999999995
 21
-123.2160221603667
 31
0.0
  0
LINE
  5
2B0
330
4B
100
AcDbEntity
  8
寸法
  6
STYLE_01
 62
     0
370
    -2
390
1D
100
AcDbLine
 10
-0.0000000000055707
 20
-123.2160221603667
 30
0.0
 11
7.937499999994429
 21
-123.2160221603667
 31
0.0
  0
LINE
  5
2B1
330
4B
100
AcDbEntity
  8
寸法
  6
STYLE_01
 62
     0
370
    -2
390
1D
100
AcDbLine
 10
-360.9999999999995
 20
-123.2160221603667
 30
0.0
 11
-0.0000000000055707
 21
-123.2160221603667
 31
0.0
  0
LINE
  5
2B2
330
4B
100
AcDbEntity
  8
寸法
  6
STYLE_01
 62
     0
370
    20
390
1D
100
AcDbLine
 10
-355.3873399243313
 20
-117.6033620846984
 30
0.0
 11
-366.6126600756677
 21
-128.8286822360349
 31
0.0
  0
LINE
  5
2B3
330
4B
100
AcDbEntity
  8
寸法
  6
STYLE_01
 62
     0
370
    20
390
1D
100
AcDbLine
 10
-5.612660075673801
 20
-128.8286822360349
 30
0.0
 11
5.61266007566266
 21
-117.6033620846984
 31
0.0
  0
WIPEOUT
  5
2B4
330
4B
100
AcDbEntity
  8
寸法
  6
STYLE_01
 62
     0
370
    -2
390
1D
 92
      308
310
3401000002000000A80000000B0000002272DC1E85EC68C002BC854B4FA87840000000000000000000000000000000000000000000000000000000000000F03F000000000000F03F0000000000000000000000000000000041634462576970656F757400FFFFFFFF000000000000000000000000000000000000F03F000000
310
0000000000000000000000F03F000000000000000000000000000000000000000074787400424947464F4E542E534858008400000006000000050000002272DC1E85EC68C002BC854B4FA878400000000000000000948E23E17A3364C002BC854B4FA878400000000000000000948E23E17A3364C0C92D626AD4047B400000
310
0000000000002272DC1E85EC68C0C92D626AD4047B4000000000000000002272DC1E85EC68C002BC854B4FA878400000000000000000
100
AcDbWipeout
 90
        0
 10
-199.3912500672896
 20
394.5193591331482
 30
0.0
 11
37.78250013457404
 21
0.0
 31
0.0
 12
0.0
 22
37.78250013457404
 32
0.0
 13
1.0
 23
1.0
340
0
 70
     7
280
     1
281
    50
282
    50
283
     0
360
0
 71
     2
 91
        5
 14
-0.5
 24
13.99296313048931
 14
0.5
 24
13.99296313048931
 14
0.5
 24
13.19557751241441
 14
-0.5
 24
13.19557751241441
 14
-0.5
 24
13.99296313048931
  0
MTEXT
  5
2B5
330
4B
100
AcDbEntity
  8
寸法
 62
     0
390
1D
100
AcDbMText
 10
-199.3912500672896
 20
-92.95995336696387
 30
0.0
 40
15.65106879340278
 41
0.0
 71
     1
 72
     1
  1
361
  7
Calibri (bold)
 73
     1
 44
1.159596784673362
  0
POINT
  5
2B6
330
4B
100
AcDbEntity
  8
Defpoints
 62
     0
370
     0
390
1D
100
AcDbPoint
 10
-0.0000000000055707
 20
-191.2160221603672
 30
0.0
  0
POINT
  5
2B7
330
4B
100
AcDbEntity
  8
Defpoints
 62
     0
370
     0
390
1D
100
AcDbPoint
 10
-360.9999999999995
 20
-191.2160221603672
 30
0.0
  0
POINT
  5
2B8
330
4B
100
AcDbEntity
  8
Defpoints
 62
     0
370
     0
390
1D
100
AcDbPoint
 10
-360.9999999999995
 20
-123.2160221603667
 30
0.0
  0
ENDBLK
  5
2B9
330
4B
100
AcDbEntity
  8
寸法
390
1D
100
AcDbBlockEnd
  0
BLOCK
  5
2BA
330
4C
100
AcDbEntity
  8
寸法
390
1D
100
AcDbBlockBegin
  2
*D42
 70
     1
 71
     0
 10
0.0
 20
0.0
 30
0.0
  3
*D42
  1

  0
LINE
  5
2BB
330
4C
100
AcDbEntity
  8
寸法
  6
STYLE_06
 62
     0
370
    -2
390
1D
100
AcDbLine
 10
-368.9374999999995
 20
-271.2160221603669
 30
0.0
 11
-838.1746085012192
 21
-271.2160221603669
 31
0.0
  0
LINE
  5
2BC
330
4C
100
AcDbEntity
  8
寸法
  6
STYLE_06
 62
     0
370
    -2
390
1D
100
AcDbLine
 10
-368.9374999999995
 20
-511.2160221603671
 30
0.0
 11
-838.1746085012192
 21
-511.2160221603671
 31
0.0
  0
LINE
  5
2BD
330
4C
100
AcDbEntity
  8
寸法
  6
STYLE_06
 62
     0
370
    -2
390
1D
100
AcDbLine
 10
-822.2996085012192
 20
-263.2785221603669
 30
0.0
 11
-822.2996085012192
 21
-271.2160221603669
 31
0.0
  0
LINE
  5
2BE
330
4C
100
AcDbEntity
  8
寸法
  6
STYLE_06
 62
     0
370
    -2
390
1D
100
AcDbLine
 10
-822.2996085012192
 20
-511.2160221603671
 30
0.0
 11
-822.2996085012192
 21
-519.1535221603671
 31
0.0
  0
LINE
  5
2BF
330
4C
100
AcDbEntity
  8
寸法
  6
STYLE_06
 62
     0
370
    -2
390
1D
100
AcDbLine
 10
-822.2996085012192
 20
-271.2160221603669
 30
0.0
 11
-822.2996085012192
 21
-511.2160221603671
 31
0.0
  0
LINE
  5
2C0
330
4C
100
AcDbEntity
  8
寸法
  6
STYLE_06
 62
     0
370
    20
390
1D
100
AcDbLine
 10
-816.6869484255508
 20
-276.8286822360352
 30
0.0
 11
-827.9122685768873
 21
-265.6033620846987
 31
0.0
  0
LINE
  5
2C1
330
4C
100
AcDbEntity
  8
寸法
  6
STYLE_06
 62
     0
370
    20
390
1D
100
AcDbLine
 10
-827.9122685768873
 20
-505.6033620846988
 30
0.0
 11
-816.6869484255508
 21
-516.8286822360353
 31
0.0
  0
WIPEOUT
  5
2C2
330
4C
100
AcDbEntity
  8
寸法
  6
STYLE_06
 62
     0
370
    -2
390
1D
 92
      308
310
3401000002000000A80000000B0000005CA21E3E354A8BC0287E7AF909E65640000000000000000000000000000000000000000000000000000000000000F03F000000000000F03F0000000000000000000000000000000041634462576970656F757400FFFFFFFF000000000000000000000000000000000000F03F000000
310
0000000000000000000000F03F000000000000000000000000000000000000000074787400424947464F4E542E534858008400000006000000050000005CA21E3E354A8BC0287E7AF909E656400000000000000000EA85F770689A89C0287E7AF909E656400000000000000000EA85F770689A89C0DBB05931383262400000
310
0000000000005CA21E3E354A8BC0DBB059313832624000000000000000005CA21E3E354A8BC0287E7AF909E656400000000000000000
100
AcDbWipeout
 90
        0
 10
-873.2759973901079
 20
91.59435879671275
 30
0.0
 11
53.97500067287021
 21
0.0
 31
0.0
 12
0.0
 22
53.97500067287021
 32
0.0
 13
1.0
 23
1.0
340
0
 70
     7
280
     1
281
    50
282
    50
283
     0
360
0
 71
     2
 91
        5
 14
0.297385610974562
 24
9.945074107238645
 14
0.297385610974562
 24
8.945074107238646
 14
-0.5
 24
8.945074107238646
 14
-0.5
 24
9.945074107238645
 14
0.297385610974562
 24
9.945074107238645
  0
MTEXT
  5
2C3
330
4C
100
AcDbEntity
  8
寸法
 62
     0
390
1D
100
AcDbMText
 10
-862.1207782060801
 20
-418.2035224968021
 30
0.0
 40
22.35866970486111
 41
0.0
 71
     1
 72
     1
  1
240
  7
Calibri (bold)
 11
0.0
 21
1.0
 31
0.0
 73
     1
 44
1.159596784673362
  0
POINT
  5
2C4
330
4C
100
AcDbEntity
  8
Defpoints
 62
     0
370
     0
390
1D
100
AcDbPoint
 10
-360.9999999999995
 20
-511.2160221603671
 30
0.0
  0
POINT
  5
2C5
330
4C
100
AcDbEntity
  8
Defpoints
 62
     0
370
     0
390
1D
100
AcDbPoint
 10
-360.9999999999995
 20
-271.2160221603669
 30
0.0
  0
POINT
  5
2C6
330
4C
100
AcDbEntity
  8
Defpoints
 62
     0
370
     0
390
1D
100
AcDbPoint
 10
-822.2996085012192
 20
-271.2160221603669
 30
0.0
  0
ENDBLK
  5
2C7
330
4C
100
AcDbEntity
  8
寸法
390
1D
100
AcDbBlockEnd
  0
BLOCK
  5
2C8
330
4D
100
AcDbEntity
  8
寸法
390
1D
100
AcDbBlockBegin
  2
*D43
 70
     1
 71
     0
 10
0.0
 20
0.0
 30
0.0
  3
*D43
  1

  0
LINE
  5
2C9
330
4D
100
AcDbEntity
  8
寸法
  6
STYLE_01
 62
     0
370
    -2
390
1D
100
AcDbLine
 10
-480.9999999999999
 20
94.9375
 30
0.0
 11
-480.9999999999999
 21
133.875
 31
0.0
  0
LINE
  5
2CA
330
4D
100
AcDbEntity
  8
寸法
  6
STYLE_01
 62
     0
370
    -2
390
1D
100
AcDbLine
 10
-240.9999999999998
 20
94.9375
 30
0.0
 11
-240.9999999999998
 21
133.875
 31
0.0
  0
LINE
  5
2CB
330
4D
100
AcDbEntity
  8
寸法
  6
STYLE_01
 62
     0
370
    -2
390
1D
100
AcDbLine
 10
-488.9374999999999
 20
118.0
 30
0.0
 11
-480.9999999999999
 21
118.0
 31
0.0
  0
LINE
  5
2CC
330
4D
100
AcDbEntity
  8
寸法
  6
STYLE_01
 62
     0
370
    -2
390
1D
100
AcDbLine
 10
-240.9999999999998
 20
118.0
 30
0.0
 11
-233.0624999999998
 21
118.0
 31
0.0
  0
LINE
  5
2CD
330
4D
100
AcDbEntity
  8
寸法
  6
STYLE_01
 62
     0
370
    -2
390
1D
100
AcDbLine
 10
-480.9999999999999
 20
118.0
 30
0.0
 11
-240.9999999999998
 21
118.0
 31
0.0
  0
LINE
  5
2CE
330
4D
100
AcDbEntity
  8
寸法
  6
STYLE_01
 62
     0
370
    20
390
1D
100
AcDbLine
 10
-475.3873399243317
 20
123.6126600756682
 30
0.0
 11
-486.6126600756682
 21
112.3873399243318
 31
0.0
  0
LINE
  5
2CF
330
4D
100
AcDbEntity
  8
寸法
  6
STYLE_01
 62
     0
370
    20
390
1D
100
AcDbLine
 10
-246.612660075668
 20
112.3873399243318
 30
0.0
 11
-235.3873399243316
 21
123.6126600756682
 31
0.0
  0
WIPEOUT
  5
2D0
330
4D
100
AcDbEntity
  8
寸法
  6
STYLE_01
 62
     0
370
    -2
390
1D
 92
      308
310
3401000002000000A80000000B000000E3386E8F42BE77C0E46D960FE2DD8340000000000000000000000000000000000000000000000000000000000000F03F000000000000F03F0000000000000000000000000000000041634462576970656F757400FFFFFFFF000000000000000000000000000000000000F03F000000
310
0000000000000000000000F03F000000000000000000000000000000000000000074787400424947464F4E542E53485800840000000600000005000000E3386E8F42BE77C0E46D960FE2DD834000000000000000001CC79170BD6175C0E46D960FE2DD834000000000000000001CC79170BD6175C0C8A6049F240C85400000
310
000000000000E3386E8F42BE77C0C8A6049F240C85400000000000000000E3386E8F42BE77C0E46D960FE2DD83400000000000000000
100
AcDbWipeout
 90
        0
 10
-379.891250067287
 20
635.7353812935148
 30
0.0
 11
37.78250013457404
 21
0.0
 31
0.0
 12
0.0
 22
37.78250013457404
 32
0.0
 13
1.0
 23
1.0
340
0
 70
     7
280
     1
281
    50
282
    50
283
     0
360
0
 71
     2
 91
        5
 14
-0.5
 24
13.99296313048931
 14
0.5
 24
13.99296313048931
 14
0.5
 24
13.19557751241441
 14
-0.5
 24
13.19557751241441
 14
-0.5
 24
13.99296313048931
  0
MTEXT
  5
2D1
330
4D
100
AcDbEntity
  8
寸法
 62
     0
390
1D
100
AcDbMText
 10
-379.891250067287
 20
148.2560687934027
 30
0.0
 40
15.65106879340278
 41
0.0
 71
     1
 72
     1
  1
240
  7
Calibri (bold)
 73
     1
 44
1.159596784673362
  0
POINT
  5
2D2
330
4D
100
AcDbEntity
  8
Defpoints
 62
     0
370
     0
390
1D
100
AcDbPoint
 10
-240.9999999999998
 20
87.0
 30
0.0
  0
POINT
  5
2D3
330
4D
100
AcDbEntity
  8
Defpoints
 62
     0
370
     0
390
1D
100
AcDbPoint
 10
-480.9999999999999
 20
87.0
 30
0.0
  0
POINT
  5
2D4
330
4D
100
AcDbEntity
  8
Defpoints
 62
     0
370
     0
390
1D
100
AcDbPoint
 10
-480.9999999999999
 20
118.0
 30
0.0
  0
ENDBLK
  5
2D5
330
4D
100
AcDbEntity
  8
寸法
390
1D
100
AcDbBlockEnd
  0
ENDSEC
  0
SECTION
  2
ENTITIES
  0
MTEXT
  5
2D6
330
A
100
AcDbEntity
  8
一般
 62
     7
390
1D
100
AcDbMText
 10
-661.6352956018434
 20
-796.0231573781234
 30
0.0
 40
15.65106879340278
 41
503.8660878284782
 71
     1
 72
     1
  1
VG300T\Pボルト　：　φ370　12×M16　（振分け）\PＯリング溝： V325\P{\H0.9415x;\l内径　：　φ240}
  7
Calibri (bold)
 73
     1
 44
1.159596784673362
  0
INSERT
  5
2D7
330
A
100
AcDbEntity
  8
寸法
 62
     7
390
1D
100
AcDbBlockReference
  2
グループ-3
 10
156.2881832302704
 20
-353.5096980632445
 30
0.0
  0
INSERT
  5
2D8
330
A
100
AcDbEntity
  8
寸法
 62
     7
390
1D
100
AcDbBlockReference
  2
グループ-11
 10
156.2881832302704
 20
-353.5096980632445
 30
0.0
  0
INSERT
  5
2D9
330
A
100
AcDbEntity
  8
寸法
 62
     7
390
1D
100
AcDbBlockReference
  2
グループ-18
 10
156.2881832302704
 20
-353.5096980632445
 30
0.0
  0
LINE
  5
2DA
330
A
100
AcDbEntity
  8
寸法
  6
STYLE_07
 62
     7
370
    18
390
1D
100
AcDbLine
 10
-360.9999999999995
 20
-669.2932766807834
 30
0.0
 11
-360.9999999999995
 21
116.0
 31
0.0
  0
LINE
  5
2DB
330
A
100
AcDbEntity
  8
寸法
  6
Continuous
 62
     7
370
    18
390
1D
100
AcDbLine
 10
-361.0000000000003
 20
-313.041022160367
 30
0.0
 11
-360.9999999999999
 21
-302.6540122301378
 31
0.0
  0
MTEXT
  5
2DC
330
A
100
AcDbEntity
  8
一般
 62
     7
390
1D
100
AcDbMText
 10
453.2307922266351
 20
-627.024675589186
 30
0.0
 40
15.65106879340278
 41
503.8660878284782
 71
     1
 72
     1
  1
VF300F\Pボルト　：　φ370　12×M16キリ　（振分け）\PＯリングなし\P内径　：　φ240
  7
Calibri (bold)
 73
     1
 44
1.159596784673362
  0
DIMENSION
  5
2DD
330
A
100
AcDbEntity
  8
寸法
  6
STYLE_01
 62
     7
370
    18
390
1D
100
AcDbDimension
  2
*D21
 10
386.7003914987809
 20
-75.2160221603661
 30
0.0
 11
331.7003914987809
 21
-75.2160221603661
 31
0.0
 70
    32
 71
     5
 42
-1.0
  3
Arch
100
AcDbAlignedDimension
 13
276.7003914987809
 23
-207.2160221603673
 33
0.0
 14
386.7003914987809
 24
-207.2160221603673
 34
0.0
100
AcDbRotatedDimension
1001
ACAD
1000
DSTYLE
1002
{
1070
   279
1070
     2
1070
   340
1005
4E
1070
   147
1040
7.9375
1002
}
  0
DIMENSION
  5
2DE
330
A
100
AcDbEntity
  8
寸法
  6
STYLE_01
 62
     7
370
    18
390
1D
100
AcDbDimension
  2
*D22
 10
-675.0000000000064
 20
-207.2160221603673
 30
0.0
 11
-675.0000000000064
 21
-391.2160221603667
 31
0.0
 70
    32
 71
     5
 42
-1.0
  3
Arch
100
AcDbAlignedDimension
 13
276.7003914987809
 23
-575.216022160366
 33
0.0
 14
276.7003914987809
 24
-207.2160221603673
 34
0.0
 50
90.0
100
AcDbRotatedDimension
1001
ACAD
1000
DSTYLE
1002
{
1070
   279
1070
     2
1070
   340
1005
4E
1070
   147
1040
7.9375
1002
}
  0
DIMENSION
  5
2DF
330
A
100
AcDbEntity
  8
寸法
  6
STYLE_01
 62
     7
370
    18
390
1D
100
AcDbDimension
  2
*D23
 10
-675.0000000000064
 20
-191.2160221603672
 30
0.0
 11
-675.0000000000064
 21
-199.2160221603673
 31
0.0
 70
    32
 71
     5
 42
-1.0
  3
Arch
100
AcDbAlignedDimension
 13
-586.0000000000064
 23
-207.2160221603673
 33
0.0
 14
-586.0000000000064
 24
-191.2160221603672
 34
0.0
 50
90.0
100
AcDbRotatedDimension
1001
ACAD
1000
DSTYLE
1002
{
1070
   279
1070
     2
1070
   340
1005
4E
1070
   147
1040
7.9375
1002
}
  0
DIMENSION
  5
2E0
330
A
100
AcDbEntity
  8
寸法
  6
STYLE_01
 62
     7
370
    18
390
1D
100
AcDbDimension
  2
*D24
 10
-675.0000000000064
 20
-591.216022160366
 30
0.0
 11
-675.0000000000064
 21
-583.216022160366
 31
0.0
 70
    32
 71
     5
 42
-1.0
  3
Arch
100
AcDbAlignedDimension
 13
-586.0000000000064
 23
-575.216022160366
 33
0.0
 14
-586.0000000000064
 24
-591.216022160366
 34
0.0
 50
90.0
100
AcDbRotatedDimension
1001
ACAD
1000
DSTYLE
1002
{
1070
   279
1070
     2
1070
   340
1005
4E
1070
   147
1040
7.9375
1002
}
  0
DIMENSION
  5
2E1
330
A
100
AcDbEntity
  8
寸法
  6
STYLE_01
 62
     7
370
    18
390
1D
100
AcDbDimension
  2
*D25
 10
82.99999999999443
 20
55.0
 30
0.0
 11
82.99999999999443
 21
0.0
 31
0.0
 70
    32
 71
     5
 42
-1.0
  3
Arch
100
AcDbAlignedDimension
 13
0.0
 23
-55.0
 33
0.0
 14
0.0
 24
55.0
 34
0.0
 50
90.0
100
AcDbRotatedDimension
1001
ACAD
1000
DSTYLE
1002
{
1070
   279
1070
     2
1070
   340
1005
4E
1070
   147
1040
7.9375
1002
}
  0
DIMENSION
  5
2E2
330
A
100
AcDbEntity
  8
寸法
  6
STYLE_01
 62
     7
370
    18
390
1D
100
AcDbDimension
  2
*D26
 10
0.0
 20
-743.216022160366
 30
0.0
 11
-293.0000000000005
 21
-743.216022160366
 31
0.0
 70
    32
 71
     5
 42
-1.0
  3
Arch
100
AcDbAlignedDimension
 13
-586.0000000000009
 23
-71.0
 33
0.0
 14
0.0
 24
-71.0
 34
0.0
100
AcDbRotatedDimension
1001
ACAD
1000
DSTYLE
1002
{
1070
   279
1070
     2
1070
   340
1005
4E
1070
   147
1040
7.9375
1002
}
  0
DIMENSION
  5
2E3
330
A
100
AcDbEntity
  8
寸法
  6
STYLE_01
 62
     7
370
    18
390
1D
100
AcDbDimension
  2
*D27
 10
529.7918046807315
 20
-191.2160221603667
 30
0.0
 11
529.7918046807315
 21
-391.2160221603667
 31
0.0
 70
    32
 71
     5
 42
-1.0
  3
Arch
100
AcDbAlignedDimension
 13
402.7003914987809
 23
-591.2160221603667
 33
0.0
 14
402.7003914987809
 24
-191.2160221603667
 34
0.0
 50
90.0
100
AcDbRotatedDimension
1001
ACAD
1000
DSTYLE
1002
{
1070
   279
1070
     2
1070
   340
1005
4E
1070
   147
1040
7.9375
1002
}
  0
DIMENSION
  5
2E4
330
A
100
AcDbEntity
  8
寸法
  6
STYLE_01
 62
     7
370
    18
390
1D
100
AcDbDimension
  2
*D28
 10
-0.0000000000055707
 20
-743.216022160366
 30
0.0
 11
7.999999999994429
 21
-743.216022160366
 31
0.0
 70
    32
 71
     5
 42
-1.0
  3
Arch
100
AcDbAlignedDimension
 13
15.99999999999443
 23
-611.216022160366
 33
0.0
 14
-0.0000000000055707
 24
-611.216022160366
 34
0.0
100
AcDbRotatedDimension
1001
ACAD
1000
DSTYLE
1002
{
1070
   279
1070
     2
1070
   340
1005
4E
1070
   147
1040
7.9375
1002
}
  0
DIMENSION
  5
2E5
330
A
100
AcDbEntity
  8
寸法
  6
STYLE_01
 62
     7
370
    18
390
1D
100
AcDbDimension
  2
*D29
 10
-667.0
 20
-71.0
 30
0.0
 11
-667.0
 21
0.0
 31
0.0
 70
    32
 71
     5
 42
-1.0
  3
Arch
100
AcDbAlignedDimension
 13
-586.0000000000009
 23
71.0
 33
0.0
 14
-586.0000000000009
 24
-71.0
 34
0.0
 50
90.0
100
AcDbRotatedDimension
1001
ACAD
1000
DSTYLE
1002
{
1070
   279
1070
     2
1070
   340
1005
4E
1070
   147
1040
7.9375
1002
}
  0
DIMENSION
  5
2E6
330
A
100
AcDbEntity
  8
寸法
  6
Continuous
 62
     7
370
    18
390
1D
100
AcDbDimension
  2
*D30
 10
-667.0
 20
71.0
 30
0.0
 11
-667.0
 21
79.0
 31
0.0
 70
    32
 71
     5
 42
-1.0
  3
Arch
100
AcDbAlignedDimension
 13
-551.7623956929658
 23
87.0
 33
0.0
 14
-561.0
 24
71.0
 34
0.0
 50
90.0
100
AcDbRotatedDimension
1001
ACAD
1000
DSTYLE
1002
{
1070
   279
1070
     2
1070
   340
1005
4E
1070
   147
1040
7.9375
1002
}
  0
LINE
  5
2E7
330
A
100
AcDbEntity
  8
寸法
  6
STYLE_06
 62
     7
370
    18
390
1D
100
AcDbLine
 10
-481.0000000000016
 20
-71.00000000000011
 30
0.0
 11
-481.0000000000005
 21
-391.2160221603669
 31
0.0
  0
LINE
  5
2E8
330
A
100
AcDbEntity
  8
寸法
  6
STYLE_06
 62
     7
370
    18
390
1D
100
AcDbLine
 10
-241.0000000000016
 20
-71.00000000000011
 30
0.0
 11
-240.9999999999994
 21
-391.216022160367
 31
0.0
  0
LINE
  5
2E9
330
A
100
AcDbEntity
  8
寸法
  6
STYLE_06
 62
     7
370
    18
390
1D
100
AcDbLine
 10
-360.9999999999995
 20
-271.2160221603669
 30
0.0
 11
260.7003914987808
 21
-271.2160221603667
 31
0.0
  0
LINE
  5
2EA
330
A
100
AcDbEntity
  8
寸法
  6
STYLE_06
 62
     7
370
    18
390
1D
100
AcDbLine
 10
-360.9999999999995
 20
-511.2160221603671
 30
0.0
 11
260.7003914987808
 21
-511.2160221603667
 31
0.0
  0
LINE
  5
2EB
330
A
100
AcDbEntity
  8
寸法
  6
STYLE_07
 62
     7
370
    18
390
1D
100
AcDbLine
 10
-225.1249999999994
 20
-391.216022160367
 30
0.0
 11
465.0
 21
-391.216022160367
 31
0.0
  0
DIMENSION
  5
2EC
330
A
100
AcDbEntity
  8
寸法
  6
STYLE_01
 62
     7
370
    18
390
1D
100
AcDbDimension
  2
*D31
 10
-608.9999999999995
 20
71.0
 30
0.0
 11
-608.9999999999995
 21
63.0
 31
0.0
 70
    32
 71
     5
 42
-1.0
  3
Arch
100
AcDbAlignedDimension
 13
-570.0000000000009
 23
55.0
 33
0.0
 14
-586.0000000000009
 24
71.0
 34
0.0
 50
90.0
100
AcDbRotatedDimension
1001
ACAD
1000
DSTYLE
1002
{
1070
   279
1070
     2
1070
   340
1005
4E
1070
   147
1040
7.9375
1002
}
  0
DIMENSION
  5
2ED
330
A
100
AcDbEntity
  8
寸法
  6
STYLE_01
 62
     7
370
    18
390
1D
100
AcDbDimension
  2
*D32
 10
-608.9999999999995
 20
-55.0
 30
0.0
 11
-608.9999999999995
 21
-63.0
 31
0.0
 70
    32
 71
     5
 42
-1.0
  3
Arch
100
AcDbAlignedDimension
 13
-586.0000000000009
 23
-71.0
 33
0.0
 14
-570.0000000000009
 24
-55.0
 34
0.0
 50
90.0
100
AcDbRotatedDimension
1001
ACAD
1000
DSTYLE
1002
{
1070
   279
1070
     2
1070
   340
1005
4E
1070
   147
1040
7.9375
1002
}
  0
MTEXT
  5
2EE
330
A
100
AcDbEntity
  8
寸法
 62
     7
390
1D
100
AcDbMText
 10
-179.2901705163287
 20
-799.0246755891861
 30
0.0
 40
15.65106879340278
 41
0.0
 71
     1
 72
     1
  1
M6タップ（深ささ：10）×8
  7
Calibri (bold)
 73
     1
 44
1.159596784673362
  0
LINE
  5
2EF
330
A
100
AcDbEntity
  8
寸法
  6
STYLE_08
 62
     7
370
    18
390
1D
100
AcDbLine
 10
-123.2996085012191
 20
-781.2160221603667
 30
0.0
 11
-65.2996085012191
 21
-591.216022160366
 31
0.0
  0
DIMENSION
  5
2F0
330
A
100
AcDbEntity
  8
寸法
  6
STYLE_01
 62
     7
370
    18
390
1D
100
AcDbDimension
  2
*D33
 10
-586.0000000000064
 20
-161.2160221603667
 30
0.0
 11
-556.0000000000064
 21
-161.2160221603667
 31
0.0
 70
    32
 71
     5
 42
-1.0
  3
Arch
100
AcDbAlignedDimension
 13
-526.0000000000064
 23
-197.2160221603672
 33
0.0
 14
-586.0000000000064
 24
-191.2160221603672
 34
0.0
100
AcDbRotatedDimension
1001
ACAD
1000
DSTYLE
1002
{
1070
   279
1070
     2
1070
   340
1005
4E
1070
   147
1040
7.9375
1002
}
  0
DIMENSION
  5
2F1
330
A
100
AcDbEntity
  8
寸法
  6
STYLE_01
 62
     7
370
    18
390
1D
100
AcDbDimension
  2
*D34
 10
-60.00000000000642
 20
-161.2160221603667
 30
0.0
 11
-30.000000000006
 21
-161.2160221603667
 31
0.0
 70
    32
 71
     5
 42
-1.0
  3
Arch
100
AcDbAlignedDimension
 13
-0.0000000000055707
 23
-191.2160221603672
 33
0.0
 14
-60.00000000000642
 24
-197.2160221603672
 34
0.0
100
AcDbRotatedDimension
1001
ACAD
1000
DSTYLE
1002
{
1070
   279
1070
     2
1070
   340
1005
4E
1070
   147
1040
7.9375
1002
}
  0
DIMENSION
  5
2F2
330
A
100
AcDbEntity
  8
寸法
  6
STYLE_01
 62
     7
370
    18
390
1D
100
AcDbDimension
  2
*D35
 10
260.7003914987808
 20
-141.2160221603667
 30
0.0
 11
278.2003914987808
 21
-141.2160221603667
 31
0.0
 70
    32
 71
     5
 42
-1.0
  3
Arch
100
AcDbAlignedDimension
 13
295.7003914987808
 23
-197.2160221603667
 33
0.0
 14
260.7003914987808
 24
-191.2160221603667
 34
0.0
100
AcDbRotatedDimension
1001
ACAD
1000
DSTYLE
1002
{
1070
   279
1070
     2
1070
   340
1005
4E
1070
   147
1040
7.9375
1002
}
  0
DIMENSION
  5
2F3
330
A
100
AcDbEntity
  8
寸法
  6
STYLE_01
 62
     7
370
    18
390
1D
100
AcDbDimension
  2
*D36
 10
402.7003914987809
 20
-141.2160221603667
 30
0.0
 11
385.2003914987809
 21
-141.2160221603667
 31
0.0
 70
    32
 71
     5
 42
-1.0
  3
Arch
100
AcDbAlignedDimension
 13
367.7003914987809
 23
-197.2160221603673
 33
0.0
 14
402.7003914987809
 24
-191.2160221603667
 34
0.0
100
AcDbRotatedDimension
1001
ACAD
1000
DSTYLE
1002
{
1070
   279
1070
     2
1070
   340
1005
4E
1070
   147
1040
7.9375
1002
}
  0
DIMENSION
  5
2F4
330
A
100
AcDbEntity
  8
寸法
  6
STYLE_01
 62
     7
370
    18
390
1D
100
AcDbDimension
  2
*D37
 10
295.7003914987808
 20
-141.2160221603667
 30
0.0
 11
331.7003914987808
 21
-141.2160221603667
 31
0.0
 70
    32
 71
     5
 42
-1.0
  3
Arch
100
AcDbAlignedDimension
 13
367.7003914987809
 23
-197.2160221603673
 33
0.0
 14
295.7003914987808
 24
-197.2160221603667
 34
0.0
100
AcDbRotatedDimension
1001
ACAD
1000
DSTYLE
1002
{
1070
   279
1070
     2
1070
   340
1005
4E
1070
   147
1040
7.9375
1002
}
  0
DIMENSION
  5
2F5
330
A
100
AcDbEntity
  8
寸法
  6
STYLE_01
 62
     7
370
    18
390
1D
100
AcDbDimension
  2
*D38
 10
-561.0
 20
164.0
 30
0.0
 11
-360.9999999999999
 21
164.0
 31
0.0
 70
    32
 71
     5
 42
-1.0
  3
Arch
100
AcDbAlignedDimension
 13
-160.9999999999998
 23
87.0
 33
0.0
 14
-561.0
 24
87.0
 34
0.0
100
AcDbRotatedDimension
1001
ACAD
1000
DSTYLE
1002
{
1070
   279
1070
     2
1070
   340
1005
4E
1070
   147
1040
7.9375
1002
}
  0
DIMENSION
  5
2F6
330
A
100
AcDbEntity
  8
寸法
  6
STYLE_01
 62
     7
370
    18
390
1D
100
AcDbDimension
  2
*D39
 10
-675.0000000000064
 20
-591.216022160366
 30
0.0
 11
-675.0000000000064
 21
-641.216022160366
 31
0.0
 70
    32
 71
     5
 42
-1.0
  3
Arch
100
AcDbAlignedDimension
 13
-205.9999999999999
 23
-691.216022160366
 33
0.0
 14
-586.0000000000064
 24
-591.216022160366
 34
0.0
 50
90.0
100
AcDbRotatedDimension
1001
ACAD
1000
DSTYLE
1002
{
1070
   279
1070
     2
1070
   340
1005
4E
1070
   140
1040
15.65106879340278
1070
   147
1040
7.9375
1002
}
  0
DIMENSION
  5
2F7
330
A
100
AcDbEntity
  8
寸法
  6
STYLE_01
 62
     7
370
    18
390
1D
100
AcDbDimension
  2
*D40
 10
-586.0000000000064
 20
-123.2160221603667
 30
0.0
 11
-473.5000000000029
 21
-123.2160221603667
 31
0.0
 70
    32
 71
     5
 42
-1.0
  3
Arch
100
AcDbAlignedDimension
 13
-360.9999999999995
 23
-191.2160221603672
 33
0.0
 14
-586.0000000000064
 24
-191.2160221603672
 34
0.0
100
AcDbRotatedDimension
1001
ACAD
1000
DSTYLE
1002
{
1070
   279
1070
     2
1070
   340
1005
4E
1070
   140
1040
15.65106879340278
1070
   147
1040
7.9375
1002
}
  0
DIMENSION
  5
2F8
330
A
100
AcDbEntity
  8
寸法
  6
STYLE_01
 62
     7
370
    18
390
1D
100
AcDbDimension
  2
*D41
 10
-360.9999999999995
 20
-123.2160221603667
 30
0.0
 11
-180.5000000000026
 21
-123.2160221603667
 31
0.0
 70
    32
 71
     5
 42
-1.0
  3
Arch
100
AcDbAlignedDimension
 13
-0.0000000000055707
 23
-191.2160221603672
 33
0.0
 14
-360.9999999999995
 24
-191.2160221603672
 34
0.0
100
AcDbRotatedDimension
1001
ACAD
1000
DSTYLE
1002
{
1070
   279
1070
     2
1070
   340
1005
4E
1070
   140
1040
15.65106879340278
1070
   147
1040
7.9375
1002
}
  0
DIMENSION
  5
2F9
330
A
100
AcDbEntity
  8
寸法
  6
STYLE_06
 62
     7
370
    18
390
1D
100
AcDbDimension
  2
*D42
 10
-822.2996085012192
 20
-271.2160221603669
 30
0.0
 11
-822.2996085012192
 21
-391.216022160367
 31
0.0
 70
    32
 71
     5
 42
-1.0
  3
Arch
100
AcDbAlignedDimension
 13
-360.9999999999995
 23
-511.2160221603671
 33
0.0
 14
-360.9999999999995
 24
-271.2160221603669
 34
0.0
 50
90.0
100
AcDbRotatedDimension
1001
ACAD
1000
DSTYLE
1002
{
1070
   279
1070
     2
1070
   340
1005
4E
1070
   140
1040
22.35866970486111
1070
   147
1040
7.9375
1002
}
  0
DIMENSION
  5
2FA
330
A
100
AcDbEntity
  8
寸法
  6
STYLE_01
 62
     7
370
    18
390
1D
100
AcDbDimension
  2
*D43
 10
-480.9999999999999
 20
118.0
 30
0.0
 11
-360.9999999999999
 21
118.0
 31
0.0
 70
    32
 71
     5
 42
-1.0
  3
Arch
100
AcDbAlignedDimension
 13
-240.9999999999998
 23
87.0
 33
0.0
 14
-480.9999999999999
 24
87.0
 34
0.0
100
AcDbRotatedDimension
1001
ACAD
1000
DSTYLE
1002
{
1070
   279
1070
     2
1070
   340
1005
4E
1070
   147
1040
7.9375
1002
}
  0
MTEXT
  5
2FB
330
A
100
AcDbEntity
  8
寸法
 62
     7
390
1D
100
AcDbMText
 10
-785.0
 20
230.6782704316198
 30
0.0
 40
20.122802734375
 41
0.0
 71
     1
 72
     1
  1
K. PPAC Chamber
  7
Calibri (bold)
 73
     1
 44
1.159596784673362
  0
ENDSEC
  0
SECTION
  2
OBJECTS
  0
DICTIONARY
  5
19
330
0
100
AcDbDictionary
281
     1
  3
ACAD_GROUP
350
1A
  3
ACAD_LAYOUT
350
1E
  3
ACAD_MLINESTYLE
350
1B
  3
ACAD_PLOTSETTINGS
350
22
  3
ACAD_PLOTSTYLENAME
350
1F
  3
ACAD_WIPEOUT_VARS
350
23
  0
DICTIONARY
  5
1A
102
{ACAD_REACTORS
330
19
102
}
330
19
100
AcDbDictionary
281
     1
  0
DICTIONARY
  5
1E
102
{ACAD_REACTORS
330
19
102
}
330
19
100
AcDbDictionary
281
     1
  3
Layout1
350
21
  3
Model
350
20
  0
DICTIONARY
  5
1B
102
{ACAD_REACTORS
330
19
102
}
330
19
100
AcDbDictionary
281
     1
  3
Standard
350
1C
  0
DICTIONARY
  5
22
102
{ACAD_REACTORS
330
19
102
}
330
19
100
AcDbDictionary
281
     1
  0
ACDBDICTIONARYWDFLT
  5
1F
102
{ACAD_REACTORS
330
19
102
}
330
19
100
AcDbDictionary
281
     1
  3
Normal
350
1D
100
AcDbDictionaryWithDefault
340
1D
  0
WIPEOUTVARIABLES
  5
23
330
19
100
AcDbWipeoutVariables
 70
     0
  0
LAYOUT
  5
21
102
{ACAD_REACTORS
330
1E
102
}
330
1E
100
AcDbPlotSettings
  1

  2

  4

  6

 40
0.0
 41
0.0
 42
0.0
 43
0.0
 44
0.0
 45
0.0
 46
0.0
 47
0.0
 48
0.0
 49
0.0
140
0.0
141
0.0
142
1.0
143
1.0
 70
     0
 72
     0
 73
     0
 74
     0
  7

 75
     0
 76
     0
 77
     2
 78
   300
147
1.0
148
0.0
149
0.0
100
AcDbLayout
  1
Layout1
 70
     0
 71
     0
 10
0.0
 20
0.0
 11
0.0
 21
0.0
 12
0.0
 22
0.0
 32
0.0
 14
0.0
 24
0.0
 34
0.0
 15
0.0
 25
0.0
 35
0.0
146
0.0
 13
0.0
 23
0.0
 33
0.0
 16
0.0
 26
0.0
 36
0.0
 17
0.0
 27
0.0
 37
0.0
 76
     0
330
B
  0
LAYOUT
  5
20
102
{ACAD_REACTORS
330
1E
102
}
330
1E
100
AcDbPlotSettings
  1

  2

  4

  6

 40
0.0
 41
0.0
 42
0.0
 43
0.0
 44
0.0
 45
0.0
 46
0.0
 47
0.0
 48
0.0
 49
0.0
140
0.0
141
0.0
142
1.0
143
1.0
 70
  1024
 72
     0
 73
     0
 74
     0
  7

 75
     0
 76
     0
 77
     2
 78
   300
147
1.0
148
0.0
149
0.0
100
AcDbLayout
  1
Model
 70
     0
 71
     0
 10
0.0
 20
0.0
 11
0.0
 21
0.0
 12
0.0
 22
0.0
 32
0.0
 14
0.0
 24
0.0
 34
0.0
 15
0.0
 25
0.0
 35
0.0
146
0.0
 13
0.0
 23
0.0
 33
0.0
 16
0.0
 26
0.0
 36
0.0
 17
0.0
 27
0.0
 37
0.0
 76
     0
330
A
  0
MLINESTYLE
  5
1C
102
{ACAD_REACTORS
330
1B
102
}
330
1B
100
AcDbMlineStyle
  2
Standard
 70
     0
  3

 62
     0
 51
90.0
 52
90.0
 71
     2
 49
0.5
 62
   256
  6
BYLAYER
 49
-0.5
 62
   256
  6
BYLAYER
  0
ACDBPLACEHOLDER
  5
1D
102
{ACAD_REACTORS
330
1F
102
}
330
1F
  0
ENDSEC
  0
EOF
